#TITLE:ココスキ悪魔;
#SUBTITLE:;
#ARTIST:みそしる;
#TITLETRANSLIT:Cocosuki Akuma;
#SUBTITLETRANSLIT:;
#ARTISTTRANSLIT:Misoshiru;
#GENRE:POP;
#CREDIT:;
#MUSIC:Cocosuki Akuma.ogg;
#BANNER:Cocosuki Akuma.png;
#BACKGROUND:Cocosuki Akuma-bg.png;
#CDTITLE:;
#SAMPLESTART:1.461;
#SAMPLELENGTH:13.000;
#SELECTABLE:YES;
#OFFSET:-0.128;
#BPMS:0.000=180.000
,51.000=1440.000
,67.000=180.000
,109.500=360.000
,117.500=180.000
,200.000=90.000
,216.000=180.000
,232.000=360.000
,248.000=720.000
,264.000=180.000
,275.000=90.000
,276.250=180.000
,279.250=720.000
,283.000=180.000
,293.500=360.000
,296.500=180.000
,309.000=720.000
,313.000=90.000
,314.250=180.000
,317.250=720.000
,323.500=180.000
,333.500=360.000
,337.000=180.000
,349.500=360.000
,350.000=90.000
,350.125=360.000
,350.625=90.000
,350.750=360.000
,351.250=90.000
,351.375=360.000
,351.875=90.000
,352.000=180.000
;
#STOPS:44.000=0.083
,44.250=0.250
,44.500=0.250
,44.750=0.250
,67.000=0.167
,85.000=0.500
,197.500=0.500
,264.000=0.667
,337.000=0.583
,339.500=0.250
,339.750=0.250
,340.000=0.250
,340.250=0.250
,344.500=0.250
,344.750=0.250
,345.000=0.250
,345.250=0.250
,349.500=0.167
,350.125=0.167
,350.750=0.167
,351.375=0.167
,363.500=1.167
;
#BGCHANGES:;
#FGCHANGES:;

//--------------- dance-single - ----------------
#NOTES:
     dance-single:
     :
     Edit:
     10:
     0,0,0,0,0:
0000
0000
0000
0000
,
0000
0000
0000
0000
,
0000
0000
0000
0000
0001
1000
0001
1000
,
0010
0000
0100
0000
0010
0000
0100
0000
0001
1000
0001
1000
0001
0000
0000
0000
,
1000
0000
0001
0000
1000
0000
0001
0000
0010
0100
0010
0100
0010
0000
0000
0000
,
0001
0000
0010
0000
0100
0000
1000
0000
1001
1001
1001
1001
1001
0000
0000
0000
,
0100
0000
0000
0000
0010
0000
0000
0000
0100
0000
0000
0000
0010
0000
0000
0000
M10M
M01M
M10M
M01M
M10M
M01M
M10M
M01M
M10M
0000
0000
0000
0000
0000
0000
0000
,
0001
0000
1000
0000
0001
0000
1000
0000
0010
0100
0010
0100
0010
0000
0000
0000
,
1000
0000
0001
0000
1000
0000
0001
0000
0010
0100
0010
0100
0010
0000
0000
0000
,
0001
0000
0010
0000
0100
0000
1000
0000
MMM1
MM1M
M1MM
1MMM
MMM1
0000
0000
0000
,
1000
0000
0010
0000
0100
0000
0001
0000
1100
0011
1100
0011
1100
0000
0000
0000
,
0100
0100
0100
0100
0002
0000
0000
0000
0013
0000
0100
0000
0010
0000
0001
0000
,
1000
0001
1000
0010
0010
0000
2000
0000
,
0000
0000
0000
0000
,
0000
0000
0000
3002
,
0000
0000
0000
0000
,
0000
0000
0000
0000
0000
0000
0000
0000
0000
0000
0000
0000
2000
3003
0100
0000
,
0100
0100
0010
0010
0010
1000
0001
0010
,
0100
0001
0010
0100
1000
0001
0100
0010
,
0100
0000
0010
0000
2002
0000
0000
0000
0000
0000
0000
0000
3003
MMMM
MMMM
MMMM
,
MMMM
MMMM
MMMM
MMMM
MMMM
MMMM
MMMM
MMMM
MMMM
MMMM
MMMM
MMMM
MMMM
0000
0001
0000
,
1000
0000
0001
0000
2002
3003
0010
0000
0100
0000
0010
0000
0100
0000
0001
1000
,
0001
1000
0001
0000
0000
0000
1000
0000
0001
0000
1000
0000
0001
0000
0010
0100
,
0010
0100
0010
0000
0000
0000
0001
0000
0010
0000
0100
0000
1000
0000
1001
1001
,
1001
0000
1001
0000
1001
0000
0000
0000
0000
0000
0000
0000
0100
0000
0000
0000
0010
0000
0000
0000
0100
0000
0000
0000
0010
0000
0000
0000
M10M
M01M
M10M
M01M
,
M10M
M01M
M10M
M01M
M10M
0000
0000
0000
0000
0000
0000
0000
0001
0000
0000
0000
1000
0000
0000
0000
0001
0000
0000
0000
1000
0000
0000
0000
0000
0000
0000
0000
,
0000
0000
0000
0100
0000
0100
0000
0100
,
0100
0000
0100
0100
0100
0100
0100
0100
0100
0100
0100
0100
0100
0100
0100
0100
,
0100
0100
0100
0100
0100
0100
0100
0100
0100
0100
0100
0100
0100
0100
0100
0100
,
0100
0000
0100
0000
0100
0000
0100
0000
0100
0000
0100
0000
0100
0000
0000
0000
1000
0001
0000
0000
0001
1000
0000
0000
1000
0010
0000
0000
0010
0100
0000
0000
,
0100
0010
0000
0000
0010
1000
0000
0000
0000
0000
0000
0000
1000
0100
0000
0000
0010
0001
0000
0000
0000
0000
0000
0000
0001
0100
0000
0000
0000
0000
0000
0000
,
0001
0100
0000
0000
0010
1000
0000
0000
0010
1000
0000
0000
0000
0000
0000
0000
0001
0010
0000
0000
0001
0010
0000
0000
0100
1000
0000
0000
0100
1000
0000
0000
,
0001
1000
0000
0000
0001
0100
0000
0000
0000
0000
0000
0000
0001
1000
0000
0000
0001
1000
0000
0000
0000
0000
0000
0000
0010
1000
0000
0000
0000
0000
0000
0000
,
0001
0100
0000
0000
0000
0000
0000
0000
0001
0010
0000
0000
0000
0000
0000
0000
0100
1000
0000
0000
0001
0010
0000
0000
0100
1000
0000
0000
0001
0100
0000
0000
,
0010
1000
0000
0000
0001
0100
0000
0000
0000
0000
0000
0000
0001
0000
0000
0000
0001
0000
0000
0000
1000
0000
0000
0000
0010
0000
0000
0000
0001
0000
0000
0000
,
0001
1000
0010
0001
0001
1000
1000
0010
,
0001
0001
0100
0001
1000
0001
1000
0010
,
1000
0010
1000
0100
0100
0100
0010
0010
,
0010
1000
0010
0001
0010
0100
1000
0100
,
1000
0001
0100
0010
2000
0000
0001
3001
,
0000
1001
0000
0110
0000
0010
0100
0010
,
0100
0101
0000
1100
0000
1001
0000
0110
,
0000
0000
0000
1000
0100
0010
0001
1000
,
0100
0010
0001
1000
0010
0100
0001
2000
,
0000
3001
0100
0001
0100
0002
0000
1003
,
0100
2000
0000
3010
0100
0020
0000
0130
,
0000
0000
0001
1000
0000
0000
1000
0001
,
0000
0000
0100
0010
0000
0100
0000
0010
,
0000
0100
0000
0001
1001
1001
1001
0000
,
1001
0000
1001
1001
1000
0000
0001
0000
,
MMMM
MMMM
0000
MMMM
0000
MMMM
0000
MMMM
0000
MMMM
MMMM
MMMM
MMMM
MMMM
MMMM
MMMM
,
MMMM
0000
MM1M
0000
0000
0000
0000
MMMM
0000
MMMM
MMMM
MMMM
M1MM
M1MM
MM1M
0000
,
MMMM
0000
MMMM
MMMM
MMMM
0000
MMMM
0000
MMMM
0000
MMMM
MMMM
MMMM
0000
MMMM
MMMM
,
MMMM
MMMM
MMMM
0000
0000
0000
0000
MMMM
MMMM
MMMM
1MMM
MMM1
M1MM
M1MM
MM1M
0000
,
0MM1
0MM0
0MM0
0MM0
1MM0
0MM0
0MM0
0MM0
0MM1
0MM0
0MM0
0MM0
1MM0
0MM0
0MM0
0MM0
,
0MM1
0MM0
0MM0
0MM0
1MM0
0MM0
0MM0
0MM0
0MM1
0MM0
0MM0
0MM0
1MM0
0MM0
0MM0
0MM0
,
0MM1
0MM0
0MM0
0MM0
1MM0
0MM0
0MM0
0MM0
0MM1
0MM0
0MM0
0MM0
1MM0
0MM0
0MM0
0MM0
,
0MM1
0MM0
0MM0
0MM0
1MM0
0MM0
0MM0
0MM0
0MM1
0MM0
0MM0
0MM0
1MM0
0MM0
0MM0
0MM0
,
0MM1
0MM0
0MM0
0MM0
1MM0
0MM0
0MM0
0MM0
0MM1
0MM0
0MM0
0MM0
1MM0
0MM0
0MM0
0MM0
,
0MM1
0MM0
0MM0
0MM0
1MM0
0MM0
0MM0
0MM0
0MM1
0MM0
0MM0
0MM0
1MM0
0MM0
0MM0
0MM0
,
0MM1
0MM0
0MM0
0MM0
1MM0
0MM0
0MM0
0MM0
0MM1
0MM0
0MM0
0MM0
1MM0
0MM0
0MM0
0MM0
,
0MM1
0MM0
0MM0
0MM0
1MM0
0MM0
0MM0
0MM0
0MM1
0MM0
0MM0
0MM0
1MM0
0MM0
0MM0
0MM0
,
0MM1
0MM0
0MM0
0MM0
1MM0
0MM0
0MM0
0MM0
0MM1
0MM0
0MM0
0MM0
1MM0
0MM0
0MM0
0MM0
,
0MM1
0MM0
0MM0
0MM0
1MM0
0MM0
0MM0
0MM0
0MM1
0MM0
0MM0
0MM0
1MM0
0MM0
0MM0
0MM0
,
0MM1
0MM0
0MM0
0MM0
1MM0
0MM0
0MM0
0MM0
0MM1
0MM0
0MM0
0MM0
1MM0
0MM0
0MM0
0MM0
,
0MM1
0MM0
0MM0
0MM0
1MM0
0MM0
0MM0
0MM0
0MM1
0MM0
0MM0
0MM0
1MM0
0MM0
0MM0
0MM0
,
0002
1003
0001
0000
1100
0011
0000
1100
,
0000
0011
0001
1000
0100
0010
0001
1000
,
0100
0010
0010
0010
0001
0000
2000
3002
,
0003
0100
0000
0100
0000
0100
0000
0100
0000
0100
0000
0000
0000
2MM0
0MM0
0MM0
,
0MM0
0MM0
0MM0
0MM0
0MM2
0MM0
0MM0
0MM0
0MM0
0MM0
0MM0
0MM0
3MM3
0000
0001
0000
,
0000
0000
0001
0000
1000
0100
0010
0001
1000
0000
0001
0000
0100
0000
0001
0000
,
0000
0010
0001
2000
0000
3020
0000
0230
,
0300
0000
0110
0000
0000
0000
2MM2
0MM0
0MM0
0MM0
0MM0
0MM0
0MM0
0MM0
0MM0
0MM0
,
3MM3
0010
0100
0010
0100
0010
1000
0001
,
1000
0001
0101
1010
0000
0101
0000
1010
,
0000
0101
0000
1010
1000
0010
0100
0001
,
1000
0100
0020
0000
0000
0000
0000
0000
,
0000
0000
0000
0000
0032
0000
2003
0000
0000
3010
0000
0010
0000
0000
0100
0000
,
0000
0010
0000
0100
0000
0MM2
0MM0
0MM0
0MM0
0MM0
0MM0
0MM0
2MM0
0MM0
0MM0
0MM0
,
0MM0
0MM0
0MM0
0MM0
0MM0
0MM0
0MM0
0MM0
0MM0
0MM0
0MM0
0MM0
3MM3
0000
0110
0000
,
0000
1000
0001
1000
0000
0001
0000
0010
,
0000
0100
1000
0100
0000
1000
0000
0001
,
0100
0002
0000
2000
0000
0000
0000
0000
,
3003
0000
0000
0000
0000
MMMM
0010
0000
0010
0000
1000
0000
0001
0000
1MMM
M1MM
,
MM1M
MMM1
1MMM
0000
1000
0000
0100
0000
0010
0000
0001
0000
1000
0000
0100
0000
,
0010
0000
MMM1
MM1M
M1MM
1MMM
MMM1
0000
0010
0000
0100
0000
1000
0000
0001
0000
,
0000
0000
0000
0000
1001
0000
0000
0000
0000
0000
0000
0000
M1M1
0000
0000
0000
0000
1M1M
0000
0000
0000
0000
MM11
0000
0000
0000
0000
11MM
0000
0000
0000
0000
,
1000
0100
0010
0001
2000
0000
0002
0000
,
0MM0
0000
0MM0
0000
0MM0
0MM0
0000
0MM0
,
0MM0
0MM0
0MM0
3MM3
MM1M
M1MM
MM1M
M1MM
,
MMMM
MMMM
MMMM
MMMM
M1MM
M1MM
M1MM
M1MM
,
M1MM
0000
0010
0000
0100
0000
0010
0000
0100
0000
0001
1000
0001
1000
0001
0000
,
0000
0000
1000
0000
0001
0000
1000
0000
0001
0000
0010
0100
0010
0100
0010
0000
,
0000
0000
0001
0000
0010
0000
0100
0000
1000
0000
1001
1001
1001
1001
1001
0000
,
0000
0000
0000
0000
0100
0000
0000
0000
0010
0000
0000
0000
0100
0000
0000
0000
0010
0000
0000
0000
M10M
M01M
M10M
M01M
M10M
M01M
M10M
M01M
M10M
0000
0000
0000
,
0000
0000
0001
0000
1000
0000
0001
0000
1000
0000
0010
0100
0010
0100
0010
0000
,
0000
0000
1000
0000
0001
0000
1000
0000
0001
0000
0010
0100
0010
0100
0010
0000
,
0000
0000
0001
0000
0010
0000
0100
0000
1000
0000
MMM1
MM1M
M1MM
1MMM
MMM1
0000
,
0000
0000
1000
0000
0010
0000
0100
0000
0001
0000
1100
0011
1100
0011
1100
0000
,
MMMM
MMMM
MM1M
MMMM
MM1M
MMMM
M1MM
MMMM
MM1M
MMMM
MMMM
MMMM
MM1M
M1MM
MM1M
MMMM
,
M2MM
M0MM
M0MM
M0MM
M3MM
0000
0000
0000
0000
0000
0000
0000
0000
0000
0000
0000
;
