#TITLE:シンデレラ;
#SUBTITLE:;
#ARTIST:兎田ぺこら;
#TITLETRANSLIT:Cinderella;
#SUBTITLETRANSLIT:;
#ARTISTTRANSLIT:Usada Pekora;
#GENRE:POP;
#CREDIT:;
#BANNER:Cinderella.png;
#BACKGROUND:Cinderella-bg.png;
#LYRICSPATH:;
#CDTITLE:;
#MUSIC:Cinderella.ogg;
#OFFSET:0.921000;
#SAMPLESTART:55.282001;
#SAMPLELENGTH:11.962000;
#SELECTABLE:YES;
#BPMS:0.000000=158.000000
,116.000000=79.000000
,116.500000=158.000000
,211.500000=79.000000
,212.000000=158.000000
,243.000000=79.000000
,255.500000=39.500000
,256.500000=158.000000
,284.000000=79.000000
,288.000000=158.000000
;
#STOPS:251.000000=0.190000,
251.250000=0.190000,
251.500000=0.190000,
254.250000=0.190000,
254.500000=0.190000,
254.750000=0.190000,
286.250000=0.190000,
286.500000=0.190000,
286.750000=0.190000
;
#BGCHANGES:2.500=Cinderella.avi=1.000=0=0=0=====,
99999=-nosongbg-=1.000=0=0=0 // don't automatically add -songbackground-
;
#KEYSOUNDS:;
#ATTACKS:;

//---------------dance-single - ----------------
#NOTES:
     dance-single:
     :
     Hard:
     12:
     0.560646,0.669876,0.451095,0.161105,0.045109,609.000000,539.000000,70.000000,25.000000,0.000000,0.000000,0.560646,0.669876,0.451095,0.161105,0.045109,609.000000,539.000000,70.000000,25.000000,0.000000,0.000000:
0000
0000
0000
0000
,
0000
0000
0000
0000
,
0000
0000
0000
0000
,
1000
0000
0001
0100
0001
0000
1000
0100
,
0000
0010
0001
0200
1000
0001
1300
0000
,
0010
0000
0010
1000
0000
1000
0001
0000
,
0001
0100
0001
0100
0020
1000
1030
0001
,
0010
0000
0010
0100
0000
0100
1000
0000
,
1000
0100
1000
0100
0010
0001
1000
0000
,
0001
0000
0001
0100
0000
0100
0010
0000
,
0010
1000
0010
1000
0200
0010
0310
0001
,
1000
0100
0010
0100
1000
0100
0010
0001
,
2000
0000
3002
0000
0103
0010
0100
0000
,
0010
1000
0001
0000
0100
0001
0010
0000
,
0100
1000
0001
0000
0100
0001
1000
0100
,
0000
0010
0001
0001
1000
0100
0100
0010
,
1000
1000
0010
0001
1000
0000
1001
0000
,
0010
0001
1000
0000
0100
1000
0010
0000
,
0100
0001
1000
0000
0100
1000
0001
0100
,
0000
0010
1000
1000
0001
0100
0100
0010
,
0001
0001
0010
1000
0001
0000
1001
0000
,
0110
0000
1010
0000
0101
0000
0000
0010
,
0000
1000
0100
0001
0100
0000
0100
1000
,
0000
1000
0010
0001
0010
0000
0010
1000
,
0000
1000
0100
0010
0001
0000
1001
0000
,
0001
0100
1000
0000
1000
0100
0001
0000
,
0001
0010
1000
0000
1000
0010
0001
0000
,
0001
0100
0010
1000
0001
0010
0100
1000
,
0001
0100
1000
0001
0020
0000
0130
0000
,
0002
1003
0000
1000
0000
0100
0010
0000
,
0010
0001
0100
0010
0001
0010
2000
0010
,
0000
0001
0000
3100
0000
0100
0010
0000
,
0010
0000
0010
0001
1000
0001
1000
0010
,
0000
1000
0000
0001
0000
0100
0010
0000
,
0010
1000
0100
0010
1000
0010
0002
0010
,
0000
1000
0000
0103
0000
0100
0010
0000
,
0010
0000
0010
1000
0001
1000
0001
0011
,
0000
0011
0000
1010
0000
1010
0000
0011
,
0000
1010
0000
0001
0010
0000
0100
1100
,
0000
1100
0000
0101
0000
0101
0000
1100
,
0000
0101
0000
1000
0001
1000
0000
1010
,
0000
1010
0000
1100
0000
1100
0000
0011
,
0000
0011
0000
0101
0001
0000
1000
0100
,
0010
0001
1000
0010
0000
0100
0001
0000
,
0001
1000
0020
0001
1000
0031
0000
0100
,
0000
0100
0000
0001
0010
0001
0010
0001
,
0000
0010
0000
0100
1000
0100
1000
0000
,
0001
0100
0000
0100
0010
1000
0010
1000
,
0000
0001
0000
0010
0100
1000
0100
1100
,
0000
0110
0000
0011
0000
0110
0000
1010
,
0000
0110
0000
0101
0000
1001
0000
0010
,
1000
0010
0000
0100
0001
0100
0000
0020
,
0000
2030
0000
3200
0000
0320
0000
0032
,
1003
0000
0010
0000
0010
0100
0000
0100
,
0001
1000
0100
0010
0001
0020
1000
0000
,
0100
0000
0031
0000
0100
1000
0000
1000
,
0000
0002
0100
1000
0100
1003
0010
0000
,
0010
0000
1000
0000
0100
0010
0000
0010
,
0001
0100
0010
1000
0010
0200
1000
0000
,
0010
0000
0301
0000
0001
0010
0000
0010
,
0100
2000
0001
0100
0001
3100
0001
0001
,
1000
1000
0000
0100
1000
0001
0000
0100
,
0010
0000
0100
0000
0000
0000
0010
0000
1000
0000
0001
0000
0010
0010
0010
0100
,
0000
1000
0000
0001
0000
1000
0000
0001
0000
0100
0100
0100
0010
0000
2000
0000
,
3002
1003
0000
0100
0000
0010
0000
0001
,
1000
0000
1000
0000
0001
0100
1000
0100
,
0001
0010
0000
0010
0000
0010
0000
0100
,
1000
0000
0001
0000
1000
0001
0100
0001
,
0100
0010
0000
1000
0000
0100
1000
0001
,
0000
1000
0000
0001
0000
0100
0001
1000
,
0000
0100
1000
0100
1000
0001
0100
0001
,
0100
0000
0010
0000
0010
1000
0000
1001
0000
0001
1000
0001
1000
0010
0000
0010
,
0100
0001
1000
0100
1000
0100
1100
0000
,
0011
0000
1100
0000
1000
0010
0000
0100
,
0000
0010
1000
0001
1000
0001
0010
0000
,
0100
0000
0010
0000
0001
0100
0000
0100
,
0010
1000
0100
0001
0100
1000
1010
0000
,
0101
0000
1010
0000
1000
0010
0000
0100
,
0000
0010
1000
0001
1000
0001
0101
0000
,
1100
0000
0101
0000
1100
0001
0100
0000
,
0010
1000
0100
0110
0000
0010
0001
0000
,
0001
0100
1000
0000
1000
0100
0000
0100
,
0001
0010
0100
0000
0110
0000
1010
0000
,
0011
0000
1010
0000
0011
1000
0010
0000
,
0100
0001
0010
0110
0000
0100
1000
0000
,
1000
0100
0001
0000
0001
0100
0000
0100
,
1000
0010
0110
0000
1001
0000
0101
0000
,
1010
1100
0011
1010
,
1100
0101
0011
1001
,
0001
1000
0000
0010
1000
0100
0010
0001
,
0001
1000
0020
0000
0230
0300
1010
0000
,
0101
0011
1100
0011
,
1010
0000
1100
0000
0101
0000
0001
0100
,
1000
0001
2000
0000
3100
0001
0000
0001
,
0010
0200
0001
1000
0301
0000
0000
0000
;

//---------------dance-single - ----------------
#NOTES:
     dance-single:
     :
     Challenge:
     16:
     0.852477,1.217956,0.554202,0.367320,0.663754,926.000000,840.000000,86.000000,57.000000,0.000000,0.000000,0.852477,1.217956,0.554202,0.367320,0.663754,926.000000,840.000000,86.000000,57.000000,0.000000,0.000000:
// measure 0
0000
0000
0000
0000
,  // measure 1
0000
0000
0000
0000
,  // measure 2
0000
0000
0000
0000
,  // measure 3
0001
0000
1000
0000
0001
0010
0100
1000
0001
0000
0100
0000
0010
1000
0001
0000
,  // measure 4
0000
0010
0100
1000
0011
1100
0011
0000
,  // measure 5
0010
0000
0000
0010
0001
0000
0100
0000
0000
0000
0100
0000
0010
0000
1000
0000
,  // measure 6
0001
0010
0001
0000
1000
0100
1000
0000
0020
0000
0100
0000
0130
0000
0001
0000
,  // measure 7
0010
0000
0000
0010
0100
0000
1000
0000
0000
0000
1000
0000
0010
0000
0100
0000
,  // measure 8
0001
0100
0001
0000
1000
0010
1000
0000
0002
0000
0013
0000
0001
0010
0100
1000
,  // measure 9
0001
0000
0000
0001
1000
0000
0010
0000
0000
0000
0010
0000
0100
0000
0001
0000
,  // measure 10
0100
0010
0100
0000
0001
1000
0001
0000
0020
0000
0001
0000
0031
0000
1000
0000
,  // measure 11
0100
0000
0010
0000
0100
0000
1000
0000
0001
0000
0100
0000
0010
1000
0010
1000
,  // measure 12
0001
0000
0000
0100
0000
0000
0001
0000
0010
0100
0000
0100
1000
0000
1000
0001
0000
0001
1000
0000
0000
0000
0000
0000
,  // measure 13
1000
0100
0010
0100
1000
0010
0100
0010
0100
0001
0010
0001
1000
0010
0100
0000
,  // measure 14
0010
0000
0100
0001
0010
0001
0100
0010
1000
0100
0010
0100
1000
0010
0100
0000
,  // measure 15
0000
0102
1000
0103
2001
0100
3001
1020
,  // measure 16
0100
1030
0201
0010
0301
0000
1001
0000
,  // measure 17
0001
0100
0010
0100
0001
0010
0100
0000
0010
0100
1000
0100
0010
0001
1000
0000
,  // measure 18
0001
0000
0100
0010
1000
0010
0100
0001
0100
0010
0000
0010
1000
0100
0010
0000
,  // measure 19
0000
2100
0001
3100
1002
0100
1003
0021
,  // measure 20
0100
0000
0000
0031
0000
0000
1200
0000
0000
0010
0000
0000
1300
0100
0010
0001
1000
0100
0010
0000
0000
0000
0000
0000
,  // measure 21
0100
0000
0000
0000
1100
0000
0000
0000
0101
0000
0000
1000
0000
0000
0010
0000
,  // measure 22
0100
0001
1000
0000
0100
0000
0000
0010
0000
0001
0100
0001
0100
0000
0001
0000
,  // measure 23
1000
0000
0000
0000
1100
0000
0000
0000
0011
0000
0000
1010
0000
0000
1000
0000
,  // measure 24
0010
0100
0010
0000
0100
0000
0010
1000
0001
0000
1000
0000
0100
1000
0001
0000
,  // measure 25
0100
0000
0010
0000
1000
0100
1000
0000
0100
0010
0100
0000
0001
0100
0001
0000
,  // measure 26
0100
1000
0010
0000
1000
0010
1000
0000
0010
0100
0010
0000
0001
0010
0001
0000
,  // measure 27
0010
0100
0001
0010
0100
0001
0100
0010
0001
0100
0010
0100
1000
0100
0010
1000
,  // measure 28
0100
0000
0000
0001
0000
0000
1000
0000
0000
0010
0000
0000
0001
0000
0000
1000
0000
0000
0010
0000
0000
0100
0000
0000
0001
0000
0000
0000
0000
0000
1000
0000
0100
0000
0010
0000
0001
0000
0000
0000
0000
0000
1000
0000
0000
0000
0000
0000
,  // measure 29
0002
1003
0000
0010
0100
0010
0100
0001
,  // measure 30
0010
0100
1000
0100
0010
0001
1000
1010
,  // measure 31
0000
0101
0000
1010
0000
0101
0100
0001
,  // measure 32
0010
0000
0100
0000
0010
0000
0001
0010
0100
0010
0001
0010
0100
0010
0001
0000
,  // measure 33
0000
1000
0000
0100
0010
0100
0010
0001
,  // measure 34
0100
0010
1000
0010
0100
0001
1000
1100
,  // measure 35
0000
0011
0000
1100
0000
0011
0010
0100
,  // measure 36
0010
0001
1000
0011
1000
0101
1000
0011
,  // measure 37
0000
0100
1000
0000
0010
0000
1010
0000
0000
0100
0001
0000
0010
0000
0011
0000
,  // measure 38
0000
0100
1000
0000
0010
0000
0200
0000
0010
0000
0310
0000
0100
0000
0001
0000
,  // measure 39
0000
1000
0100
0000
1000
0000
1010
0000
0000
0100
0001
0000
0010
0000
0011
0000
,  // measure 40
0000
0100
1000
0000
0010
0000
1000
0000
0001
0000
1001
0000
0000
0000
1100
0000
,  // measure 41
0000
0010
0001
0000
0100
0000
0101
0000
0000
0010
1000
0000
0100
0000
1100
0000
,  // measure 42
0000
0010
0001
0000
0100
0000
0020
0000
1000
0000
1030
0000
0100
0000
0011
0000
,  // measure 43
0101
0010
0100
1010
1100
0010
0101
0000
,  // measure 44
1010
0000
1000
0000
0001
0010
1000
0000
0010
0000
0110
0000
0000
0000
0100
0000
,  // measure 45
1000
0010
1000
0010
0001
0000
1000
0100
1000
0100
0001
0010
0100
0000
0001
0100
,  // measure 46
0001
0100
1000
0010
0100
0000
0010
1000
0010
1000
0100
0010
0001
0000
0010
0001
,  // measure 47
0010
0001
0100
0010
0001
0000
1000
0100
1000
0100
0010
1000
0001
0000
0010
1000
,  // measure 48
0010
0000
0000
1000
0000
0000
0001
0000
0000
0100
0000
0000
0010
0000
0000
0000
0000
0000
0100
0000
0000
1000
0000
0000
0100
0000
0000
1000
0000
0000
0001
0000
0000
0100
0000
0000
0010
0000
1000
0000
0010
0000
2000
0000
0000
3000
0000
0000
,  // measure 49
0002
0003
0020
0030
0200
0300
2000
3000
0200
0300
0020
0030
0002
0003
2000
3000
,  // measure 50
0020
0030
0200
0300
0002
0003
0200
0300
0020
0030
2000
3000
0002
0003
0020
0030
,  // measure 51
0200
0300
0020
0030
0002
0003
2000
3000
0020
0030
0200
0300
0020
0030
2000
3000
,  // measure 52
0001
0010
0100
0000
0010
0100
1000
0000
1100
0000
0011
0000
0001
0000
2000
0000
,  // measure 53
3001
0100
0010
0100
0001
0010
1000
0010
,  // measure 54
0001
1000
0100
0010
0001
0010
0011
0000
,  // measure 55
1100
0000
0011
0000
0010
0001
1000
0001
,  // measure 56
0100
0000
0010
0000
1000
0010
0100
0010
1000
0010
0100
0010
1000
0000
0000
0000
,  // measure 57
0001
1000
0001
0010
0100
0010
0100
1000
,  // measure 58
0010
1000
0001
0010
0100
1000
1100
0000
,  // measure 59
0011
0000
0000
0000
1100
0000
0000
0000
0001
0000
0010
0000
0100
1000
0100
1000
,  // measure 60
0100
0010
0100
1000
0001
0000
1000
0000
0001
0000
1000
0000
0001
0100
0001
0100
,  // measure 61
0001
0000
1000
0000
0000
1000
0100
1000
0100
0000
1000
0000
0000
0001
0100
0010
,  // measure 62
0100
0001
0100
1000
0000
1000
0100
0001
1000
0000
1001
0000
0101
0110
1010
0010
,  // measure 63
1000
0000
0100
0000
0010
0000
0001
0010
0001
0000
1000
0100
0010
0100
1000
0000
0001
0000
0011
0000
0110
0000
1100
0000
1000
0000
0100
0000
0020
0000
0000
0000
,  // measure 64
0032
1003
0000
1000
0000
0010
0000
0010
,  // measure 65
0000
0100
0000
0100
0000
0001
0000
0001
,  // measure 66
0000
1001
0000
1001
0000
1001
0000
0001
,  // measure 67
0000
1000
0000
0100
0000
0010
0000
0001
,  // measure 68
0000
0000
1000
0000
0100
0000
1000
0000
0100
0000
0010
0001
0010
0001
1000
0000
,  // measure 69
0010
0000
1000
0000
0001
0000
1000
0000
0001
0000
0100
0010
0100
0010
1000
0000
,  // measure 70
0001
0010
0100
1000
0100
1000
0100
1000
0100
0010
0001
0010
0001
0010
0001
0010
,  // measure 71
1000
0000
0010
0000
0001
0100
0000
0110
0000
0110
1001
0110
0001
1000
0000
0100
,  // measure 72
0010
0001
1000
0100
1000
0001
0101
0000
,  // measure 73
1010
0000
0101
0000
1000
0010
0100
0010
,  // measure 74
1000
0000
0001
0000
1000
0100
0010
0100
1000
0100
0010
0100
1000
0000
0000
0000
,  // measure 75
0001
1000
0100
1000
0001
0100
0001
0100
,  // measure 76
0010
1000
0100
0010
0001
0010
0011
0000
,  // measure 77
1100
0000
0011
0000
1000
0010
0100
0010
,  // measure 78
0100
0000
0001
0000
1010
0000
0001
0000
1100
0000
0001
0000
1010
0000
0000
0001
,  // measure 79
1000
0000
1000
0010
0100
0000
0000
0100
0001
0000
0001
1000
0100
0000
0000
0100
,  // measure 80
0010
0000
0010
0001
2000
0000
0010
0000
3010
0000
0100
0000
0001
0000
0000
0001
,  // measure 81
0010
0000
0010
0100
1000
0000
0000
1000
0010
0000
0010
0100
0001
0000
0000
0001
,  // measure 82
0010
0000
0010
0100
1000
0000
0010
0000
1001
0000
0000
0000
0110
0000
0000
0001
,  // measure 83
2000
0000
3010
1000
0200
0000
0000
0301
2000
0000
3010
0001
0200
0000
0000
1300
,  // measure 84
0002
0000
0013
1000
0200
0000
0010
0000
0310
0000
0001
0000
1001
0000
0000
0001
,  // measure 85
2000
0000
3100
1000
0020
0000
0000
0031
2000
0000
3100
0001
0020
0000
0000
1030
,  // measure 86
0001
0000
0000
0000
0000
0000
0100
0000
0000
0000
0000
0000
1000
0000
0010
0000
1000
0000
0010
0000
0000
0000
0000
0000
1001
0000
0000
0000
0000
0000
0000
0000
0000
0000
0000
0000
0001
0000
0000
0000
0000
0000
1000
0000
0000
0100
0000
0000
,  // measure 87
1000
0000
0001
0000
0100
0000
1000
0100
1000
0000
0100
0000
0001
0000
1000
0100
,  // measure 88
1000
0000
0100
0000
0020
0000
0001
0000
0032
0000
0000
0000
1003
0000
0001
0100
,  // measure 89
0001
0000
1000
0000
0100
0000
0001
0100
0001
0000
0100
0000
1000
0000
0001
0100
,  // measure 90
0001
0000
1000
0000
0100
0000
0010
0000
0002
0000
0000
0000
1003
0000
0010
0100
,  // measure 91
0010
0000
0001
0000
1000
0000
0100
0010
0100
0000
0001
0000
1000
0000
0100
0010
,  // measure 92
0100
0001
2000
0010
3010
0001
1100
1010
,  // measure 93
0100
0001
1010
1100
0010
0101
0000
0001
,  // measure 94
1000
0010
1001
1001
1001
0000
0000
0000
;
