#TITLE:散り散り;
#SUBTITLE:;
#ARTIST:重音テトSV;
#TITLETRANSLIT:Chilly;
#SUBTITLETRANSLIT:;
#ARTISTTRANSLIT:Kasane Teto SV;
#GENRE:POP;
#CREDIT:;
#MUSIC:Chilly.ogg;
#BANNER:Chilly.png;
#BACKGROUND:Chilly-bg.png;
#CDTITLE:;
#SAMPLESTART:70.272;
#SAMPLELENGTH:11.087;
#SELECTABLE:YES;
#OFFSET:0.815;
#BPMS:0.000=184.000;
#STOPS:;
#BGCHANGES:3.250=Chilly.avi=1.000=0=0=0=StretchNoLoop====,
99999.000=-nosongbg-=1.000=0=0=0=StretchNoLoop====
;
#FGCHANGES:;

//--------------- dance-single - ----------------
#NOTES:
     dance-single:
     :
     Medium:
     13:
     0.636578,0.728093,0.18462,0.5119,0.07133,531,509,22,61,0,0,0.636578,0.728093,0.18462,0.5119,0.07133,531,509,22,61,0,0:
0000
0000
0000
0000
,
0000
0000
0000
0000
,
0012
1003
1020
0130
,
2100
3001
0201
0310
,
2010
3001
0021
0130
,
0102
1003
1200
0310
,
1002
0000
0000
0000
0103
0000
0020
0000
0000
0000
1030
0000
0001
0000
0010
0100
,
0020
0000
0031
1000
0000
0010
0200
0000
,
0302
0000
0013
0200
0000
1300
0001
0200
,
0000
0320
0000
2030
3200
0320
0032
2003
,
3020
0000
0130
0001
2000
0000
3100
0010
,
0002
0000
1000
0013
0200
0000
0301
1000
,
0200
0000
0310
0001
2000
0000
3010
0100
,
0002
0000
1003
0100
0020
0000
0130
1000
,
0002
0000
0000
0000
0103
0000
0020
0000
0000
0000
0130
0000
0001
0000
1000
0100
,
2000
0000
3010
0200
0000
0301
0020
0130
,
2000
0000
3001
0200
0000
0310
1000
0002
,
1003
0200
0310
0001
2000
3010
0100
0010
,
1000
0000
0001
0010
0000
0100
1000
0000
,
0001
0000
0100
0010
0000
0100
0001
1000
,
0001
0000
0010
0100
0000
1000
0001
1000
,
0001
0100
1000
0100
0000
0010
1000
0100
,
0010
0000
0001
0010
0000
0100
1000
0001
,
0010
0100
0000
0100
1000
0001
1000
0010
,
0100
0001
0000
1000
0000
1000
0010
0000
,
0100
0001
0010
1000
0000
0010
0001
1000
,
0010
0000
0100
0001
0000
0001
1000
0010
,
0100
0000
0001
1000
0000
0001
0010
0100
,
1000
0000
1000
0001
0000
0100
0010
1000
,
0000
1010
0000
0101
0000
0001
1000
0010
,
0100
0000
0100
0001
0000
1000
0100
1000
,
0001
0010
0000
0110
0000
0100
1000
0001
,
0010
0100
0000
1000
0000
0001
1000
0010
,
0001
1000
0000
0100
0000
0001
1000
0100
,
1000
1000
0010
0100
0001
0001
0010
0100
,
0010
0010
0001
1000
0010
0010
0100
0001
,
2000
0000
3010
0200
0000
0301
0010
0100
,
0000
0100
1000
0002
0000
0103
0010
0100
,
0001
0001
0010
0100
1000
1000
0010
0100
,
0010
0010
1000
0001
0010
0010
0100
1000
,
0020
0000
0130
0002
0000
1003
0100
0010
,
0001
1000
0000
0001
1000
0000
0001
0100
,
0001
0010
0100
0010
0001
1000
0100
1000
,
0010
0100
0001
1000
0010
0100
0001
0010
,
1000
0010
0001
0100
1000
0100
0001
1000
,
0100
0001
1000
0010
0001
1000
0010
1000
,
0002
1000
0103
0001
2000
0001
3100
0010
,
0002
0100
0013
0001
2000
0100
3010
1000
,
0100
0010
0100
2000
0000
3010
0100
0001
,
0010
1000
0010
0001
0000
1000
0010
0100
,
0010
1010
0000
0101
0000
0001
0010
0100
,
1000
0001
0100
0010
0100
0001
1000
0100
,
0000
0100
0010
0001
1000
0010
0100
0001
,
1000
0000
0100
0000
1000
0000
0001
0000
0100
0000
0001
0000
,
2000
0000
0000
0000
0000
3001
0100
0010
,
1000
0000
1001
0000
0001
0010
0100
1000
,
0000
0001
1000
0010
0000
0100
0001
1000
,
0001
0010
0110
0000
0110
1000
0001
1000
,
0000
0001
0100
1000
0000
0100
0001
0010
,
0200
0000
0000
0000
1000
0000
1300
0001
0200
0000
0000
0000
0001
0000
0301
1000
,
0100
0010
0100
1000
0001
0100
0010
1010
,
0000
0101
0000
0001
0010
0100
1000
0001
,
0000
1000
0010
0100
0010
1000
0010
0100
,
0001
0000
0110
0000
1000
0100
0001
0100
,
0000
1000
0001
1000
0000
0001
0100
1000
,
0100
0001
0020
0000
0130
1000
0001
0100
,
0010
0100
0001
1000
0000
0001
0010
0100
,
2000
0000
0000
0000
3001
0000
0100
0010
0200
0000
0000
0000
0301
0000
1000
0000
,
0001
1000
0010
0100
1000
0001
0010
0110
,
0000
1001
0000
1000
0100
0001
0100
1000
,
0000
0001
0000
0001
1000
0010
1000
0001
,
0100
0000
0001
1000
0001
0000
0010
0000
0100
0000
1000
0000
0001
0100
0001
0000
,
0010
0000
0100
1000
0100
0000
1000
0000
0001
0000
0100
0000
0001
1000
0001
0000
,
0100
0000
0010
1000
0010
0000
0100
0000
0001
0000
0010
0000
0100
1000
0100
0000
,
1000
0000
0001
0100
0001
0000
1000
0000
0001
0000
1000
0001
1000
0000
0010
0000
,
0200
0000
0301
0020
0000
0130
1000
0001
,
0200
0000
0310
2000
0000
3001
0020
0000
,
0130
1000
0001
1000
0010
0100
0001
0020
,
0000
0031
1000
0001
1000
0001
1000
0001
;

//--------------- dance-single - ----------------
#NOTES:
     dance-single:
     :
     Hard:
     16:
     0.866753,0.861838,0.730086,0.696519,0.352455,723,636,87,83,0,0,0.866753,0.861838,0.730086,0.696519,0.352455,723,636,87,83,0,0:
0000
0000
0000
0000
,
0000
0000
0000
0000
,
0102
0100
1003
0010
0120
0100
0031
1000
,
2010
0010
3001
0010
0120
0100
1030
0001
,
0102
0100
1003
0100
1200
1000
0310
0001
,
0012
0010
0103
1000
2100
0100
3001
0100
,
0201
0000
0001
0000
0310
0000
1020
0000
1000
0000
0130
0000
0001
0000
1000
0100
,
0020
0100
0031
1002
1000
0103
0210
0301
,
1002
1000
0103
0210
0010
0301
1001
2100
,
3010
0000
0100
0001
0000
0000
0101
0000
0002
0000
0013
0100
2000
0000
3001
0010
,
0200
0000
1300
0000
0010
0000
0100
0001
2000
0000
3010
0000
0100
0000
0001
1000
,
0200
0000
0310
0000
0001
0000
0010
0100
2000
0000
3010
0000
0100
0000
0001
0100
,
0020
0000
1030
0000
0010
0000
0100
0001
0020
0000
0130
0000
1000
0000
0001
0100
,
0020
0000
1030
0000
0100
0000
0010
0001
2000
0000
3010
0000
0100
0000
0010
0100
,
0002
0000
1003
0000
0001
0010
0200
0000
1300
0000
0010
0000
1000
0000
0001
0100
,
0020
0000
1030
0000
0001
0010
0200
0000
1300
0000
0001
1000
0200
0000
0310
0001
,
2000
0000
3010
0000
0100
0001
2000
0000
3010
0000
0100
0000
0010
1000
0002
0000
,
0013
0100
2000
0000
3001
0000
0100
0010
2000
0000
3001
0000
0010
0000
0100
1000
,
0001
0000
1001
2000
0000
3010
0110
0000
,
0101
0000
0011
0020
0000
0130
1000
0001
,
1001
0000
1100
2000
0000
3010
0100
0001
,
0010
0100
1100
0002
0000
1003
0010
0100
,
0110
0000
0110
2000
0000
3001
0010
0100
,
1000
1001
0000
1001
0001
0100
0010
1000
,
0001
0011
0000
1100
1000
0010
0110
0000
,
0101
1000
0010
1020
0000
0130
0001
1000
,
1100
0000
1001
0200
0000
0310
0100
0010
,
0101
0000
1010
0002
0000
1003
0100
0010
,
0011
0000
0011
2000
0000
3001
0010
1100
,
0000
1010
0000
0101
0001
1000
0010
0100
,
0101
0000
1010
0200
0000
0310
1000
0001
,
0010
0110
0000
0210
0000
0310
0001
1000
,
0010
0000
0110
0000
0000
0000
0110
0000
0100
0000
0010
0000
1000
0000
0001
1000
,
0100
0000
0010
0000
0001
0000
1000
0100
1000
0100
1000
0000
0001
0100
0001
0100
,
0001
0000
1000
0000
0010
0000
0100
0000
0001
1000
0100
1000
0001
0000
0100
0000
,
0010
0000
1000
0000
0001
0000
0010
0000
0100
1000
0001
1000
0100
0000
0010
0000
,
0002
0000
1003
0020
0000
0130
0001
0010
,
0000
0010
0100
2000
0000
3001
0100
0010
,
1000
0001
1000
0000
0001
0010
0100
0000
1000
0001
0100
0001
1000
0000
1000
0000
,
0001
1000
0001
0000
1000
0010
0100
0000
0001
0010
0100
1000
0010
0000
0100
0000
,
0002
0000
0013
0200
0000
1300
0001
0100
,
0010
1000
0100
0010
0100
0000
0100
1000
,
0001
0010
0001
0020
0100
0000
0130
0000
1000
0010
1000
0020
0100
0000
0130
0000
,
0001
1000
0001
2000
0100
0000
3100
0000
1000
0001
1000
0002
0100
0000
0103
0000
,
0010
0000
0010
1000
0100
0000
0010
0001
1000
0000
1000
0001
0010
0000
0100
1000
,
0001
0000
0001
0100
0010
0000
0100
0001
1000
0000
0001
0010
0000
0001
1000
0000
,
0001
0100
0001
0000
1000
0010
1000
0000
0001
0100
0001
0000
1000
0010
1000
0000
,
0001
0010
0001
0000
1000
0100
1000
0000
0001
0010
0001
0000
1000
0100
1000
0000
,
0010
0000
0100
0001
0010
0000
0200
0000
0000
0000
1300
0000
0001
0000
0100
0000
,
1000
0000
0100
0001
0010
0000
0200
0000
0000
0000
1300
0000
0001
0000
0100
0000
,
0101
0001
0010
0100
1000
0001
1000
0100
,
1100
1000
0010
0100
0001
1000
0100
0210
,
0000
0310
0001
1000
0001
1000
0010
0100
,
0101
0000
1001
0000
0101
0000
1100
0000
1001
0000
1001
0000
,
0200
0000
0000
0000
0000
0301
0010
0100
,
1000
0000
0001
0000
0100
0000
0010
0000
1000
0000
0001
0010
1000
0000
0020
0000
,
0000
0000
0031
0000
1000
0000
0010
0000
0100
0000
0010
1000
0001
0000
0010
0000
,
0100
1000
0011
0000
0011
1000
0010
0110
,
0000
0110
0001
1000
0000
1000
0001
0020
,
0100
0000
0001
0000
0130
0000
1000
0010
0200
0000
0001
0000
0010
0000
0301
1000
,
0100
0010
0001
1000
0010
0100
0010
0110
,
0000
1001
0000
0001
1000
0001
0100
0010
,
1000
0000
0001
0100
0010
0000
1000
0000
0001
0000
0010
0000
0100
0000
1000
0000
,
1100
0000
1001
0001
0100
0010
0100
0001
,
1000
0000
0010
0100
0002
0000
2003
0000
0100
0000
3001
0010
0100
0000
1000
0000
,
0010
0000
0100
0001
0020
0000
0000
0000
0130
0000
1000
0000
0001
0000
0100
0000
,
1000
0000
0100
0000
0010
0000
1000
0000
0001
0000
0010
0100
0010
0000
0001
0000
,
1002
0000
0000
0000
0103
0000
0010
1000
0002
0000
0010
0000
1000
0000
0103
0000
,
0010
1000
0001
0010
0100
0010
0001
0011
,
0000
1100
0000
1000
0010
0100
0001
0101
,
0000
1001
1000
0010
0100
0010
0001
0010
,
1000
0000
0100
0010
0001
0000
1000
0000
0001
0010
0100
0000
1000
0001
0000
1000
,
0001
0000
0100
0010
1000
0000
0010
0000
1000
0010
0100
0000
0001
1000
0000
0001
,
1000
0000
0100
0010
0100
0000
1000
0000
0001
0000
0100
0010
0100
0000
0001
0000
,
1000
0100
0010
0001
1000
0000
0010
0000
0100
0001
0100
0001
0010
0100
1000
0000
,
0002
0000
0023
0230
0000
2300
3002
0203
,
0320
0000
0230
0302
0000
2003
3020
0000
,
0230
0302
0023
2030
3020
0230
2300
3002
,
0103
0000
0010
0100
0010
0000
0100
0010
0100
0010
0100
0001
0010
0100
1000
0001
,
0010
0000
0000
0000
;

//--------------- dance-single - ----------------
#NOTES:
     dance-single:
     :
     Challenge:
     18:
     1.104121,1.093871,0.579034,0.32728,1.124501,921,852,69,39,0,0,1.104121,1.093871,0.579034,0.32728,1.124501,921,852,69,39,0,0:
0000
0000
0000
0000
,
0000
0000
0000
0000
,
0001
0000
1000
0100
1000
0000
0001
0100
0001
1000
0001
0100
0001
0000
0010
0100
,
0010
0000
0001
0000
1001
0000
1000
0100
1000
0001
1000
0100
1000
0000
0001
0100
,
0010
0000
0100
0001
1000
0000
0001
0010
0100
0010
0001
0010
0100
0000
0010
0001
,
1000
0000
0001
0000
1001
0000
1000
0010
0100
0010
1000
0010
0100
0000
0001
0010
,
0100
0000
1000
0001
1000
0000
0100
0000
0010
0001
0010
0100
0010
0001
0010
0100
,
1000
0000
0010
0000
0110
0000
0100
0001
1000
0010
1000
0001
0010
0000
0100
1000
,
0001
0000
1000
0001
1000
0000
0001
0010
0100
0010
0001
0010
0100
0000
1000
0100
,
0010
0000
0001
1000
0100
0000
0110
0000
0001
0010
0100
1000
0001
0010
0100
1000
,
0010
0000
0100
0001
0100
0000
0001
0010
0100
1000
0001
0100
0010
0000
1000
0100
,
1000
0000
0010
0000
0110
0000
0100
0001
0010
0100
1000
0001
0010
0000
0100
1000
,
0100
0000
1000
0001
1000
0000
0010
0100
0001
1000
0010
0100
0001
0000
0010
0100
,
0010
0000
0001
0000
1001
0000
1000
0010
0100
0001
0010
0100
1000
0000
0001
0100
,
0001
0000
0010
0100
0010
0000
0001
1000
0001
0100
0010
1000
0001
0000
0010
0100
,
0010
0000
0001
0000
1001
0000
1000
0010
0100
0001
0010
0100
1000
0000
0001
1000
,
0001
0000
0100
0010
0100
0000
0001
1000
0001
0010
0100
0000
0110
0000
0010
0001
,
1000
0000
0010
0000
0110
0000
0100
0001
1000
0001
1000
0001
0010
0000
0100
1000
,
0001
0000
0011
0100
1000
0001
1010
0000
,
0101
0000
1010
0100
0001
1000
0110
0001
,
1001
0000
1001
0010
0100
1000
0101
0010
,
0100
0001
1001
0100
0010
1000
0001
0010
,
0110
0000
0110
0001
1000
0010
0100
0001
,
1010
0000
0101
1000
0001
0010
0110
1000
,
1100
0101
0000
1001
0010
0100
0110
0000
,
0110
1000
0001
1100
0010
0100
1000
0010
,
0101
0000
0101
1000
0100
0010
0100
1000
,
0011
0000
0011
1000
0100
0010
0001
1000
,
0101
0000
1100
0001
0100
0001
0010
0100
,
1000
0110
0000
0110
1000
0001
0010
0100
,
1001
0000
1001
1000
0010
0100
0001
1000
,
0001
0011
1100
1000
0010
0100
0010
1000
,
0001
0000
0110
0000
1001
0000
1000
0000
0001
0010
0100
1000
0001
0100
0001
0100
,
0001
0000
1000
0000
0010
0000
0100
0001
0100
0001
0010
0000
0100
1000
0100
1000
,
0010
0100
0001
0010
0100
0000
1000
0010
0100
0010
1000
0001
1000
0100
0010
0000
,
0100
1000
0001
0000
0100
0010
1000
0010
0100
0001
0010
0100
0010
0001
1000
0000
,
0010
0000
0100
0001
1000
0000
0001
0010
0100
0010
0001
0010
0100
0000
1000
0001
,
1000
0000
0010
0000
0110
0000
0100
0001
1000
0001
0010
0100
1000
0000
0001
0000
,
1000
0010
0100
0010
1000
0010
0100
0001
0010
0100
0010
0001
0010
0100
1000
0001
,
0101
0000
1010
0000
1000
0010
0100
0010
1000
0001
0010
0100
1000
0001
0100
0000
,
0010
0000
1000
0001
1000
0000
0010
0100
0010
1000
0010
0100
0001
0000
0010
0100
,
0010
0000
0001
0000
1000
0000
0001
0010
0001
0010
0100
0000
1000
0000
0001
1000
,
0001
0100
0010
0100
1000
0100
0010
1000
0001
1000
0100
0010
0100
0001
0100
1000
,
0001
0000
1000
0001
0100
0010
0100
1000
0100
0010
1000
0100
0010
0001
1000
0100
,
0001
0000
0001
0100
1000
0000
0001
0100
1000
0000
1000
0100
0001
0000
1000
0100
,
0010
0001
1000
0010
0100
0000
0010
0100
0001
1000
0100
0010
0000
0100
0010
0000
,
0100
1000
0001
1000
0100
0010
0001
1000
0001
0100
0010
1000
0001
1000
0010
0100
,
0001
1000
0001
0010
0100
1000
0001
1000
0100
0010
0001
1000
0001
0100
0010
1000
,
0001
0000
0010
0100
0010
0000
1000
0000
0010
0100
1000
0001
0100
0000
1000
0100
,
0010
0000
1000
0001
0100
0000
1000
0000
0100
0001
0010
0100
1000
0000
0001
0000
,
0100
0000
0110
1000
0001
0010
0011
1100
,
0010
0000
0110
0001
1000
0010
1010
0101
,
0010
0000
0110
1000
0001
1000
0101
0110
,
1010
0000
0101
0000
1010
0000
0011
0000
1100
0000
0011
0000
,
0200
0000
0000
0000
0000
1300
0100
0010
,
0001
1000
0010
1000
0001
0010
0100
0000
0010
0001
1000
0100
1000
0001
0100
0010
,
1000
0000
0001
1000
0001
0010
0100
0000
1000
0100
0010
0100
1000
0001
1000
0010
,
0001
0000
0010
0000
1000
0000
0001
0010
1000
0000
0001
0000
0100
0000
0110
0000
,
0000
0000
0110
0000
1000
0100
0010
0000
0001
0000
0010
0000
0100
0000
1000
0100
,
0001
0100
1000
0000
0001
0000
1000
0010
0001
0000
0010
1000
0100
0000
1000
0100
,
0010
0001
1000
0100
0001
0000
0100
1000
0001
0010
0100
1000
0010
0000
0100
0001
,
1000
0000
0001
0100
1000
0000
0100
0000
0010
1000
0001
0010
0100
0000
0010
0001
,
1000
0000
0000
0000
0000
0000
0001
0000
0010
0000
0100
0000
1000
0000
0000
0000
0000
0000
0001
0000
0000
0010
0000
0000
1000
0000
0000
0010
0000
0000
0001
0000
0000
0000
0000
0000
1000
0000
0000
0100
0000
0000
0001
0000
0000
0100
0000
0000
,
1000
0000
0000
0000
1001
0000
0000
0000
0001
0010
0100
1000
0001
0000
1000
0000
,
0001
0100
0001
0200
0000
0000
0302
0000
0000
2003
0000
0000
0010
0000
0000
3001
0010
0100
1000
0000
0000
0001
0000
0000
,
0100
1000
0100
0001
0020
0000
0100
0000
0031
0000
1000
0100
0010
0000
0100
0000
,
1000
0000
0000
0001
0000
0000
0100
0000
0000
0000
0000
0000
0010
0000
0000
0000
0000
0000
0100
0000
0000
0001
0000
0000
1000
0000
0000
0100
0000
0000
1000
0000
0001
0000
0010
0000
0100
0000
0000
0000
0000
0000
1000
0000
0000
0010
0000
0000
,
0100
0000
0001
0000
1000
0000
0100
0000
0000
0000
0000
0000
0110
0000
0000
0000
0000
0000
0010
0000
0001
0000
1000
0000
0010
0000
0000
0000
0000
0000
0100
0000
0000
0010
0000
0000
0100
0000
0000
0000
0000
0000
0001
0000
0000
0000
0000
0000
,
1000
0000
0100
0000
0010
0000
0001
0000
0000
0000
0000
0000
0001
0000
0000
0000
0000
0000
0100
0000
0000
0000
0000
0000
1000
0000
0000
0000
0000
0000
0100
0000
0000
0000
0000
0000
0001
0000
0000
0000
0000
0000
1000
0000
0000
0001
0000
0000
,
1000
0010
0100
0001
0010
0100
1000
1100
,
0000
0000
0101
0000
1000
0000
0001
0100
0001
0010
0100
0000
1000
0100
1000
0010
,
0001
0000
1000
0100
0001
0000
1000
0000
0001
0010
1000
0000
0001
0100
0000
0100
,
1000
0000
0000
0001
0000
0000
1000
0000
0000
0000
0000
0000
0001
0000
0000
0100
0000
0000
0010
0000
0000
1000
0000
0000
0010
0000
0000
0100
0000
0000
1000
0000
0000
0100
0000
0000
0001
0000
0000
1000
0000
0000
0001
0000
0010
0000
0100
0000
,
1000
0001
0010
0100
0010
0001
1000
0000
0001
1000
0100
0001
0100
1000
0001
0000
,
1000
0010
0100
0010
0001
0010
1000
0000
0001
1000
0100
0010
0001
0000
0001
0010
,
0200
1000
0320
0032
1000
0203
0320
2030
,
3002
0100
0023
0230
1000
0320
0032
1000
,
0203
0000
0320
0000
2030
0000
3002
0000
0023
0000
0230
0000
2300
0000
3002
0100
,
0013
0000
0000
0000
0000
0000
1000
0000
0000
0100
0000
0000
0010
0000
0000
0000
0000
0000
0001
0000
0000
1000
0000
0000
0100
0000
0000
1000
0000
0000
0100
0000
0000
1000
0000
0000
0001
0000
0010
0000
0100
0000
1000
0000
0001
0000
0010
0000
,
0100
0000
0000
0000
;
