#TITLE:アダルトチックチルドレン;
#SUBTITLE:;
#ARTIST:yama;
#TITLETRANSLIT:Adults Childlike;
#SUBTITLETRANSLIT:;
#ARTISTTRANSLIT:yama;
#GENRE:ANIME;
#CREDIT:;
#MUSIC:Childlike Adults.ogg;
#BANNER:Childlike Adults.png;
#BACKGROUND:Childlike Adults-bg.png;
#CDTITLE:;
#SAMPLESTART:50.100;
#SAMPLELENGTH:19.200;
#SELECTABLE:YES;
#OFFSET:1.500;
#BPMS:0.000=200.000;
#STOPS:;
#LASTBEATHINT:1.597843;
#BGCHANGES:4.500=Childlike Adults.avi=1.000=0=0=0=StretchNoLoop====,
99999.000=-nosongbg-=1.000=0=0=0=StretchNoLoop====
;
#FGCHANGES:;

//--------------- dance-single - ----------------
#NOTES:
     dance-single:
     :
     Hard:
     13:
     0.751604,0.749226,0.344089,0.044399,0.033299,474,443,31,4,0,0,0.751604,0.749226,0.344089,0.044399,0.033299,474,443,31,4,0,0:
0000
0000
0000
0000
,
0000
0000
0000
0000
,
0101
0000
1000
0001
0000
0010
0000
0100
,
0000
1000
0000
0001
0000
0100
0100
0100
,
0110
0000
0001
1000
0000
0100
0000
1000
,
0000
0001
0000
0010
0000
0100
1000
0001
,
1001
0000
1000
0010
0000
0100
0000
0001
,
0000
1000
0000
0100
0000
0010
0001
1000
,
1100
0000
0100
0010
0000
0001
0000
1000
,
0000
0010
0000
0200
0000
0301
2000
0000
,
3100
0010
0001
1000
0000
0010
0000
1010
,
0000
1001
0000
0001
1000
0100
0001
0100
,
1000
0000
0001
0100
0000
0110
0000
1001
,
0000
0001
0010
0100
1000
0001
0000
1000
,
0010
0000
0100
0000
0001
0000
1000
0000
0000
0000
0001
0000
0000
0000
0010
0100
,
0000
0000
0100
1000
0000
0000
0001
0000
0100
0000
1000
0000
0100
0000
0001
0000
,
1000
0100
0010
0011
0000
1001
0000
1000
,
0100
1000
0010
1000
0001
0100
0000
0100
,
0001
0010
0100
1000
0100
0010
0100
0001
,
0000
0100
1000
0010
0100
0010
0001
0010
,
1000
0100
0010
0001
0000
0011
0000
1100
,
0000
1000
0010
0001
0010
0100
0000
0010
,
1000
0100
0010
1000
0010
0001
1000
1100
,
0000
0101
0001
1000
0000
1000
0010
0100
,
0010
1000
0001
0011
0000
1001
0000
0110
,
0000
0001
1000
0001
1000
0010
0000
0100
,
0001
0010
0001
0100
0001
0010
0100
1000
,
1100
1010
0101
0011
,
0001
0010
0100
1000
0010
1000
0100
0010
,
0001
0000
1000
0010
0000
0010
0100
0001
,
0010
1000
0010
0001
0100
1000
0001
0010
,
0100
0000
1001
0000
1000
0010
0100
0001
,
0010
0000
1000
0010
0000
0100
1000
0001
,
1000
0010
0001
0000
1000
0100
0001
0000
,
1000
0000
0010
0000
0100
0000
0001
0000
0020
0000
0000
0100
0000
0000
0031
0000
,
1000
0010
0100
1000
0100
0001
0010
0100
,
1000
0000
0010
0000
0100
0000
0001
0000
2000
0000
0000
0001
0000
0000
3100
0000
,
0010
0001
1000
0100
1100
0000
1001
0000
,
0001
0100
2000
0000
3200
0000
0301
0010
,
2000
3020
0032
2003
,
3020
0230
0302
2003
,
3010
0000
0100
0001
0100
0001
0100
0000
,
0001
0000
1000
0100
0000
0100
1000
0001
,
0110
0000
1001
0000
0001
0010
0100
1000
,
0000
1000
0010
0100
1000
0001
0010
1000
,
0001
0010
0000
0000
0100
1000
0000
0000
1001
0000
0000
0000
0001
0000
0010
0000
,
0000
0100
1000
0010
0100
0001
0010
0100
,
1000
0000
0101
0000
1000
0010
0100
0001
,
0101
0000
0000
1001
0000
0000
1100
0000
0000
0000
2000
0000
0000
0000
3100
0000
,
0001
0100
1000
0100
0010
0100
1000
0001
,
0000
1000
0010
1000
0010
0001
0010
1000
,
0001
0010
0100
1000
0100
0001
1000
0010
,
0000
0010
0001
1000
0100
0010
0001
0200
,
1000
0000
0010
0000
0301
1000
0100
0010
,
0000
0100
1000
0001
0100
0010
0100
0001
,
0101
0000
1010
0000
1000
0100
0010
0100
,
1100
0000
0000
1001
0000
0000
0102
0000
0000
0000
2003
0000
0000
0000
3002
0000
,
0000
0013
0100
1000
0001
1000
0100
1000
,
0001
0100
0001
1000
0001
0010
0100
1000
,
0020
0000
0031
0010
1000
0200
0000
0302
,
0000
0103
1000
0010
0100
2000
0000
3001
,
0010
1000
0100
1100
0000
0011
0000
1100
,
1000
0001
1000
0000
1000
0010
0100
0001
,
0020
0000
1030
0010
0001
0200
0000
2300
,
0000
3100
0001
0010
0100
0002
0000
1003
,
0010
0001
0100
0101
0000
1010
0000
0101
,
0001
1000
0001
0000
0010
0100
0110
0000
,
1001
0000
0001
1000
0000
0010
0000
0100
,
0000
0001
0000
1000
0000
0100
0100
0100
,
0110
0000
1000
0001
0000
0100
0000
0001
,
0000
1000
0000
0010
0000
0100
0001
1000
,
1001
0000
0001
0010
0000
0100
0000
1000
,
0000
0001
0000
0100
0000
0010
1000
0001
,
0101
0000
0100
0010
0000
1000
0000
0001
,
0000
0010
0000
0100
1000
0100
1000
0001
,
0101
0000
0000
0000
;

//--------------- dance-single - ----------------
#NOTES:
     dance-single:
     :
     Challenge:
     17:
     1.10045,1.132267,0.532783,0.055498,0.776975,694,646,48,5,0,0,1.10045,1.132267,0.532783,0.055498,0.776975,694,646,48,5,0,0:
0000
0000
0000
0000
,
0000
0000
0000
0000
,
1000
0000
0000
0000
0001
0010
0001
0000
0000
0000
0100
0000
0001
0000
1000
0100
,
1000
0000
0010
0000
0100
0000
0001
1000
0001
0000
0100
0000
0100
0000
0100
0000
,
0110
0000
0000
0000
1000
0010
1000
0000
0000
0000
0010
0000
0100
0000
0001
0010
,
0001
0000
0100
0000
0010
0000
1000
0001
1000
0000
0100
0000
0010
0000
0100
0010
,
0100
0000
0000
0000
0010
0001
1000
0000
0000
0000
0010
0000
1000
0000
0001
0010
,
0001
0000
1000
0000
0001
0000
1000
0100
1000
0000
0010
0000
0100
0000
0001
0000
,
1001
0000
0000
0000
0001
0000
0010
0000
0110
0000
0000
1100
0000
0000
1000
0000
,
0001
0000
0010
0100
0000
1000
0002
0000
0000
0000
1003
0000
0200
0000
0000
0000
,
0310
0000
0100
0000
1000
0000
0001
0000
1000
0000
0010
0100
0010
0000
1000
0000
,
0001
1000
0001
0000
0010
0000
0100
0000
1000
0000
0001
0000
0100
0000
1000
0000
,
0100
0000
0001
0000
1000
0100
1000
0000
0001
0000
1000
0000
0001
0010
0001
0000
,
1000
0010
0100
0010
0110
0110
0000
1000
,
0001
0000
0100
0000
1000
0000
0100
0000
0001
0000
1000
0000
0100
0000
0010
0001
,
0000
0000
0001
1000
0000
0000
1000
0010
0100
0000
0001
0000
0100
0000
0010
0000
,
1000
0001
0010
0011
0000
1001
0000
1100
,
0100
1000
0010
0200
0001
0301
0000
1000
,
0001
0100
0010
0100
0001
0000
0010
0000
0100
1000
0001
0000
0010
0000
0110
0000
,
0000
0000
1100
0000
1000
0000
0010
0000
0100
0001
1000
0001
0100
0000
0001
0000
,
0010
0100
1000
0000
0001
0000
0011
0000
0000
0000
1001
0000
0100
0000
0010
0000
,
0000
1000
0001
0100
0101
0101
0000
0001
,
1000
0100
0010
0100
1000
0000
0001
0000
1000
0010
0100
0000
0001
0000
0101
0000
,
0000
0000
1010
0000
0010
0000
0100
0000
0001
0000
1000
0000
0001
0000
1000
0100
,
0010
0001
1000
0000
0010
0000
0110
0000
0000
0000
1001
0000
0000
0000
0001
0000
,
0100
0000
0010
0000
0100
0000
0001
0000
1000
0001
1000
0001
1000
0100
0010
0001
,
1000
0001
0010
0100
1000
0000
0001
0000
1000
0100
1000
0000
0001
0100
0010
1000
,
0001
1000
0010
0100
0001
0000
1000
0000
0001
0100
0001
0000
1000
0001
1000
0100
,
0010
0100
1000
0001
1000
0000
0010
0000
0100
0010
0100
0000
0001
1000
0001
0100
,
0010
0100
0001
1000
0001
0000
0010
0000
0100
0010
0100
0000
1000
0100
0010
0100
,
1000
0001
0010
0100
1000
0000
0001
0000
1000
0010
1000
0000
0001
0100
0010
0100
,
0001
1000
0010
0100
0001
0000
1000
0000
0001
0100
0001
0000
1000
0100
0010
0001
,
1000
0010
0100
0001
0010
0000
0100
0000
1000
0001
1000
0000
0001
0010
0100
1000
,
0001
0010
0100
1000
0010
0000
1000
0010
0100
0001
1000
0100
0010
0100
1000
0010
,
0100
0000
0001
0010
0100
0000
1000
0000
1100
0000
0000
0011
0000
0000
1100
0000
,
0001
1000
0100
1000
0010
0000
0100
0000
0101
0000
0001
0000
1100
0000
1000
0000
,
0001
0010
0100
1000
0001
0000
1000
0000
1010
0000
0000
0101
0000
0000
1010
0000
,
1000
0000
0000
0010
0000
0000
0100
0000
0000
0001
0000
0000
0010
0000
0000
0000
0000
0000
0100
0000
0000
0000
0000
0000
0110
0000
0000
0000
0000
0000
0000
0000
0000
0000
0000
0000
1001
0000
0000
0000
0000
0000
0000
0000
0001
0000
0000
0000
,
1000
0000
0000
0100
0000
0000
1000
0000
0000
0001
0000
0000
0100
0000
0000
0000
0000
0000
0000
0000
0000
0000
0010
0000
1000
0000
0000
0000
0000
0000
0000
0000
0000
0000
0000
0000
0001
0000
0000
0010
0000
0000
0100
0000
0000
0000
1000
0000
,
0001
0010
0100
1000
,
0001
0100
0010
1000
,
0001
0000
0000
0000
1000
0100
1000
0000
0001
0100
0001
0000
0010
0000
0000
0000
,
0100
0000
0010
0100
0000
1000
0001
0100
,
0110
0000
0000
0000
1001
0000
0000
0000
0001
0000
0010
0100
1000
0000
1100
0000
,
0000
0000
0101
0000
0001
0000
1000
0000
0010
0100
0001
1000
0001
0100
0010
0100
,
0001
0000
1000
0100
0010
0000
0001
0010
0100
0000
1000
0000
0001
0000
0101
0000
,
0000
0000
1000
0000
0001
0000
1000
0000
0010
0100
0010
0100
0010
0100
0001
0010
,
0100
0000
0000
0000
0110
0000
0000
0000
1000
0000
0001
0100
0010
0000
0100
0000
,
0101
0000
0000
1001
0000
0000
1100
0000
0000
0000
1000
0000
0001
0000
0010
0000
,
1100
0010
0001
0100
1010
0100
0001
0010
,
0000
0000
0010
0000
0100
0000
1000
0000
0001
0010
0100
0010
0001
0010
0100
0010
,
0001
0000
1000
0010
0100
0000
0001
0000
1000
0000
0001
0100
0010
0100
0001
0000
,
0000
0000
0010
0000
0100
0000
1000
0100
0010
0001
1000
0001
0010
0100
1000
0001
,
0100
0000
1000
0100
0010
0000
0100
0001
0010
0000
0100
0000
1000
0000
1100
0000
,
0000
0100
0010
0100
1000
0100
0010
0001
,
0011
0000
1001
0000
1000
0010
0100
0001
,
1000
0000
0010
0100
0000
0100
0001
0000
1000
0000
0100
0000
0000
0000
0100
0000
,
1000
0001
0010
0100
0020
0001
0100
0001
,
0230
0000
1000
0000
0010
0000
1000
0000
0310
0001
1000
0001
1000
0001
1000
0001
,
0010
0000
0100
0000
1000
0100
0010
0001
1000
0000
1100
0000
0000
0000
0011
0000
,
0000
0000
0011
0000
1000
0000
0001
0000
0100
0000
0010
0000
1000
0100
0010
0001
,
1000
0010
0100
1010
0000
1001
0000
0110
,
0001
0000
1000
0000
0100
0000
0000
0000
0010
0000
0001
0000
1000
0100
1000
0001
,
1000
0100
1000
0001
1000
0000
0010
0000
0100
0000
0010
1000
0001
0000
0020
0000
,
0000
0000
1030
0000
0010
0000
0001
0000
0100
0000
1000
0000
0100
0010
0100
0001
,
0100
0010
0100
0000
0001
0010
2000
0000
0000
0000
3010
0000
0001
0000
1000
0000
,
0020
0000
0000
0000
0000
0000
0000
0000
0130
0001
1000
0000
0110
0000
0000
0000
,
1000
0000
0001
0000
1000
0020
0100
0000
0000
0000
1000
0000
0000
0000
0130
0001
,
1000
0001
1000
0000
0001
0100
0010
0000
0000
0000
0100
0000
0100
0000
0100
0000
,
0110
0000
0000
0000
0001
0020
0100
0000
0000
0000
0001
0000
0000
0000
0130
1000
,
0100
0010
0001
0000
1000
0010
0100
0000
0000
0000
0010
0000
1000
0000
0001
0010
,
1000
0000
0010
0000
0001
0000
1000
0000
0010
0000
0100
0001
0000
0000
0001
0000
,
0010
0000
0010
0100
1000
0000
1000
0000
0010
0000
0100
0010
0000
0100
0010
0000
,
1000
0000
0001
0000
0000
0000
0010
0000
0100
0000
1000
0001
0000
1000
0001
0000
,
0100
0000
0010
0000
0000
0000
0010
0000
1000
0000
0001
0010
0000
0010
0100
1000
,
0020
0000
0000
0000
0000
0000
0000
0130
0001
1000
0000
0000
0000
0000
0000
0000
;
