#TITLE:Cherish;
#SUBTITLE:;
#ARTIST:石原夏織;
#TITLETRANSLIT:Cherish;
#SUBTITLETRANSLIT:;
#ARTISTTRANSLIT:Ishihara Kaori;
#GENRE:ANIME;
#CREDIT:;
#MUSIC:Cherish.ogg;
#BANNER:Cherish.png;
#BACKGROUND:Cherish-bg.jpg;
#CDTITLE:;
#SAMPLESTART:56.154;
#SAMPLELENGTH:11.657;
#SELECTABLE:YES;
#OFFSET:2.132;
#BPMS:0.000=175.000
,133.500=87.500
,140.500=175.000
;
#STOPS:54.000=0.171
,71.500=0.343
,84.500=0.171
,116.000=0.171
;
#LASTBEATHINT:3.301667;
#BGCHANGES:6.000=Cherish.avi=1.000=0=0=0=StretchNoLoop====,
99999.000=-nosongbg-=1.000=0=0=0=StretchNoLoop====
;
#FGCHANGES:;

//--------------- dance-single - ----------------
#NOTES:
     dance-single:
     :
     Medium:
     12:
     0,0,0,0,0:
0000
0000
0000
0000
,
0000
0000
0000
0000
,
0000
0000
0000
0000
,
0000
0000
0000
0000
,
0000
0000
0000
0000
,
0000
0000
0000
0000
,
1100
0000
0000
0000
0001
0000
0010
0000
0100
0000
0000
0010
0000
0000
0001
0000
,
0000
1000
0010
0100
0010
0100
0101
0000
,
1001
0000
0000
0000
0110
0000
0000
0000
0001
0000
0000
1000
0000
0000
1001
0000
,
0000
0000
0000
0000
0000
0001
0000
0001
,
0010
0000
0000
0000
0100
0000
0000
0000
1000
0000
0000
1000
0000
0000
0001
0000
,
0000
0100
0010
0100
0000
0001
0000
1000
,
0100
0000
0000
0000
0110
0000
0000
0000
0010
0000
0000
0001
0000
0000
0100
0000
,
0000
0001
1000
0010
0200
0301
1000
0001
,
0000
0010
0000
0000
0010
0000
0000
0000
0100
0000
0000
0000
1000
0000
0000
0000
,
0001
0100
1000
0100
0001
0010
0100
1000
,
0000
0000
0000
0000
0001
0000
1000
0000
0000
0001
0000
0000
0010
0000
0000
0000
,
0100
1000
0001
0100
0010
1000
0001
0020
,
0100
0000
0130
0000
0000
0010
0000
0000
0110
0000
0000
0000
0100
0000
1000
0000
,
0001
0000
0100
0010
0100
0000
0001
0010
,
1000
0001
0100
1000
0001
0000
0001
0010
,
0100
0000
2000
0000
3001
0000
0100
0000
0100
0000
0000
0010
0000
0000
0100
0000
,
0000
0001
0000
1000
0000
0100
0010
0100
,
1000
0000
0001
0100
0100
1000
0000
1100
,
0000
0110
0000
0101
0000
0001
1000
0001
,
1000
0000
0010
0000
0100
0000
0001
0010
,
0200
0000
0000
1000
0000
0000
1300
0000
0000
0000
0001
0000
0100
0000
0001
0000
,
0000
0100
0001
1000
0000
0001
0010
0100
,
0010
0001
1000
0010
0000
1000
0100
0010
,
0002
0000
0000
0000
1003
0000
0010
0000
0000
0100
0000
0000
0100
0000
0000
0000
,
0001
0000
1000
0000
0100
0001
0100
1000
,
0000
1000
0010
0100
0000
0100
0001
0000
,
0001
0010
0200
0000
1300
1000
0010
0010
,
0100
0100
0001
2000
3010
1000
0001
0010
,
0100
0010
1000
0010
0001
0100
1000
0100
,
0010
0000
2000
0000
0000
3001
0000
0000
1001
0000
0000
0000
1000
0000
0100
0000
,
0001
0100
0001
0100
0001
0100
1000
0010
,
0001
0010
0001
0010
0001
1000
0100
0001
,
1000
0100
0001
1000
0010
0001
0001
0010
,
0010
0100
0100
1000
1000
0002
0000
0023
,
0000
0230
0000
1300
0000
1100
0000
0011
,
0000
0001
0010
0100
1100
0000
1010
0000
,
1100
0000
1000
0010
1000
0000
0010
0100
,
0010
0001
0010
1000
0100
0000
0001
0100
,
1000
0000
0020
0000
0000
0001
0000
0000
1000
0000
1030
0000
0000
0000
1000
0000
,
0001
0000
0020
0000
0000
1000
0000
0000
0100
0000
0130
0000
0000
0000
0110
0000
,
0001
0000
1000
0000
0000
0010
0000
0000
0110
0000
0000
0000
0100
0000
0001
0000
,
0100
0001
1000
0100
1000
0100
0002
0103
,
2000
3100
0002
0103
1000
1001
0000
0110
,
0000
0000
0001
0000
0000
1000
0000
0000
1010
0000
0000
0000
0110
0000
0000
0000
,
0101
0000
0001
0000
0010
0000
0100
1000
,
0010
0100
0010
1000
0001
0000
0010
0100
,
0010
0000
0100
0000
0000
1000
0000
0000
0010
0100
0010
0000
0000
0000
0110
0000
,
0000
0000
0100
0000
0000
0001
0000
0000
1000
0000
1100
0000
0000
0000
0011
0000
,
0001
0000
1000
0000
0000
0010
0000
0000
0100
0000
0000
0000
0001
0000
0100
0000
,
1000
0100
0001
0010
2000
0000
3020
0000
,
0032
0000
0203
0000
1300
0100
0000
0100
,
0001
0000
0010
0000
0000
0100
0000
0000
1100
0000
0000
0000
1000
0000
0100
0000
,
0010
0100
1000
0001
0100
0010
0000
1000
,
0010
0000
0100
0000
0000
0001
0000
0000
1000
0000
0000
0000
0100
0000
0001
0000
,
0100
1000
0010
0110
0000
1001
0000
0001
,
0100
0000
0010
0000
0000
0100
0000
0000
0110
0000
0000
0000
1000
0000
0010
0000
,
0100
1000
0100
0001
0000
0011
0000
1100
,
0000
0000
1000
0000
0000
0001
0000
0000
1001
0000
0000
0000
0000
0000
0000
0000
;

//--------------- dance-single - ----------------
#NOTES:
     dance-single:
     :
     Hard:
     16:
     0.873477,0.986506,0.321807,0.266323,0.726841,551,522,29,24,0,0,0.873477,0.986506,0.321807,0.266323,0.726841,551,522,29,24,0,0:
0000
0000
0000
0000
,
0000
0000
0000
0000
,
0000
0000
0000
0000
,
0000
0000
0000
0000
,
0000
0000
0000
0000
,
0000
0000
0000
0000
,
1000
0000
0001
0010
0001
0000
0100
0000
0020
0000
0000
1000
0000
0000
0230
0000
,
0000
0000
0301
0010
0100
0000
0010
0000
0100
0000
0010
0000
0002
0000
0000
0000
,
1003
0000
0010
0100
0010
0000
1000
0000
0101
0000
0000
0110
0000
0000
1001
0000
,
0000
0000
0000
0000
0000
0000
0001
0100
0001
0000
1000
0020
0000
0000
0100
0000
,
0130
0000
0000
0001
0010
0000
0000
0100
0010
0000
0000
0001
0000
0000
1000
0000
,
0010
0000
0100
0010
0100
0000
0001
0000
1000
0000
0002
0000
0000
0000
0013
0000
,
0100
0000
0000
1000
0010
0000
0000
0100
0010
0000
0000
1000
0000
0000
0001
0000
,
0000
0000
1000
0100
1000
0100
0010
0001
2000
0000
3010
0000
0100
0000
0010
0000
,
0000
1000
0000
0000
1000
0000
0000
0001
0010
0000
0100
0000
2000
0000
0000
0000
,
3010
0100
0010
0000
1000
0000
0001
0000
1000
0100
1000
0000
0010
0000
0200
0000
,
0000
0000
0301
0000
0020
0000
0100
0000
0000
0230
0000
0000
2300
0000
0000
0000
,
3001
0100
0001
0000
0100
0010
0100
0000
0010
1000
0001
0000
0010
0000
0120
0000
,
0100
0000
0130
0000
0000
1100
0000
0000
0011
0000
0000
0000
0001
0000
0010
0000
,
0100
0000
1000
0000
0010
0100
0001
0000
1000
0000
0001
0000
0100
0000
0010
0000
,
0100
0000
0001
0000
1000
0000
0001
0000
0100
0000
0001
0010
0001
0010
0100
1000
,
0100
1000
0020
0000
0230
0000
0000
0000
0310
0000
1000
0000
0001
0100
0001
0000
,
0010
0000
0100
1000
0100
0000
0010
0000
0100
0000
1000
0000
0001
0000
0100
0010
,
0100
0000
0001
0000
0010
0100
1000
0100
1000
0000
0001
0000
0000
0000
0101
0000
,
0000
1000
0100
1100
0000
1000
0001
1000
,
0001
0010
0100
1000
0001
0010
0100
1000
0010
0000
0100
0000
0001
0000
1000
0010
,
0200
0000
0000
1000
0000
0000
0301
0000
0010
0000
0100
1000
0010
0000
0100
0001
,
1000
0000
0100
0000
0010
0001
1000
0001
1000
0000
0010
0000
0100
0000
0001
0000
,
0010
0000
0100
0000
0010
0000
0001
0000
1000
0100
1000
0100
0010
0001
1000
0100
,
0020
0000
0031
0000
0000
0000
0001
0000
1000
0000
0010
0000
0100
0001
0000
0100
,
0010
1000
0100
0000
0100
1000
0001
0010
,
0010
0000
0100
0000
1000
0000
1001
0000
0000
0000
0001
0000
0100
0000
0010
1000
,
0001
0000
0010
0000
0200
0000
0000
0000
1300
0001
1000
0000
0010
0100
0010
0000
,
0100
0001
0100
0001
1000
0100
0020
0000
0130
0000
1000
0000
0110
0000
0001
0000
,
0100
0001
1100
0001
1000
0100
0011
0100
,
0010
0000
1001
0000
0000
0011
0000
0000
1100
0000
0000
0000
1000
0010
0100
0000
,
0001
0000
0100
0000
0001
0000
0100
0000
0001
0000
0100
0000
0001
0010
0100
0000
,
1000
0100
1000
0100
1000
0001
0100
1000
,
0100
0000
0001
0000
0010
0000
1000
0000
0010
0000
0001
0100
0010
0100
0010
0100
,
0010
0100
0001
1000
0100
0010
0100
0010
0100
0010
0001
1000
0000
0010
0100
0010
,
0000
0100
0001
1000
0000
0100
0010
0000
0001
0000
1000
0000
1000
0100
0010
0000
,
0100
0000
1000
0000
1000
0010
0100
0000
0010
0000
1000
0000
1000
0100
0010
0000
,
0100
1000
0010
0000
0100
0010
1000
0000
0100
0000
0010
0000
0010
0100
1000
0000
,
0010
0000
0100
0000
0100
0010
1000
0000
0100
0000
0010
0000
0010
0100
1000
0100
,
1000
0001
0200
0000
0000
0010
0000
0000
0301
0000
0010
0000
0100
1000
0001
0000
,
0100
0010
0100
0000
0010
1000
0001
0000
0010
0000
0100
0000
1000
0010
0100
0000
,
0001
1000
0001
0000
0010
0100
1000
0000
0010
0000
1000
0000
0001
0100
0001
0000
,
0100
0010
0100
0000
1000
0100
1000
0000
0100
0010
0100
0000
0001
0010
1000
0000
,
1000
0010
0001
0000
0001
0100
1000
0000
0100
0000
0001
0000
0001
0010
0100
0000
,
0010
0000
0001
0000
0001
0100
0010
0000
0100
0000
0001
0000
0001
0010
0100
0000
,
0001
0100
0010
0000
0001
0100
0010
0000
0100
0000
1000
0000
0100
0010
0100
0010
,
1000
0000
0001
0000
0010
0100
0010
0100
1000
0000
0010
0000
0100
0000
0001
0000
,
0010
0000
0200
0000
0000
0010
0000
0000
1300
0010
0100
0000
0001
0100
0001
0100
,
0010
0000
1010
0000
0000
0110
0000
0000
0101
0000
0001
0000
1000
0100
1000
0100
,
0010
0100
1000
0000
0000
1010
0000
0000
0110
0000
0001
0000
1000
0000
0010
0000
,
0001
0000
1000
0000
0100
0000
0001
0000
0010
0000
0100
1000
0010
0000
0100
0001
,
0010
0000
0100
1000
0010
0100
0001
0010
0100
1000
0001
0000
0000
0000
0101
0000
,
1000
0000
0020
0000
0000
0100
0000
0000
2030
0000
0000
0000
3001
0000
0010
0000
,
0100
1000
0010
0100
0001
0010
0000
0110
,
0001
0000
0200
0000
0000
0010
0000
0000
0302
0000
0000
0000
1003
0000
0010
0000
,
0100
0000
0001
0010
0001
0000
0110
0000
0000
0000
1100
0000
0100
0010
0100
0000
,
1000
0000
0001
0000
0100
0010
0000
1000
0010
0000
0100
0000
0001
0000
1000
0000
,
0001
0000
1000
0000
0100
0000
0011
0000
0000
0000
0011
0000
0000
0100
1000
0000
,
0010
0000
0110
0000
0000
0101
0000
0000
1001
0000
0000
0000
0000
0000
0000
0000
;

//--------------- dance-single - ----------------
#NOTES:
     dance-single:
     :
     Challenge:
     18:
     1.117607,1.268365,0.532647,0.177549,1.342714,705,657,48,16,0,0,1.117607,1.268365,0.532647,0.177549,1.342714,705,657,48,16,0,0:
0000
0000
0000
0000
,
0000
0000
0000
0000
,
0000
0000
0000
0000
,
0000
0000
0000
0000
,
0000
0000
0000
0000
,
0000
0000
0000
0000
,
1100
0000
0001
0010
0100
0000
0010
0000
0001
0000
1000
0010
0000
0010
0100
0000
,
0001
0000
1000
0100
1000
0000
0001
0010
0001
0010
0100
0000
0021
0000
0130
0000
,
1001
0000
1000
0010
0100
0000
1000
0000
0100
0001
0000
0011
0000
0000
1100
0000
,
0000
0000
0000
0000
0000
0000
1000
0100
1000
0001
0100
0020
0000
0000
0130
0000
,
0100
0001
0000
0001
0010
0000
0100
1000
0010
0000
0010
0100
0000
0001
0010
0000
,
0100
1000
0100
1000
0001
0000
0100
0000
0010
0100
0001
0020
0000
0000
2030
0000
,
3010
0000
0010
0001
0100
0000
0010
1000
0100
0000
0000
0011
0000
0000
0100
1000
,
0000
0000
1000
0010
0100
0010
0001
0010
2000
0000
3100
0000
0010
0000
0010
0001
,
0000
0100
0000
0000
0010
0000
1000
0100
0010
0000
0100
1000
0100
0010
0000
0010
,
0001
1000
0001
0000
0100
0000
1000
0000
0100
0001
1000
0000
0100
0000
0020
0000
,
0001
0000
0100
0000
0032
0000
1000
0000
0000
0103
0020
0000
2030
0000
0001
0000
,
3001
0010
0100
0000
0010
0100
0010
0000
0100
1000
0001
0000
0100
0000
0201
0000
,
0301
0100
0010
0000
0000
1010
0000
0000
0210
0000
0000
0000
0310
0000
1000
0000
,
0001
0000
0010
0100
1000
0100
0010
0100
1000
0001
0100
0000
1000
0000
0100
0000
,
0010
0000
1010
0000
0110
0000
0100
0000
0001
0000
0010
0100
1000
0001
0010
0100
,
1000
0100
0020
0000
0230
0000
0000
0000
0310
0001
1000
0000
0010
0100
0010
0000
,
0100
0001
1000
0100
0010
0100
1000
0001
0100
0010
0100
1000
0001
1000
0100
0010
,
1000
0000
0000
0000
0000
0000
0100
0000
0000
0000
0000
0000
0010
0000
0000
0001
0000
0000
0100
0000
0000
0001
0000
0000
0010
0000
0000
0000
0000
0000
0100
0000
1000
0000
0100
0000
1000
0000
0000
0000
0000
0000
1100
0000
0000
0000
0000
0000
,
0000
0000
0001
0010
0100
1000
0001
0000
0000
0000
0100
0000
0010
0000
0100
0000
,
0001
0100
0001
0010
1000
0001
0100
1000
0010
0000
0100
0000
0101
0000
0001
0010
,
0100
0000
0100
0001
0000
0001
1000
0000
1000
0010
0001
0100
0010
0100
0001
1000
,
0100
0000
0010
0000
0001
0100
1000
0100
0010
0000
0100
0001
0010
0000
0100
1000
,
0010
0000
0001
0010
1000
0000
0100
0000
0001
0100
1000
0001
0100
1000
0001
0010
,
0200
0000
0301
0000
0000
0000
0001
0000
1000
0100
0010
0000
0100
1000
0100
0010
,
0001
0000
1000
0000
1010
0000
0000
0000
0010
0100
1000
0100
0001
0000
0011
0000
,
0010
0100
1000
0001
0010
0000
0110
0000
0000
0000
1001
0000
0001
1000
0100
0001
,
1000
0000
0010
0000
0002
0000
0000
0000
0103
0010
0100
0000
0010
1000
0100
0000
,
0010
0000
0100
0000
0010
0000
0001
0000
1000
0000
0100
0000
0020
0000
0000
0000
0130
0000
0000
0000
1000
0000
0000
0001
0100
0000
0000
0000
0010
0000
0000
0000
,
0100
0000
0000
0000
0001
0000
0000
1000
0100
0000
0000
0000
0010
0000
0000
0000
0100
0000
0000
0000
1000
0000
0000
0001
0100
0000
0000
0010
0100
0000
0000
0000
,
0001
0000
0101
0000
0000
0011
0000
0000
1100
0000
0000
0000
1000
0010
0100
0000
,
0010
0000
0100
0000
0010
0000
0100
0000
0010
0000
0100
0000
0001
0010
0100
0000
,
0010
0100
0010
0100
0010
0011
0110
1010
,
0110
0000
0101
0000
0110
0000
1100
0000
0110
0000
0001
0100
1000
0100
0001
0100
,
1000
0000
0100
0000
0001
0000
0010
0000
1000
0000
0010
0000
0001
0000
0010
0000
1000
0000
0010
0000
0001
1000
0001
1000
0001
0000
0010
0000
0100
0000
1000
0000
,
0001
0010
0100
1000
0001
0010
0100
0000
1000
0000
0001
0010
0100
0010
0001
1000
,
0100
1000
0001
0010
0100
0010
0001
1000
0001
0010
1000
0010
0001
0010
1000
0010
,
0001
1000
0100
0001
0100
1000
0100
0001
0100
1000
0001
1000
0100
0001
1000
0010
,
0001
0010
0100
1000
0100
0010
0001
0010
1000
0001
0100
1000
0100
0001
1000
0010
,
0001
1000
0010
0000
0010
0100
0001
0000
1000
0000
0010
0100
1000
0100
0010
1000
,
0001
0100
0010
0001
0010
1000
0001
0100
1000
0100
0001
1000
0010
0001
0010
1000
,
0001
0100
1000
0000
0100
0001
0010
0000
0100
0000
1001
0000
0001
0010
0100
0000
,
0100
0000
0000
1000
0000
0000
0001
0000
0000
0000
0000
0000
1000
0000
0000
0010
0000
0000
0100
0000
0000
0000
0000
0000
0100
0000
0000
0001
0000
0000
1000
0000
0000
0000
0000
0000
1000
0000
0100
0000
0010
0000
0001
0000
0000
0000
0000
0000
,
1000
0000
0100
0000
0010
0000
0001
0000
0000
0000
0000
0000
1000
0000
0100
0000
0010
0000
0001
0000
1000
0000
0100
0000
0010
0000
0001
0000
1000
0000
0100
0000
0000
0010
0000
0000
0100
0000
0000
1000
0000
0000
0001
0000
0000
0100
0000
0000
,
0010
0001
0010
0100
0010
1000
0001
0010
1000
0010
0100
0010
0001
1000
0001
0100
,
1000
0001
0010
1000
0010
0001
0010
0100
0001
0010
0100
1000
0100
0001
1000
0010
,
0001
1000
0001
1000
0010
0001
0010
1000
0001
1000
0010
0100
0001
0000
0011
0000
,
0010
0100
1000
0000
0000
1100
0000
0000
0010
0100
1001
0000
0010
0100
0010
0100
,
0010
0000
1010
0000
0000
0110
0000
0000
0101
0000
0011
0000
0010
0100
0010
0100
,
0010
0001
1000
0000
0000
1010
0000
0000
0110
0000
0101
0000
0001
0100
0010
0000
,
0001
0000
0000
0010
0000
0000
1000
0000
0000
0000
0000
0000
0001
0000
0000
0010
0000
0000
0100
0000
0000
0000
0000
0000
0010
0000
0000
0001
0000
0000
1000
0000
0100
0000
0010
0000
0001
0000
0000
1000
0000
0000
0001
0000
0010
0000
0100
0000
,
1000
0000
0000
0001
0000
0000
1000
0000
0100
0000
0010
0000
0001
0000
0010
0000
0100
0000
1000
0000
0000
0001
0000
0000
0100
0000
0000
0010
0000
0000
0100
0000
0000
0000
0000
0000
0000
0000
0000
0000
0000
0000
0110
0000
0000
0000
0000
0000
,
1000
0000
0001
0000
0010
0100
0000
0000
1100
0000
0000
0000
0001
0000
0010
0000
,
0100
0000
1000
0010
0001
0000
0010
0000
0100
0000
1010
0000
0000
0000
1100
0000
,
0001
0000
0010
0000
0100
1000
0000
0000
1010
0000
0000
0000
0100
0000
0001
0000
,
0010
0000
1000
0010
0001
0000
0100
0000
0010
0000
0101
0000
0010
1000
0010
0000
,
0100
0000
0001
0000
0010
1000
0000
0001
0100
0000
1000
0000
0010
0000
0100
0000
,
0001
0100
1000
0100
1000
0100
0001
0000
0010
0000
0100
0000
1000
0100
0001
0000
,
0100
0000
1100
0000
0000
0101
0000
0000
1001
0000
0000
0000
0000
0000
0000
0000
;
