#TITLE:Change;
#SUBTITLE:;
#ARTIST:nonoc;
#TITLETRANSLIT:Change;
#SUBTITLETRANSLIT:;
#ARTISTTRANSLIT:nonoc;
#GENRE:ANIME;
#CREDIT:;
#MUSIC:Change.ogg;
#BANNER:Change.png;
#BACKGROUND:Change-bg.png;
#CDTITLE:;
#SAMPLESTART:52.764;
#SAMPLELENGTH:14.015;
#SELECTABLE:YES;
#OFFSET:1.543;
#BPMS:0.000=137.000;
#STOPS:;
#LASTBEATHINT:1.239850;
#BGCHANGES:3.750=Change.avi=1.000=0=0=0=StretchNoLoop====,
99999.000=-nosongbg-=1.000=0=0=0=StretchNoLoop====
;
#FGCHANGES:;

//--------------- dance-single - ----------------
#NOTES:
     dance-single:
     :
     Hard:
     12:
     0,0,0,0,0:
0000
0000
0000
0000
,
0000
0000
0000
0000
,
0000
0000
0000
0000
,
0001
1000
0001
1000
0010
0100
0001
0000
,
1000
0001
1000
0001
0010
0100
0010
0000
,
0100
1000
0001
1000
0100
1000
0001
0100
,
0001
0010
0000
0100
0010
0000
0001
1000
0000
0000
0000
0000
1001
0000
0000
0000
,
0101
0000
0100
0001
0010
0100
0000
1100
,
0000
1010
0000
0011
0000
0001
0100
0010
,
1000
0000
1000
0010
0100
0001
0000
0011
,
0000
1010
1000
0010
0100
0010
1000
0001
,
0011
0000
0100
1000
0010
0100
0000
0101
,
0000
0011
0000
1100
0000
1000
0100
0010
,
0110
0000
0010
0001
1000
0010
0000
0110
,
0001
0001
1000
1000
0010
0100
0010
1000
,
1100
0000
0000
1001
0000
0000
1100
0000
0000
0000
0000
0000
1000
0000
0001
0000
,
0101
0000
0000
1001
0000
0000
0101
0000
0000
0000
0000
0000
0001
0000
0000
0000
,
0110
0000
0000
1100
0000
0000
0110
0000
0000
0000
0000
0000
0010
0000
0001
0000
,
1000
0010
0100
0001
1001
0000
1001
0000
,
0101
0000
0000
0010
1000
0000
0100
0000
0001
0000
0100
0000
1000
0000
0001
0000
,
1000
0000
0000
1000
0100
0000
0010
0000
0001
0000
0100
0000
1000
0000
0100
0000
,
0001
0000
0000
0001
0010
0000
0100
0000
0010
0000
0001
0000
1000
0000
0010
0000
,
0100
1000
0001
0010
1000
0000
1001
0000
,
1000
0100
1000
0000
0001
0100
0001
0000
,
1000
0010
1000
0010
0100
0001
1000
0000
,
0001
0100
0001
0000
1000
0100
1000
0000
,
0001
0010
0001
0010
0100
1000
1001
0000
,
0101
0001
1000
0010
0100
0010
1000
0000
,
1000
0100
0010
0100
1000
0001
0100
0000
,
1000
0100
0001
0000
0001
0100
1000
0000
,
1000
0100
0001
1000
0001
0000
0000
0000
,
1000
0000
0010
0000
0100
0000
0001
0000
0100
0000
1000
0100
0000
0100
0001
0000
,
0010
0000
0100
0000
1000
0000
0100
0010
0000
0010
0001
0000
0011
0000
0000
0000
,
1100
0000
0001
0000
0100
0000
0010
0000
1000
0000
0010
0100
0000
0100
0001
0000
,
1000
0100
0010
0100
1000
0001
0101
0000
,
0001
0010
0001
0000
1000
0010
1000
0000
,
1100
0011
0101
1010
,
0001
1000
0010
0000
0100
0001
1000
0000
,
2000
3200
0320
0032
,
1003
0000
0001
0010
0000
1000
0010
0000
0110
0000
0000
0000
1001
0000
0000
0000
,
0001
0100
0010
1000
1010
0000
0101
0000
,
0001
0000
0100
1000
0000
0100
0001
0000
1001
0000
0000
0000
1000
0000
0100
0000
,
1100
0000
0001
0100
0101
0000
0110
0000
,
0010
1000
0100
0000
0010
0001
0100
0010
,
1010
0101
0011
1100
,
1001
0000
1000
0100
0010
0000
0001
0010
,
0100
0000
0110
0000
1000
0010
1000
0100
,
0010
0000
0001
0000
1000
0000
0000
0010
0000
0000
0010
0000
0100
0000
0001
0000
,
0010
0000
0100
0000
1000
0000
0000
0010
0000
0000
0010
0000
0100
0000
0001
0000
,
1000
0000
0010
0000
0001
0000
0000
1000
0000
0000
1000
0000
0100
0000
0001
0000
,
1000
0000
0100
0000
0001
0000
0000
0100
0000
0000
0100
0000
1000
0000
0001
0000
;

//--------------- dance-single - ----------------
#NOTES:
     dance-single:
     :
     Challenge:
     16:
     0.61048,0.481169,0,0,0,385,385,0,0,0,0,0.61048,0.481169,0,0,0,385,385,0,0,0,0:
0000
0000
0000
0000
,
0000
0000
0000
0000
,
0000
0000
0000
0000
,
0011
0000
0001
0010
0100
0010
0000
0001
0100
0000
0010
0000
0100
0010
1000
0100
,
0010
0100
1000
0001
0100
0010
0000
0100
0000
0001
1000
0000
0100
1000
0100
0010
,
0100
0000
1000
0010
0100
0010
0000
1000
0100
0000
0010
0000
0001
1000
0001
0010
,
0100
0100
0000
0010
0010
0000
1001
1001
0000
0100
0010
0000
1001
0000
0000
0000
,
0011
0000
0001
0010
0100
1000
0001
0010
0002
0000
0023
0000
0100
0000
0032
0000
,
1003
0000
0010
0100
0020
0000
2030
0000
3001
0010
0001
0010
0100
1000
0010
0100
,
0010
0000
1000
0100
0010
0001
1000
0000
0020
0000
0230
0000
0001
0000
0320
0000
,
1030
0000
0000
0000
0100
0000
1000
0000
0010
0000
0000
0000
1000
0000
0001
0000
0100
0010
0100
0010
0100
0000
0001
0000
1000
0000
0000
0000
0100
0000
0000
0000
,
1100
0000
1000
0010
0100
0001
0010
0000
0200
0000
2300
0000
0010
0000
3002
0000
,
0103
0000
0010
1000
0200
0000
0320
0000
0001
0000
0230
0000
1300
0010
0100
0000
,
0101
0000
0001
0100
0010
0100
0001
0000
0002
0000
0023
0000
0100
0000
0032
0000
,
1003
0100
1000
0001
1000
0001
0100
0001
1000
0100
0010
0001
0100
0000
0010
0000
,
0110
0000
0000
0100
0001
0000
1000
0000
1100
0000
0000
0000
1100
0000
1000
0010
,
0100
0000
0000
0100
0001
0000
0010
0000
0011
0000
0000
0000
0011
0000
0000
0000
,
1001
0000
0000
1000
0010
0000
0100
0000
0101
0000
0000
0000
0101
0000
0100
0001
,
1000
0000
0100
0000
0001
0000
0100
1000
0010
0000
0000
0000
0110
0000
0000
0000
,
1001
0000
0000
0001
0100
0000
1000
0000
0100
0000
0010
1000
0100
0010
0100
1000
,
0001
0000
0000
0001
0010
0000
0100
0000
1000
0000
0100
0010
0100
1000
0001
0100
,
0010
0000
0000
0010
1000
0000
0100
0000
0001
0100
1000
0100
0010
0100
1000
0010
,
0001
0000
0000
0000
0010
0000
0000
0000
1000
0000
0000
0000
0001
0000
1000
0000
0100
0010
0100
0010
0100
0000
1000
0000
0001
0000
0000
0000
0100
0000
0001
0000
,
1000
0100
1000
0001
1000
0100
1000
0001
0100
1000
0100
0001
0100
1000
0100
0001
,
1000
0100
1000
0001
1000
0100
1000
0001
1000
0100
0001
0100
1000
0100
0001
0100
,
1000
0001
1000
0001
0100
1000
0100
1000
0100
0001
0100
0001
1000
0100
1000
0100
,
0001
0000
0100
0000
0001
0000
1000
0000
0010
0100
0010
0100
0010
0000
0001
0000
1000
0000
0000
0000
0110
0000
0000
0000
0110
0000
0000
0000
0000
0000
0000
0000
,
1001
0000
0001
1000
0100
0000
0010
0000
0100
1000
0000
0001
1000
0000
0010
0100
,
0010
0000
0000
1000
0001
0000
0010
0000
0100
1000
0000
1000
0010
0000
0100
0001
,
1000
0100
0011
1000
0001
0100
1010
0100
,
0001
0010
0100
1000
0001
0100
0010
1000
0001
0000
0000
0000
0000
0000
0000
0000
,
1000
0100
0010
0001
0100
0010
0001
1000
0100
0010
1000
0100
0010
0000
0010
0001
,
1000
0000
1000
0010
0100
0001
0010
0100
0001
1000
0010
0100
1000
0000
1010
0000
,
0101
0000
0001
0010
0100
1000
0010
0100
1000
0001
0010
0100
1000
0000
1000
0100
,
0001
0000
0010
0000
1000
0010
0100
1000
0010
0001
1000
0100
0001
0000
0100
0000
,
1001
0000
0001
0010
0100
0000
1000
0010
0000
1000
0010
0100
0001
1000
0001
0010
,
0100
0000
1000
0010
0100
0000
0001
0100
0010
0000
1000
0100
0010
0001
0100
0010
,
0001
0000
1000
0100
0010
1000
0100
0001
2000
0000
3020
0000
0032
0000
0203
0000
,
0320
0000
0000
0000
1030
0000
0100
0000
0020
0000
0100
0000
0030
0000
1000
0000
0001
0100
0001
0100
0001
0000
1000
0000
0010
0000
0000
0000
0010
0000
0100
0000
,
0001
0000
0001
0010
0100
1000
0010
1000
0010
0000
0100
0001
1000
0000
0100
0000
,
0001
0000
0100
1000
0010
0100
0010
1000
0000
1000
0100
0010
0100
0010
0001
1000
,
0010
0000
0100
0001
0010
0100
0010
0001
0100
0000
0010
1000
0001
1000
0010
1000
,
0001
0000
0001
0010
0100
1000
0000
0010
0000
0100
0001
0000
0010
0100
0010
0100
,
1000
0000
0001
0010
0100
1000
0000
1000
0010
0100
0001
0000
1001
0000
0001
0100
,
1000
0000
1000
0100
0001
0000
1000
0100
0001
0000
0001
0100
1000
0000
0001
0100
,
0010
0000
0100
0001
1000
0100
0000
0010
0001
0000
0001
0010
0100
1000
0010
0000
,
0101
0000
0100
0001
0100
0001
1000
0100
1000
0100
0010
0001
1000
0000
1000
0010
,
0100
0000
0010
1000
0001
0010
0000
0110
0000
0000
0110
0000
1000
0010
0100
0010
,
0000
0100
0001
0010
0100
1000
0000
1100
0000
0000
1100
0000
1000
0010
0100
0001
,
0010
0000
0100
0010
0001
1000
0000
1001
0000
0000
1001
0000
0001
0100
1000
0001
,
0010
0100
0001
0010
1000
0010
0000
0110
0000
0000
0110
0000
0000
0010
0001
1000
;
