#TITLE:カメレオン;
#SUBTITLE:;
#ARTIST:すりぃ feat.鏡音レン;
#TITLETRANSLIT:Chameleon;
#SUBTITLETRANSLIT:;
#ARTISTTRANSLIT:Surii feat.Kagamine Len;
#GENRE:POP;
#CREDIT:;
#BANNER:Chameleon.png;
#BACKGROUND:Chameleon-bg.png;
#LYRICSPATH:;
#CDTITLE:;
#MUSIC:Chameleon.ogg;
#OFFSET:0.328000;
#SAMPLESTART:57.554001;
#SAMPLELENGTH:11.647000;
#SELECTABLE:YES;
#BPMS:0.000000=170.000000
,33.000000=85.000000
,34.500000=170.000000
,259.500000=85.000000
,273.500000=42.500000
,274.500000=170.000000
;
#STOPS:274.500000=0.176000,
277.000000=0.176000
;
#BGCHANGES:3.000=Chameleon.avi=1.000=0=0=0=====,
99999=-nosongbg-=1.000=0=0=0 // don't automatically add -songbackground-
;
#KEYSOUNDS:;
#ATTACKS:;

//---------------dance-single - ----------------
#NOTES:
     dance-single:
     :
     Hard:
     12:
     0.618753,0.728834,0.492364,0.369273,0.096165,563.000000,499.000000,64.000000,48.000000,0.000000,0.000000,0.618753,0.728834,0.492364,0.369273,0.096165,563.000000,499.000000,64.000000,48.000000,0.000000,0.000000:
0000
0000
0000
0000
,
0000
0001
0001
1000
,
1000
0010
0100
0010
,
1000
0001
0000
0010
0100
0000
1000
0100
,
0010
0011
1100
0110
,
0000
1000
0001
0000
0001
0000
1000
0010
,
0100
0000
0100
0001
1000
0000
1001
0000
,
0000
0001
0101
0000
1100
0000
0101
0000
,
1100
0000
1001
0000
0000
1001
0000
0001
,
0000
0010
0000
0000
0100
0000
1000
0000
0001
0000
1000
0000
0000
0000
0001
0000
,
0000
1000
0000
0000
0010
0000
0100
0000
0001
0000
1000
0000
0000
0000
0001
0000
,
0000
0010
0000
0000
0001
0000
0100
0000
1000
0000
0100
0000
0000
0000
0010
0000
,
0000
1000
0000
0000
0100
0000
0001
0000
0100
0000
1000
0000
0000
0000
0001
0000
,
0000
0100
0000
0000
0001
0000
1000
0000
0001
0000
0010
0000
0000
0000
0100
0000
,
0000
1000
0000
0000
0001
0000
1000
0000
0001
0000
0100
0000
0000
0000
0010
0000
,
0000
0100
0000
0000
0010
0000
1000
0000
0100
0000
0001
0000
0000
0000
0100
0000
,
0000
1000
0000
0000
0001
0000
0100
0000
0010
0000
0110
0000
0000
0000
0100
0000
,
0000
0100
0000
0001
0000
0001
0000
1000
,
0000
0100
0010
0100
0000
0011
0000
1000
,
0000
1000
0000
0010
0000
0010
0000
0100
,
0000
0001
1000
0001
0000
1010
0000
0100
,
0000
0100
0000
0001
0000
0001
0000
1000
,
0100
1000
0000
0101
0000
0000
1000
1010
,
0000
0000
0001
0011
0000
0000
0001
0010
,
0000
0010
0100
1000
0000
1001
0000
0001
,
0100
1000
0000
1000
0100
0001
0000
1000
,
0001
0010
0100
0010
0001
1001
0000
1000
,
0100
0001
0000
0001
0100
1000
0000
0001
,
0100
0010
1000
0001
0010
0110
0000
0100
,
0000
0000
1100
0000
0000
0000
0001
0000
0000
0011
0000
0000
0010
0000
0001
0000
,
1000
0010
0100
1010
0000
0000
0010
0101
,
0000
0000
0010
1100
0000
0000
0010
0100
,
0001
0010
1000
0001
0100
1100
0000
1000
,
0000
0001
0100
0001
0200
0000
0320
0000
,
1030
0100
2000
0000
0000
3001
0000
1000
,
0000
0001
0010
0001
0020
0000
0230
0000
,
1300
0010
2000
0000
0000
3010
0000
1000
,
0100
0001
0100
0001
0100
1000
0001
0010
,
1000
0010
1000
0010
0001
1000
0100
0010
,
0001
2000
0000
0010
0010
0010
3010
0000
,
0100
0001
1000
0001
0000
1001
0000
1100
,
0000
0011
0000
0001
0010
0100
0000
1000
,
0100
0001
0100
2000
0001
3001
0200
0000
,
0310
1000
0100
0010
0001
0100
0010
1010
,
0000
0101
0000
1010
0000
0001
1000
0010
,
0000
0110
0000
1000
0010
0100
0000
0001
,
0010
1000
0010
0002
1000
1003
0010
0110
,
0000
1001
0000
0110
0000
1001
0000
0001
,
0100
0010
1000
1010
0000
1001
0000
0000
,
1000
0000
1000
0000
0001
0000
2000
0000
0000
3020
0000
0000
0230
0000
0000
0000
,
0301
1000
0002
0000
0013
0100
1000
1100
,
0000
0000
0011
0000
0000
0000
1010
0000
0000
0101
0000
0000
1010
0000
0000
0000
,
1000
0010
0100
0002
0000
1003
0000
0000
,
0001
0000
0001
0000
1000
0000
0002
0000
0000
0023
0000
0000
0230
0000
0000
0000
,
1300
0001
2000
0000
3010
0100
0001
0100
,
0010
0100
0000
1000
0100
0001
0100
0010
,
1000
0010
0100
0001
1000
0100
0010
0002
,
0000
1003
1000
0200
0000
1300
0020
0000
,
0130
0001
2000
0000
3001
0100
0010
1000
,
0000
0000
1000
0000
0000
0000
0001
0000
0000
0100
0000
0000
0001
0000
0000
0000
,
1000
0100
0010
0001
1000
2000
0000
3001
,
0100
0000
0100
0000
0010
0000
2000
0000
0000
3002
0000
0000
0203
0000
0000
0000
,
0301
0010
0100
1000
0001
1000
0100
0020
,
0000
0032
0000
0203
0000
0310
2000
0000
,
0001
0001
0001
3001
0000
0001
0010
0200
,
1300
0000
0001
0000
0100
0000
0001
0000
1000
0100
1000
0000
0000
0001
0000
0001
,
1000
0000
0001
0100
0010
0000
1010
0000
1100
0000
0011
0000
0000
1000
0001
0000
,
0001
0000
0010
0000
0010
0000
0100
0000
1000
0001
1000
0000
0000
0010
0100
0000
,
0001
0000
1000
0000
0001
0100
0020
0000
0000
0000
0130
0000
0110
0000
0000
0000
,
0100
0001
2000
3001
0100
1000
0100
0002
,
1000
1003
0200
0000
0310
0001
0100
0010
,
1000
0100
0010
0011
0000
1100
0000
0011
,
0000
1000
0001
0010
0000
0110
0000
0001
,
0010
0100
0000
1000
0010
0001
0010
2000
,
0001
3001
0010
0110
0000
1001
0000
0110
,
0000
1001
0000
1000
0100
0010
0001
0011
,
0000
1001
0000
0000
0001
0001
1000
0002
,
0000
0203
0000
0000
0320
0000
0000
0000
1030
0000
0001
0000
2000
0000
0000
0000
,
3100
0010
0001
0011
0000
1100
0000
0101
,
0000
1010
0000
0000
0101
0000
0000
0000
0001
0000
0100
0000
0010
0000
2000
0000
,
0000
3001
0000
0000
1000
1000
0001
2000
,
0000
3200
0000
0000
0320
0000
0000
0000
0031
0000
1000
0000
0002
0000
0000
0000
,
0103
0010
1000
0010
0100
0010
0000
0001
,
0010
1000
0010
0100
0001
0100
0010
1000
,
0000
1001
0000
0001
1000
0002
0000
0013
,
0100
0020
0000
0031
0100
1000
0001
0010
,
0000
0110
0000
0000
0000
0000
0000
0000
;

//---------------dance-single - ----------------
#NOTES:
     dance-single:
     :
     Challenge:
     16:
     0.879222,1.060122,0.376967,0.292341,0.630842,800.000000,751.000000,49.000000,38.000000,0.000000,0.000000,0.879222,1.060122,0.376967,0.292341,0.630842,800.000000,751.000000,49.000000,38.000000,0.000000,0.000000:
// measure 0
0000
0000
0000
0000
,  // measure 1
0000
1001
0110
0100
,  // measure 2
0001
0000
1000
0001
1000
0001
0100
0000
,  // measure 3
0010
1000
0000
1000
0100
0010
0001
1000
,  // measure 4
0010
0100
0101
0000
1100
0000
1001
0000
,  // measure 5
0010
1000
0001
0100
0001
0100
0010
1000
,  // measure 6
0010
1000
0100
0010
0100
0010
0001
0000
,  // measure 7
0010
0000
0100
0000
1000
0000
0001
0100
0001
0000
1000
0100
1000
0000
0001
0000
,  // measure 8
0010
0000
0000
0000
0100
0000
0000
0000
1000
0000
0001
0000
0100
0000
0001
0000
1000
0000
0100
0010
0100
0000
0000
0000
0000
0000
0000
0000
1001
0000
0000
0000
,  // measure 9
0000
0010
0100
0000
1000
0000
0001
0000
1000
0000
0100
0000
1000
0000
0001
0000
,  // measure 10
0000
1000
0010
0000
0100
0000
0001
0000
0010
0000
0100
1000
0100
1000
0001
0000
,  // measure 11
0000
0010
0100
0000
1000
0000
0010
0000
0100
0000
0010
0000
1000
0000
0001
0000
,  // measure 12
0000
0101
0000
0100
0010
0000
1000
0000
0001
0000
0010
0100
0010
0100
1000
0000
,  // measure 13
0000
0010
0100
0000
0001
0000
1000
0000
0001
0000
0100
0000
0001
0000
1000
0000
,  // measure 14
0000
0001
0010
0000
0100
0000
1000
0000
0001
0000
0100
0001
0100
0001
1000
0000
,  // measure 15
0000
0100
0010
0000
0001
0000
1000
0000
0100
0000
1000
0000
0010
0000
0100
0000
,  // measure 16
0000
0110
0000
0100
0001
0000
0010
0000
0100
0000
1100
0000
0000
0000
0001
0000
,  // measure 17
0000
0000
0001
0000
0000
0000
1000
0000
0000
0010
1000
0000
0001
0000
1000
0000
,  // measure 18
0001
0100
0000
0100
0010
0000
1000
0000
0001
0000
1000
0000
0000
0000
0100
0000
,  // measure 19
0000
0000
0100
0000
0000
0000
0010
0000
0001
0100
0001
0000
1000
0000
0001
0000
,  // measure 20
0000
0100
0001
0000
0010
0000
0100
0000
1000
0000
0001
0100
0001
0100
0001
0000
,  // measure 21
0000
0000
0001
0000
0000
0000
1000
0000
0010
0100
0000
0100
0001
0000
0010
0000
,  // measure 22
0000
0100
1000
0000
0001
0000
0100
0000
0001
0000
1000
0000
0010
0000
1010
0000
,  // measure 23
0000
0000
0100
0000
0001
0000
0011
0000
0100
1000
0010
0000
0001
0000
0010
0000
,  // measure 24
1000
0100
0010
0000
0001
0000
1000
0000
0001
0010
0100
1000
0100
0010
0001
0000
,  // measure 25
0010
0000
0001
0000
0100
0000
0010
0000
0100
0001
0000
0100
0010
0000
1000
0000
,  // measure 26
0001
0010
0001
0000
0010
0000
0100
0000
1000
0000
0101
0000
0000
0000
0001
0000
,  // measure 27
0100
0000
0010
0000
1000
0000
0001
0000
1000
0100
1000
0000
0010
0000
0001
0000
,  // measure 28
0010
0100
0010
0000
1000
0000
0001
0000
0001
0000
1000
0100
0010
0001
1000
0000
,  // measure 29
0000
0000
1001
0000
0000
0000
1100
0000
0000
1000
0100
0000
0010
0000
0001
0000
,  // measure 30
1000
0100
1000
0000
0010
0000
0001
0000
1000
0100
0010
0000
1000
0000
1100
0000
,  // measure 31
0000
0010
0001
0101
0000
0100
0010
0100
,  // measure 32
1000
0100
0001
0000
0010
0000
0100
0000
1000
0000
1001
0000
0000
0000
0001
0010
,  // measure 33
0100
1000
0001
0010
0100
1000
0001
0000
1000
0000
0100
0000
0010
0000
0001
0010
,  // measure 34
0100
1000
0001
0010
0100
1000
0001
0000
1000
0000
0100
0000
0010
0000
0001
0100
,  // measure 35
0010
1000
0001
0100
0010
1000
0001
0000
1000
0000
0010
0000
0100
0000
0001
0100
,  // measure 36
0010
1000
0001
0100
0010
1000
0001
0000
1000
0000
0010
0000
0100
0000
0001
0000
,  // measure 37
0100
0000
1000
0000
0100
0001
1000
0000
0100
0000
0001
0000
0100
1000
0001
0000
,  // measure 38
0100
0000
1000
0000
0100
0001
1000
0000
0100
0000
0001
0000
0100
1000
0010
0000
,  // measure 39
1000
0000
0001
0000
1000
0000
0010
0100
0010
0100
0010
0100
0010
0000
0000
0000
,  // measure 40
1010
0000
1010
0000
0101
0000
1001
0000
0001
0100
0010
0000
1000
0000
1100
0000
,  // measure 41
0000
0000
0021
0000
0000
0000
0031
0000
0010
0000
0100
0000
1000
0000
0001
1000
,  // measure 42
0100
1000
0001
1000
0100
1000
0020
0000
0100
0000
0130
0000
0002
0000
0000
0000
,  // measure 43
1003
0001
0010
0001
0100
1000
0100
0001
,  // measure 44
1000
0100
0010
0000
1000
0010
0100
0000
1000
0000
0001
0100
0010
1000
0001
0000
,  // measure 45
0000
0000
0120
0000
0000
0000
0130
0000
0010
0000
1000
0000
0001
0000
1000
0001
,  // measure 46
0100
0001
1000
0001
0100
0001
0020
0000
0100
0000
0130
0000
1000
0100
0010
0000
,  // measure 47
0001
0010
0100
0000
1000
0100
0010
0000
0100
0000
1000
0000
0001
0000
1000
0000
,  // measure 48
0010
0000
0001
0000
1000
0000
0100
0000
0001
1000
0001
0000
0000
0000
0100
0000
,  // measure 49
0001
0000
0001
0000
1000
0000
0200
0000
0000
0010
0000
0000
2300
0000
0000
0000
,  // measure 50
3010
0100
0020
0000
0130
0001
1000
0100
,  // measure 51
0010
0000
0100
0000
1000
0000
1010
0000
0000
0101
0000
0000
1010
0000
0000
0000
,  // measure 52
1000
0000
0100
0000
0010
0000
0001
0000
1000
0000
0001
0100
0001
0100
0001
0000
,  // measure 53
1000
0000
1000
0000
0001
0000
0200
0000
0000
0010
0000
0000
0302
0000
0000
0000
,  // measure 54
0103
0000
0010
0000
0200
0000
0000
0000
0310
0000
1000
0000
0001
0000
1000
0100
,  // measure 55
0010
0100
2000
0000
0000
0000
3001
0000
0010
0000
0100
0000
1000
0000
0101
0000
,  // measure 56
1010
1100
0011
1001
1000
0100
0010
0002
,  // measure 57
0000
0000
1003
0000
1000
0010
0100
0010
0100
0000
0010
1000
0002
0000
0000
0000
,  // measure 58
0013
0100
2000
0000
3001
0010
0100
0010
,  // measure 59
0001
0000
1000
0000
0010
0000
0100
0001
0000
0100
0010
0000
0100
2000
0000
0000
,  // measure 60
3100
0000
0001
0000
0010
0000
0001
0000
1000
0100
1000
0100
0010
0001
1000
0000
,  // measure 61
0010
0000
0010
0000
0100
0000
0020
0000
0000
0001
0000
0000
2030
0000
0000
0000
,  // measure 62
3001
0000
0001
0000
1000
0010
1000
0000
0010
0100
0010
0000
0100
0001
0010
0100
,  // measure 63
1000
0001
0010
0001
1000
0100
0010
0000
0001
0000
1000
0000
0020
0000
0000
0000
,  // measure 64
0100
0000
0000
0000
0000
0000
0000
0000
0000
0000
0000
0000
0000
0000
0000
0000
0000
0000
0000
0000
0000
0000
0000
0000
1000
0000
0000
0000
0000
0000
0000
0000
0000
0000
0000
0000
0000
0000
0000
0000
0000
0000
0000
0000
0000
0000
0000
0000
0100
0000
0000
0000
0000
0000
0000
0000
0000
0000
0000
0000
0000
0000
0000
0000
0000
0000
0000
0000
0000
0000
0000
0000
2030
0000
0000
0000
0000
0000
0000
0000
0000
0000
0000
0000
0000
0000
0000
0000
0000
0000
0000
0000
0000
0000
0000
0000
0001
0000
0000
0000
0000
0000
0000
0000
0000
0000
0000
0000
0000
0000
0000
0000
0000
0000
0000
0000
0000
0000
0000
0000
3001
0000
0000
0000
0000
0000
0000
0000
0000
0000
0000
0000
0000
0000
0000
0000
0000
0000
0000
0000
0000
0000
0000
0000
0010
0000
0000
0000
0000
0000
0000
0000
0000
0000
0000
0000
0000
0000
0000
0000
0000
0000
0000
0000
0000
0000
0000
0000
2002
3003
0000
0000
0000
0000
0000
0000
0000
0000
0000
0000
0000
0000
0000
0000
0000
0000
0000
0000
0000
0000
0000
0000
,  // measure 65
0010
0000
1000
1000
0001
0001
0010
0100
1000
0001
0010
0000
0000
0110
0000
0100
,  // measure 66
1000
0100
0001
0100
1000
0100
0110
0000
1001
0000
0110
0000
0000
0100
0001
0000
,  // measure 67
0100
0010
0100
1000
0100
0001
0010
0100
1000
0100
0010
0000
0000
0100
1000
0100
,  // measure 68
1000
0000
0000
0000
0001
0000
0000
0000
0100
0000
0000
0000
0010
0000
0000
0000
1000
0000
0000
0000
0010
0000
0000
0000
0200
0000
0000
0000
0310
0000
0000
0000
1000
0000
0001
0100
0001
0000
1000
0000
0100
0000
0000
0000
0000
0000
0000
0000
0110
0000
0000
0000
0000
0000
0000
0000
0000
0000
0000
0000
0000
0000
0000
0000
,  // measure 69
0100
0000
0000
0000
0000
0000
0000
0000
0000
0000
0000
0000
0000
0000
0000
0000
0000
0000
0000
0000
0000
0000
0000
0000
1000
0000
0000
0000
0000
0000
0000
0000
0000
0000
0000
0000
0000
0000
0000
0000
0000
0000
0000
0000
0000
0000
0000
0000
2002
3003
0000
0000
0000
0000
0000
0000
0000
0000
0000
0000
0000
0000
0000
0000
0000
0000
0000
0000
0000
0000
0000
0000
0001
0000
0000
0000
0000
0000
0000
0000
0000
0000
0000
0000
0100
0000
0000
0000
0000
0000
0000
0000
0000
0000
0000
0000
1000
0000
0000
0000
0000
0000
0000
0000
0000
0000
0000
0000
0100
0000
0000
0000
0000
0000
0000
0000
0000
0000
0000
0000
0001
0000
0000
0000
0000
0000
0000
0000
0000
0000
0000
0000
0100
0000
0000
0000
0000
0000
0000
0000
0000
0000
0000
0000
1000
0000
0000
0000
0000
0000
0000
0000
0000
0000
0000
0000
0100
0000
0000
0000
0000
0000
0000
0000
0000
0000
0000
0000
0002
0000
0000
0000
0000
0000
0000
0000
0000
0000
0000
0000
0000
0000
0000
0000
0000
0000
0000
0000
0000
0000
0000
0000
,  // measure 70
1000
1003
0020
0000
0130
0001
0010
1000
,  // measure 71
0010
0000
1000
0000
0001
0000
0100
0000
1000
0010
0100
0000
1000
0100
0001
0000
,  // measure 72
0010
0000
0100
1000
0100
1000
0001
0000
0000
0000
0120
0000
0000
0000
1030
0000
,  // measure 73
0001
0000
0100
0000
0001
0000
1000
0100
0001
0100
1000
0100
0001
0100
2000
0000
,  // measure 74
0001
0000
3001
0000
0100
0010
0100
0000
0001
1000
0001
0000
0010
0100
0010
0000
,  // measure 75
1000
0010
0001
1000
0010
0100
0001
0001
,  // measure 76
1000
0100
0020
0000
0000
0000
0031
0000
1000
0000
1000
0000
0001
0000
0020
0000
,  // measure 77
0000
1000
0000
0000
0032
0000
0000
0000
0103
0000
0010
0000
0200
0000
0000
0000
,  // measure 78
0310
0100
1000
0100
0001
0010
1000
1010
,  // measure 79
0000
0011
0000
0000
1100
0000
0000
0000
0100
0000
1000
0000
0001
0000
0100
0000
,  // measure 80
0010
0000
1000
0001
1000
0001
0010
0000
0001
0000
0001
0000
1000
0000
0020
0000
,  // measure 81
0000
0001
0000
0000
2030
0000
0000
0000
3100
0000
0010
0000
0200
0000
0000
0000
,  // measure 82
0310
0000
0001
0000
0100
0000
1000
0100
0001
0010
2000
0000
0000
0000
3010
0000
,  // measure 83
0001
1000
0010
0101
1010
1100
0011
1001
,  // measure 84
1000
0001
1000
0000
0100
0000
0001
0100
1000
0010
0002
0000
0000
0000
0013
0000
,  // measure 85
1000
0100
0010
0001
1000
0010
0100
1001
,  // measure 86
0100
0010
0100
0000
0000
0000
0000
0000
0000
0000
0000
0000
0000
0000
0000
0000
;
