#TITLE:キャットラビング;
#SUBTITLE:;
#ARTIST:香椎モイミ feat. 可不;
#TITLETRANSLIT:Cat Loving;
#SUBTITLETRANSLIT:;
#ARTISTTRANSLIT:Kashii Moimi feat. KAFU;
#GENRE:POP;
#CREDIT:;
#MUSIC:Cat Loving.ogg;
#BANNER:Cat Loving.png;
#BACKGROUND:Cat Loving-bg.png;
#CDTITLE:;
#SAMPLESTART:26.298;
#SAMPLELENGTH:12.147;
#SELECTABLE:YES;
#OFFSET:1.309;
#BPMS:0.000=163.000
,119.500=81.500
,121.500=163.000
,260.500=81.500
,261.000=163.000
,297.000=81.500
,299.000=163.000
;
#STOPS:119.500=0.184;
#LASTBEATHINT:0.839450;
#BGCHANGES:3.750=Cat Loving.avi=1.000=0=0=0=StretchNoLoop====,
99999.000=-nosongbg-=1.000=0=0=0=StretchNoLoop====
;
#FGCHANGES:;

//--------------- dance-single - ----------------
#NOTES:
     dance-single:
     :
     Hard:
     12:
     0,0,0,0,0:
0000
0000
0000
0000
,
0000
0000
0000
0000
,
0000
0000
0000
0000
,
0001
0010
0100
1000
0002
0000
1003
0000
,
1000
0010
0100
0001
2000
0000
3001
0000
,
0001
0100
0010
0000
1000
0100
0010
0000
,
0011
1100
0101
1001
,
1000
0100
0010
0001
2000
0000
3001
0000
,
0001
0100
0010
1000
0002
0000
1003
0000
,
1000
0010
0100
0000
0001
0010
0100
0000
,
1100
0011
1010
1001
,
0001
0100
0001
1000
0000
1000
0100
0010
,
0001
1000
0001
0100
0000
0010
0100
0001
,
1000
0100
1000
0001
0000
0010
0100
1000
,
1010
0101
0011
1100
,
1000
0100
0010
0100
0000
0001
0100
1000
,
0010
0100
0001
1000
0000
0010
1000
0100
,
0010
1000
0010
0001
0100
1000
0100
0001
,
0011
1100
1002
0013
,
0001
0100
1000
0100
0002
0000
0010
0000
,
1003
0010
0001
0010
2000
0000
3001
0000
,
0011
0000
1100
0000
1000
0100
0001
0200
,
0000
1300
0010
0100
0002
0000
2003
0000
,
3001
0010
1000
0010
0002
0000
0103
2000
,
0000
3100
0001
0010
2000
0000
3010
0000
,
0011
0000
1010
0000
0010
1000
0100
0020
,
0000
0130
1000
0001
0100
0000
1001
0000
,
1000
0100
0010
0100
1000
0010
0100
0001
,
1000
0100
0001
0100
1000
0000
1001
0000
,
0001
0000
0100
0000
0001
0000
1000
0000
0010
0000
0001
0000
0010
0000
2000
3001
,
0000
0010
0200
0000
0000
0000
1300
0000
0010
0000
0100
0000
0010
0000
0001
0000
,
0010
0100
0000
1000
0100
0010
0100
0001
,
0010
0100
0000
1000
0010
0100
0000
0100
,
0001
1000
0000
0001
0010
0100
0010
1000
,
0010
0001
0000
1000
0010
0100
0010
0001
,
1000
0100
0000
0001
0010
1000
0001
0100
,
0010
0001
0000
1000
0010
0001
0000
1000
,
0100
0001
0020
0000
0230
0000
1300
2000
,
0000
3001
0000
1001
0000
0110
0000
0001
,
1000
0010
0100
0110
0000
1001
0000
0001
,
0010
0100
1000
0001
0000
0001
0100
0010
,
0000
0010
0100
1000
0100
0001
0010
0100
,
0000
1100
0000
0011
0000
1000
0010
0200
,
0000
1000
0000
0301
0010
1000
0020
0000
,
0031
1000
0100
0002
0000
0103
1000
0020
,
0000
0130
0001
1000
0100
1000
0001
0200
,
0000
1000
0000
0310
1000
0001
0010
0000
,
0100
1000
0001
0100
0010
1000
0001
0000
,
0010
0001
1000
0100
0010
0100
1000
0000
,
0001
1000
0010
0101
0000
1010
0000
0011
,
0000
1100
0000
1000
0001
0010
0100
0000
,
1000
0010
0100
0001
1000
0010
0100
0000
,
0001
0100
0010
0100
1000
0100
0001
0010
,
0001
0100
0010
0110
0000
1001
0000
0110
,
0000
1001
0000
0001
0100
0001
0100
0020
,
0000
1030
0001
0000
0001
0010
0001
0200
,
0000
0000
0320
0000
0000
0000
1030
0000
0001
0000
0010
0000
0100
1000
0000
0100
,
1000
0001
0200
0000
0310
1000
0001
2000
,
0000
3002
0000
0013
0001
0010
0100
2000
,
0000
3001
0200
0000
0310
1000
0010
2000
,
0000
0000
3001
0000
0000
0000
1000
0000
0010
0000
0100
0000
0001
0100
0000
0001
,
0100
0010
2000
0000
3001
0010
0100
1000
,
0000
1001
0000
0001
0010
1000
0010
0001
,
0000
1001
1000
0010
1000
0010
0100
0002
,
0000
1003
0200
0000
0310
0001
0010
0100
,
0000
0000
2000
0000
3001
0000
0100
0000
0010
0000
0100
1000
0000
0000
0100
0000
,
0001
0010
0000
0100
1000
0001
0100
0000
,
0110
0000
0010
1000
0100
0001
0100
0000
,
0010
0001
0100
0010
1000
0010
0001
0000
,
0110
0000
0000
0000
0001
0000
1000
0100
1000
0000
0001
0100
0000
0000
0010
0000
,
1000
0001
0000
0010
0100
1000
0001
0000
,
0101
0000
0000
0000
0001
0000
0100
0000
1000
0000
0100
0010
0000
0000
1000
0000
,
0100
0010
0100
1000
0001
0010
2000
0000
,
3020
0000
0000
0000
0031
0000
0100
0000
1000
0000
0100
0001
0000
0000
0010
0000
,
0100
0010
0002
0023
0230
2300
3002
0103
,
0010
0100
1000
0100
0001
0010
0000
0100
,
0020
0032
1003
0000
;

//--------------- dance-single - ----------------
#NOTES:
     dance-single:
     :
     Challenge:
     16:
     0.73362,0.567528,0,0,0,598,598,0,0,0,0,0.73362,0.567528,0,0,0,598,598,0,0,0,0:
0000
0000
0000
0000
,
0000
0000
0000
0000
,
0000
0000
0000
0000
,
0001
0000
0100
0000
0010
0000
0100
0000
0001
0000
1000
0100
1000
0000
0010
0000
,
1000
0000
0100
0000
0010
0000
0100
0000
1000
0000
0001
0100
0001
0000
1000
0000
,
0010
0000
0100
0001
0010
0000
1000
0000
0001
0000
0100
1000
0010
0000
0100
0000
,
0001
0000
0001
0000
1000
0000
1000
0000
0001
0000
0010
0100
0010
0000
0100
0000
,
1100
0000
1000
0000
0100
0000
0010
0000
0100
0000
1000
0001
1000
0000
0001
0000
,
0100
0000
0001
0000
0010
0000
0100
0000
0010
0000
0001
1000
0001
0000
1000
0000
,
0010
0000
0100
0001
0010
0000
1000
0000
0001
0000
0100
1000
0010
0000
0100
0000
,
0001
0000
0001
0000
1000
0000
1000
0000
0010
0000
0100
0001
0100
0000
0010
1000
,
0010
0000
0110
0000
0000
0000
0101
0000
0000
0000
0010
0000
1000
0000
0001
0100
,
0001
0000
1001
0000
0000
0000
0001
0000
1000
0100
1000
0000
0001
0010
0001
0000
,
0011
0000
0011
0000
0000
0000
0110
0000
0000
0000
1000
0000
0010
0100
0010
0000
,
1010
0010
0110
0100
0101
0001
1001
1000
,
1100
0000
1100
0000
0000
0000
0011
0000
0000
0000
0001
0000
1000
0100
1000
0000
,
1010
0000
1010
0000
0000
0000
0101
0000
0100
0010
0100
0000
0001
1000
0001
0000
,
0011
0000
0011
0000
0000
0000
0110
0000
0000
0000
1000
0000
0001
0100
0010
0000
,
0110
0000
1000
0000
0110
0000
0001
0000
0110
0000
0000
0000
0001
0100
0001
0100
,
0010
0000
1000
0100
1000
0000
1000
0010
1000
0000
0100
0000
0010
0000
0001
0000
,
1000
0000
0001
0100
0001
0000
0001
0010
0001
0000
0010
0000
0100
0000
1000
0000
,
0001
0100
0010
0000
0001
0000
0010
0100
0000
0001
1000
0000
0100
0000
0020
0000
,
0000
0000
0130
1000
0001
0000
0100
0000
0010
1000
0010
1000
0001
0010
0100
1000
,
0001
0000
1000
0010
1000
0000
1000
0100
1000
0000
0010
0000
0100
0000
0001
0000
,
1000
0000
0001
0010
0001
0000
0001
0100
0001
0000
0010
0000
0100
0000
1000
0000
,
0001
0000
0100
1000
0001
0000
0020
0000
0000
0000
0130
0000
0001
0000
0020
0000
,
0000
0000
0130
0000
1000
0000
0001
0000
1000
0100
0010
0001
1000
0100
0010
0001
,
1000
0000
0100
0000
0010
0000
0100
1000
0000
0000
0010
0000
0100
0000
0001
0000
,
1000
0000
0100
0010
0100
0000
1000
0000
1100
0000
0000
0000
0011
0000
0000
0000
,
1000
0000
0010
0000
0001
0000
0010
0100
0000
0000
0001
0000
0010
0000
0200
1300
,
0000
0000
0001
0000
0010
0000
0000
0000
0100
1000
0100
0010
0001
0000
0000
0000
0010
0000
0000
0000
0100
0000
0000
0000
0010
0000
0000
0000
0001
0000
0000
0000
,
0010
0100
0010
0001
0100
0010
0100
1000
,
0100
0001
0010
0000
0100
0000
1000
0000
0010
0000
0100
0000
0010
0000
1000
0000
,
0010
0100
0010
1000
0100
0010
0100
0001
,
0100
1000
0001
0000
0100
0000
0110
0000
0010
0000
1000
0000
0010
0000
0001
0000
,
0010
0000
0100
0000
0010
0000
1000
0000
0100
0010
0001
0000
1000
0000
0010
0000
,
0100
0001
0010
0000
0100
0000
1000
0000
0100
0000
0001
0000
0100
0000
1000
0000
,
0010
0000
0000
0000
0100
0000
0001
0000
0020
0000
0000
0000
0000
0000
0000
0000
0130
1000
0100
1000
0200
0000
0000
0000
0010
0000
0000
0000
0320
0000
0000
0000
,
0000
0000
0130
1000
0001
0000
0100
0000
0100
0000
1000
0000
0100
0000
0001
0000
,
1000
0010
1000
0000
0010
0000
0100
0000
0001
0100
0010
0000
0100
0010
1000
0000
,
0001
0000
0100
0000
0100
0000
1000
0000
0100
0010
0100
0000
0001
0000
1000
0000
,
0100
0010
0100
0000
0001
0000
0100
0000
1000
0100
1000
0000
0001
0100
0001
0000
,
0100
0000
0010
0000
0100
0000
0110
0000
0000
0000
1000
0000
0010
0100
0010
0000
,
0100
0001
1000
0000
0100
0000
0010
0000
0100
0010
0100
0000
0010
0001
1000
0000
,
0010
0000
0010
0000
0100
0000
0001
0000
1000
0010
0100
0000
0010
0000
1000
0000
,
0001
0100
0010
0000
1000
0000
0001
0000
0100
0000
0100
0000
1000
0000
0100
0000
,
0001
0000
0010
0100
0010
0000
0100
0000
0110
0000
0000
0000
1100
0000
0000
0000
,
0001
0010
0100
0000
1000
0000
1010
0000
0110
0000
0000
0000
0010
0000
1000
0010
,
0100
0000
0001
0000
0010
0100
1000
0000
1010
0000
0000
0000
0110
0000
0000
0000
,
0001
0000
1000
0010
0100
0000
0001
0000
0010
0000
1000
0000
0001
0000
0100
1000
,
0010
1010
0000
1010
0101
0000
1001
0000
,
1000
0000
0100
0010
0001
0000
0101
0000
0110
0000
0000
0000
0010
0000
1000
0100
,
0010
0100
1000
1010
0110
0001
0110
1000
,
0001
0010
0100
0000
1000
0000
1010
0000
0010
0000
0110
0000
0100
0000
0101
0000
,
0000
1001
0001
0100
1000
0100
0001
2000
,
0010
3100
0001
1000
0100
0001
0100
2000
,
0001
0000
3200
0000
0010
0000
1300
0000
0001
0000
0010
0000
0100
2000
0000
0000
,
3010
0100
0020
1000
0031
0010
0100
0020
,
0001
2030
0000
3010
0001
0010
1000
0002
,
0010
0103
2000
0001
3010
1000
0010
0002
,
0100
0000
0013
0000
1000
0000
0001
0000
1000
0010
0100
0000
0100
0001
1000
0001
,
1000
0001
0010
0100
2000
0000
0000
0000
3001
0000
1000
0000
0001
0000
0100
0000
,
0010
0110
0000
0100
0010
0001
1000
0100
,
0010
0110
1000
0001
0010
0001
1000
0020
,
0000
0000
1030
0000
0200
0000
0000
0000
0310
0000
0100
0000
0010
0000
0001
0100
,
0001
0100
0020
0000
1030
0000
0010
0100
0010
0000
0010
1000
0010
0000
0100
0000
,
0001
0000
1000
0000
0100
0000
0001
0100
0010
0000
0100
1000
0010
0000
0100
0000
,
0001
0100
0001
0100
1000
0000
0100
0010
0100
0000
0100
0001
0100
0000
0001
0000
,
0010
0000
0100
1000
0001
0000
0010
0100
0010
0000
0010
0001
0010
0000
0100
0000
,
1000
0000
0010
0000
0100
0000
0001
0100
0010
0000
1000
0001
0000
0000
0001
0010
,
0100
0000
0100
0000
1000
0000
0001
0100
0001
0100
0010
1000
0001
0010
0100
0000
,
0001
0100
0010
0000
0011
0000
0100
0000
1000
0000
0001
0100
0000
0000
0100
0010
,
1000
0000
0010
0000
0100
0001
1000
0100
1000
0001
0010
0100
1000
0000
0001
0010
,
0100
0000
1000
0000
0010
0100
0010
0100
0001
1000
0001
1000
0100
0010
0100
1000
,
0001
0000
0000
0000
0000
0000
0000
0000
0000
0000
0000
0000
0100
0000
0000
0000
0000
0000
0000
0000
0000
0000
0000
0000
0010
0000
0000
0000
0000
0000
0000
0000
0000
0000
0000
0000
0000
0000
0000
0000
0000
0000
0000
0000
0000
0000
0000
0000
2020
3030
0000
0000
0000
0000
0000
0000
0000
0000
0000
0000
0000
0000
0000
0000
0000
0000
0000
0000
0000
0000
0000
0000
0202
0303
0000
0000
0000
0000
0000
0000
0000
0000
0000
0000
0000
0000
0000
0000
0000
0000
0000
0000
0000
0000
0000
0000
0022
0033
0000
0000
0000
0000
0000
0000
0000
0000
0000
0000
0000
0000
0000
0000
0000
0000
0000
0000
0000
0000
0000
0000
2200
3300
0000
0000
0000
0000
0000
0000
0000
0000
0000
0000
0000
0000
0000
0000
0000
0000
0000
0000
0000
0000
0000
0000
1002
0000
0000
0000
0000
0000
0000
0000
0000
0000
0000
0000
0000
0000
0000
0000
0000
0000
0000
0000
0000
0000
0000
0000
0103
0000
0000
0000
0000
0000
0000
0000
0000
0000
0000
0000
0001
0000
0000
0000
0000
0000
0000
0000
0000
0000
0000
0000
,
0010
0000
0100
1000
0010
0000
0100
0001
0010
0100
1000
0000
0000
0000
0010
0000
,
0110
1002
0103
0000
;
