#TITLE:無礼King;
#SUBTITLE:;
#ARTIST:ケタチガイ;
#TITLETRANSLIT:Burei King;
#SUBTITLETRANSLIT:;
#ARTISTTRANSLIT:Ketachigai;
#GENRE:POP;
#CREDIT:;
#MUSIC:Burei King.ogg;
#BANNER:Burei King.png;
#BACKGROUND:Burei King-bg.png;
#CDTITLE:;
#SAMPLESTART:52.391;
#SAMPLELENGTH:17.455;
#SELECTABLE:YES;
#OFFSET:2.154;
#BPMS:0.000=110.000
,100.000=55.000
,100.500=110.000
;
#STOPS:;
#LASTBEATHINT:2.064319;
#BGCHANGES:6.750=Burei King.avi=1.000=0=0=0=StretchNoLoop====,
99999.000=-nosongbg-=1.000=0=0=0=StretchNoLoop====
;
#FGCHANGES:;

//--------------- dance-single - ----------------
#NOTES:
     dance-single:
     :
     Hard:
     11:
     0,0,0,0,0:
0000
0000
0000
0000
,
0000
0000
0000
0000
,
0000
0000
0000
0000
,
0001
0100
0001
0010
0001
1000
0100
1000
,
0010
1000
0001
0010
0100
1000
0001
0000
,
1000
0100
1000
0010
1000
0001
0100
0010
,
0100
0001
0010
0100
1000
0010
0100
0001
,
0101
0000
0001
0100
1000
0000
0100
0000
,
0001
1000
0100
0001
0100
0000
1100
0000
,
1000
0010
0100
0000
0100
0010
1000
0000
,
0001
0010
0100
0010
0001
1000
0010
0100
,
0000
0001
0010
1000
0010
0000
0100
0000
,
1000
0001
1000
0100
0010
0000
0100
0000
,
1000
0001
1100
0000
0001
1000
0101
0000
,
0001
0010
1000
0010
0001
0100
1000
0100
,
0001
0001
0010
0010
,
0100
1000
0001
0010
0100
1000
0010
0000
,
0100
0100
0001
0001
,
1000
0000
0100
0000
0010
0000
0001
0000
1000
0000
0000
0010
0000
0000
0000
0000
,
0100
0001
0010
0000
0100
1000
0010
0000
,
0100
0001
1000
0100
0001
0000
0100
0000
,
1000
0000
1100
0000
0001
0010
0100
0000
,
1000
0010
0100
0001
2000
0000
0000
0000
,
0002
0000
0000
0000
3000
0000
0000
0000
1003
0000
0000
0010
0000
0000
0010
0000
,
0100
0100
0001
0001
,
2000
3000
0000
0000
0000
0000
0000
0000
0000
0000
0000
0000
0000
0000
0000
0000
0000
0000
0000
0000
0000
0000
0000
0000
0001
0000
0000
0000
0000
0000
0000
0000
0000
0000
0000
0000
0000
0000
0000
0000
0000
0000
0000
0000
0000
0000
0000
0000
0000
0000
0000
0000
0000
0000
0000
0000
0000
0000
0000
0000
0000
0000
0000
0000
0000
0000
0000
0000
0000
0000
0000
0000
0010
0000
0000
0000
0000
0000
0000
0000
0000
0000
0000
0000
0000
0000
0000
0000
0000
0000
0000
0000
0000
0000
0000
0000
0000
0000
0000
0000
0000
0000
0000
0000
0000
0000
0000
0000
0010
0000
0000
0000
0000
0000
0000
0000
0000
0000
0000
0000
0000
0000
0000
0000
0000
0000
0000
0000
0000
0000
0000
0000
0000
0000
0000
0000
0000
0000
0000
0000
0000
0000
0000
0000
0100
0000
0000
0000
0000
0000
0000
0000
0000
0000
0000
0000
0000
0000
0000
0000
0000
0000
0000
0000
0000
0000
0000
0000
1000
0000
0000
0000
0000
0000
0000
0000
0000
0000
0000
0000
0000
0000
0000
0000
0000
0000
0000
0000
0000
0000
0000
0000
,
0000
1000
0000
0000
0001
0000
0100
0000
0000
0000
0100
0000
0010
0000
0100
0000
,
0001
0000
0010
0000
0100
0000
0000
0100
0000
0000
1000
0000
0001
0000
1000
0000
,
0000
0000
0010
0000
0000
0000
0010
0000
0000
0100
0000
0000
0010
0000
0100
0000
,
0001
1001
0000
1000
0010
0110
0000
0100
,
0001
0011
0000
0010
0100
1100
0000
0001
,
0000
1000
0000
0010
0100
0010
0000
0100
,
0001
0000
0010
0000
0000
0010
0000
0000
0100
0000
0000
0000
0100
0000
1000
0000
,
1100
0000
0101
0000
0001
1000
0000
0010
0000
0010
0000
0100
0001
0000
0001
0000
,
0010
0000
1000
0000
0010
0001
0000
0001
0000
1000
0000
0010
0100
0000
0010
0000
,
0100
0000
0001
1000
0000
0010
0000
0010
0100
0000
0001
0000
1000
0000
0010
0000
,
0100
0000
0001
0000
1000
0100
0000
1000
0100
0000
0010
0000
0001
0000
1000
0000
,
0010
0001
0010
0100
0100
0001
0010
0100
,
0100
1000
1000
0001
0100
1000
0100
0001
,
0000
0001
0000
0010
0100
0000
1000
0000
0000
1000
0000
0010
0100
0000
0001
0000
,
0000
1000
0000
0000
0001
0000
0000
1000
0000
0000
0010
0000
0100
0000
0000
0000
;

//--------------- dance-single - ----------------
#NOTES:
     dance-single:
     :
     Challenge:
     16:
     0.534502,0.958693,0.011169,0,0.189868,335,334,1,0,0,0,0.534502,0.958693,0.011169,0,0.189868,335,334,1,0,0,0:
0000
0000
0000
0000
,
0000
0000
0000
0000
,
0000
0000
0000
0000
,
0101
0000
0000
0001
0000
0000
1000
0100
0010
0100
1000
0001
0010
0000
0000
0100
0000
0000
1000
0000
0000
0010
0000
0000
,
0110
0000
0000
0100
0000
0000
0001
0000
0000
1000
0000
0001
0010
0000
0000
0100
0000
0000
1000
0000
0010
0100
0000
0100
,
0001
0000
0000
0010
0000
0000
0100
0000
1000
0001
0000
0000
0100
0000
0000
1000
0000
0000
0100
0000
0010
1000
0000
1000
,
0001
0000
0000
0010
0000
0000
1000
0000
0000
0010
0000
0000
0001
0000
0000
0011
0000
0000
0110
0000
0000
1100
0000
1000
,
0010
0000
0000
0100
0000
0001
1000
0000
1000
0010
0000
0100
0001
0000
0000
1000
0001
0010
0100
0000
1000
0001
0000
0000
,
1000
0001
0100
0001
1000
0010
0100
0001
0100
0010
0100
0001
1000
0100
1000
0010
0100
0010
1000
0001
1000
0010
0000
0000
,
0110
0000
0000
1000
0010
0100
0001
0000
0001
0010
0000
0000
0100
1000
0100
0010
0100
1000
0001
0000
0001
0100
0000
0000
,
0010
0100
1000
0100
0001
0000
0010
0100
0001
0100
1000
0000
0010
0000
0100
0001
0010
0100
1000
0000
0010
0100
0000
0000
,
0110
0000
0000
0000
0000
0000
0100
0000
0000
0000
0001
0000
1000
0000
0000
0000
1000
0000
0100
0000
0010
0000
0000
0000
0100
0000
0000
0000
0000
0000
0100
0000
0000
1000
0000
0000
0010
0000
0000
1000
0000
0000
0001
0000
0000
0000
0100
0000
,
0010
0000
0000
0000
0100
0000
0001
0000
1000
0000
0001
0000
0010
0000
0000
0000
0100
0000
0010
0000
0000
0000
0000
0000
0010
0000
0000
0001
0000
0000
1000
0000
0000
0000
0000
0000
0010
0000
0000
0000
0100
0000
0001
0000
0000
0000
0001
0000
,
0010
0000
0010
0100
0000
1000
0000
0000
1001
0000
0000
0001
0100
0010
0100
0001
0000
0010
0000
0000
0000
1100
0000
0000
,
1000
0000
0000
0100
0000
0000
0001
0000
0000
0100
0000
0000
1000
0000
0000
0010
0000
0000
0001
0000
0000
0010
0000
0000
0100
0000
0000
0000
0100
0000
0001
0000
0000
0000
0001
0000
0010
0000
0000
0000
0010
0000
0100
0000
0000
0000
0000
0000
,
1100
0000
0000
0000
0000
0000
0000
0000
0010
0000
0000
0000
0100
0000
0000
0000
0000
0000
0000
0000
0000
0000
0000
0000
0101
0000
0000
0000
0000
0000
0000
0000
0010
0000
0000
0000
0100
0000
0000
0000
0000
0000
0000
0000
0000
0000
0000
0000
1000
0000
0000
0000
0000
0000
0000
0000
1000
0000
0000
0000
0000
0000
0000
0000
0000
0000
0010
0000
0000
0000
0000
0000
0000
0000
0000
0000
0000
0000
0000
0000
0100
0000
0000
0000
0001
0000
0000
0010
0000
0000
0001
0000
0000
0010
0000
0000
,
0100
0000
0000
0000
0000
0000
0000
0000
1000
0000
0000
0000
0001
0000
0000
0000
0000
0000
0000
0000
0000
0000
0000
0000
1001
0000
0000
0000
0000
0000
0000
0000
0010
0000
0000
0000
0100
0000
0000
0000
0000
0000
0000
0000
0000
0000
0000
0000
0001
0000
0000
0000
0000
0000
0000
0000
0000
0000
0000
0000
1000
0000
0000
0000
0000
0000
0000
0000
1000
0000
0000
0000
0000
0000
0000
0000
0000
0000
0000
0000
0001
0000
0000
0000
1000
0000
0000
0010
0000
0000
1000
0000
0000
0010
0000
0000
,
0100
0000
0000
0000
0000
0000
0000
0000
0100
0000
0000
0000
0001
0000
0000
0000
0000
0000
0000
0000
0001
0000
0000
0000
0010
0000
0000
0000
0000
0000
0000
0000
0010
0000
0000
0000
1000
0000
0000
0000
0000
0000
0000
0000
1000
0000
0000
0000
0001
0000
0000
0000
0000
0000
0000
0000
0100
0000
0000
0000
0000
0000
0000
0000
0000
0000
0000
0000
0100
0000
0000
0000
0000
0000
0000
0000
0000
0000
0000
0000
1000
0000
0000
0000
0010
0000
0000
0100
0000
0000
0010
0000
0000
0200
0000
0000
,
0001
0000
0000
1000
0000
0000
0001
0000
0000
0310
0000
0000
0110
0000
0000
1000
0000
0001
0000
0000
0000
0010
0000
0100
,
1000
0000
0000
0000
0000
0000
0000
0000
1000
0000
0000
0000
0010
0000
0000
0000
0000
0000
0000
0000
0010
0000
0000
0000
0001
0000
0000
0000
0000
0000
0000
0000
1000
0000
0000
0000
0100
0000
0000
0000
0000
0000
0000
0000
0100
0000
0000
0000
0001
0000
0000
0000
0000
0000
0000
0000
0001
0000
0000
0000
0000
0000
0000
0000
0000
0000
0000
0000
0010
0000
0000
0000
0000
0000
0000
0000
0000
0000
0000
0000
0100
0000
0000
0000
1000
0000
0000
0001
0000
0000
1000
0000
0000
0001
0000
0000
,
0100
0000
0000
0000
0110
0000
0000
0000
0010
0000
1000
0000
0001
0000
0100
0000
1000
0000
0000
0000
0100
0000
0001
0000
0000
0000
0000
0000
0001
0010
0100
1000
,
0010
0000
0000
0000
0000
0000
0100
0000
0000
0000
0000
0000
0010
0000
0000
0000
0000
0000
0100
0000
0000
0000
0000
0000
0100
0000
0000
0000
0001
0000
0000
0000
0000
0001
0000
0000
0000
0000
0000
0000
0011
0000
0000
0000
0000
0000
0010
0000
,
0100
0000
0100
0000
1000
0000
0001
0202
0000
0000
0000
0000
0300
0000
0000
0000
,
0013
0000
0000
0000
0010
0000
0000
0000
0100
1000
0001
0000
0100
0000
0010
0000
0100
0000
0000
0000
0000
0000
0001
0000
0000
0000
0000
0000
1000
0000
0000
0000
,
0010
0000
0100
0000
0100
0000
0010
0000
0100
0000
0100
0000
0010
0100
0100
0010
0100
0100
0010
0000
0000
0100
0000
0000
,
0220
0330
0000
0000
0000
0000
0000
0000
0000
0000
0000
0000
0000
0000
0000
0000
0000
0000
0000
0000
0000
0000
0000
0000
1001
0000
0000
0000
0000
0000
0000
0000
0000
0000
0000
0000
0000
0000
0000
0000
0000
0000
0000
0000
0000
0000
0000
0000
0001
0000
0000
0000
0000
0000
0000
0000
0000
0000
0000
0000
0000
0000
0000
0000
0000
0000
0000
0000
0000
0000
0000
0000
0010
0000
0000
0000
0000
0000
0000
0000
0000
0000
0000
0000
0000
0000
0000
0000
0100
0000
0000
0000
0000
0000
0000
0000
0000
0000
0000
0000
0000
0000
0000
0000
0000
0000
0000
0000
0100
0000
0000
0000
0000
0000
0000
0000
0000
0000
0000
0000
0000
0000
0000
0000
0000
0000
0000
0000
0000
0000
0000
0000
0000
0000
0000
0000
1000
0000
0000
0000
0000
0000
0000
0000
0010
0000
0000
0000
0000
0000
0000
0000
0000
0000
0000
0000
0000
0000
0000
0000
0000
0000
0000
0000
0000
0000
0000
0000
0110
0000
0000
0000
0000
0000
0000
0000
0000
0000
0000
0000
0000
0000
0000
0000
0001
0000
0000
0000
0000
0000
0000
0000
,
0000
0000
0001
0000
0000
0010
0000
0000
0100
0010
0000
0000
0011
0000
0000
0110
0000
0000
1100
0000
1000
0001
0000
0001
,
0100
0000
0010
0000
0010
1000
0000
0001
0010
0000
0010
0000
0100
1000
0010
0000
,
0100
0000
0000
0000
0001
0000
1000
0000
0000
0000
0000
0000
0100
0000
0000
0000
0000
0000
1100
0000
0000
0000
0000
0000
0001
0000
0000
0010
0000
0000
0000
0000
0000
0001
0000
0000
1000
0000
0000
0000
0000
0000
0001
0000
0000
0010
0000
0000
,
0100
1100
0000
0011
0000
0000
1000
0010
0100
0101
0000
1010
0000
0000
0001
0010
,
0100
0000
0000
0000
0000
0000
0000
0000
0000
0000
0000
0000
0110
0000
0000
0000
0000
0000
0000
0000
0000
0000
0000
0000
0000
0000
0000
0000
0000
0000
0000
0000
0000
0000
0000
0000
1001
0000
0000
0000
0000
0000
0000
0000
0000
0000
0000
0000
0000
0000
0000
0000
0000
0000
0000
0000
0000
0000
0000
0000
0000
0000
0000
0000
0000
0000
0000
0000
0000
0000
0000
0000
1000
0000
0000
0000
0000
0000
0000
0000
0000
0000
0000
0000
0000
0000
0000
0000
0010
0000
0000
0000
0000
0000
0000
0000
0000
0000
0000
0000
0000
0000
0000
0000
0000
0000
0100
0000
0000
0000
0000
0000
0000
0000
0000
0010
0000
0000
0000
0000
0000
0000
0000
0000
0000
0000
0000
0000
0000
0000
0000
0000
0110
0000
0000
0000
0000
0000
0000
0000
0000
0000
0000
0000
0000
0000
0000
0000
0000
0000
0000
0000
0000
0000
0000
0000
0100
0000
0000
0000
0000
0000
0000
0000
0000
0000
0000
0000
0001
0000
0000
0000
0000
0000
0000
0000
0000
0000
0000
0000
0000
0000
0000
0000
0010
0000
0000
0000
0000
0000
0000
0000
,
0000
0000
0000
0100
0000
0000
1000
0000
0000
0000
0010
0000
0000
0000
0100
0000
0000
0000
0001
0000
0000
0000
0000
0000
0001
0000
0000
1000
0000
0000
0000
0000
0000
1000
0000
0000
0010
0000
0000
0000
0000
0000
0110
0000
0000
0000
0100
0000
,
0001
0000
0000
0000
0000
0000
0011
0000
0000
0000
0000
0000
1000
0000
0000
1100
0000
0000
0000
0000
0000
0000
0000
0000
1001
0000
0000
0000
0001
0000
0100
0000
0000
0000
0100
0000
0010
0000
0000
0000
0000
0000
1000
0000
0000
0000
0000
0000
,
1010
0000
0000
0000
0000
0000
0101
0000
0000
0000
0000
0000
0001
0000
0000
0010
0000
0000
0000
0000
0000
0110
0000
0000
0000
0000
0000
0110
0000
0000
0000
0000
0000
0100
0000
0000
1000
0000
0000
0010
0000
0000
0001
0000
0000
0000
0010
0000
,
0100
0000
0001
0010
0000
1000
0010
0000
0110
0000
0000
0110
0000
0000
0100
1000
0000
1000
0001
0000
0001
0100
0000
0000
,
1010
0000
1000
0001
0000
0011
0000
0010
0100
0010
0001
0010
1000
0000
1000
0010
,
0001
0000
0100
0000
1000
0000
0100
0000
0010
0000
1000
0000
0000
0000
1000
0000
0010
0000
0100
0000
0001
0000
0010
0000
0100
0000
0000
0000
1000
0000
0001
0100
,
0001
0000
0000
0000
0000
0000
0010
0000
0000
0000
0000
0000
0100
0000
0000
0000
1000
0000
0000
0000
0010
0000
0000
0000
0100
0000
0000
0000
0010
0000
0000
0000
0000
0000
0000
0000
0100
0000
0000
0000
0000
0000
0001
0000
0000
1000
0000
0000
0100
0000
0000
0000
0000
0000
0010
0000
0000
0000
0000
0000
0100
0000
0000
0000
0000
0000
1000
0000
0000
0000
0000
0000
0001
0000
0000
0000
0000
0000
0100
0000
0000
0010
0000
0000
0100
0000
0000
0000
0000
0000
0001
0000
0000
1000
0000
0000
,
0001
0000
0010
0100
0010
0000
0001
1000
0001
0000
0100
0000
0010
1000
0100
0010
0001
0000
1000
0010
0100
0000
0001
0010
0100
0000
0000
0000
1100
0000
0000
0000
,
1000
0000
0010
0000
0000
0000
1000
0000
0001
0000
0000
0000
0011
0000
0000
0000
0001
0010
0100
0000
0000
0000
1000
0000
0001
0000
0000
0000
1001
0000
0000
0000
,
1000
0100
0000
0001
0100
0000
1000
0010
0000
0001
0010
0000
0110
0000
0000
0000
;
