#TITLE:ブリにゃんモードはピピピのピ♡;
#SUBTITLE:;
#ARTIST:ホワイトブリニャン;
#TITLETRANSLIT:Brinyan's Mode ha Pi Pi Pi no Pi;
#SUBTITLETRANSLIT:;
#ARTISTTRANSLIT:white Brinyan;
#GENRE:POP;
#CREDIT:;
#MUSIC:Brinyan's Mode ha Pi Pi Pi no Pi.ogg;
#BANNER:Brinyan's Mode ha Pi Pi Pi no Pi.png;
#BACKGROUND:Brinyan's Mode ha Pi Pi Pi no Pi-bg.png;
#CDTITLE:;
#SAMPLESTART:66.608;
#SAMPLELENGTH:12.387;
#SELECTABLE:YES;
#OFFSET:1.525;
#BPMS:0.000=155.000
,44.000=77.500
,46.000=155.000
;
#STOPS:;
#LASTBEATHINT:1.309698;
#BGCHANGES:5.000=Brinyan's Mode ha Pi Pi Pi no Pi.avi=1.000=0=0=0=StretchNoLoop====,
99999.000=-nosongbg-=1.000=0=0=0=StretchNoLoop====
;
#FGCHANGES:;

//--------------- dance-single - ----------------
#NOTES:
     dance-single:
     :
     Medium:
     12:
     0,0,0,0,0:
0000
0000
0000
0000
,
0000
0000
0000
0000
,
0000
0000
0000
0000
,
0000
0000
0000
0000
,
1000
0000
0000
0001
0000
0000
0010
0000
0000
0000
0100
0000
1000
0000
0001
0000
,
0100
0000
0000
0010
0000
0000
1000
0000
0000
0000
0001
0000
0010
0000
0100
0000
,
1000
0000
0000
0001
0000
0000
0100
0000
0000
0000
0010
0000
1000
0000
0001
0000
,
1000
0000
0000
0010
0000
0000
0100
0000
0001
0000
0010
0000
0100
0000
1000
0000
,
0001
0100
0001
1000
0001
0010
0100
1000
,
1100
1001
0101
0001
,
1000
0100
1000
0001
0100
0001
1000
0010
,
0200
0300
0000
0000
0000
0000
0000
0000
0000
0000
0000
0000
0000
0000
0000
0000
0000
0000
0000
0000
0000
0000
0000
0000
0000
0000
0000
0000
0000
0000
0000
0000
0000
0000
0000
0000
0000
0000
0000
0000
0000
0000
0000
0000
0000
0000
0000
0000
0000
0000
0000
0000
0000
0000
0000
0000
0000
0000
0000
0000
0000
0000
0000
0000
0000
0000
0000
0000
0000
0000
0000
0000
0000
0000
0000
0000
0000
0000
0000
0000
0000
0000
0000
0000
0000
0000
0000
0000
0000
0000
0000
0000
0000
0000
0000
0000
0001
0000
0000
0000
0000
0000
0000
0000
0000
0000
0000
0000
0000
0000
0000
0000
0000
0000
0000
0000
0000
0000
0000
0000
0100
0000
0000
0000
0000
0000
0000
0000
0000
0000
0000
0000
0000
0000
0000
0000
0000
0000
0000
0000
0000
0000
0000
0000
0001
0000
0000
0000
0000
0000
0000
0000
0000
0000
0000
0000
0000
0000
0000
0000
0000
0000
0000
0000
0000
0000
0000
0000
0000
0000
0000
0000
0000
0000
0000
0000
0000
0000
0000
0000
0000
0000
0000
0000
0000
0000
0000
0000
0000
0000
0000
0000
,
1000
0100
1000
0000
0001
0010
0100
1000
,
0010
0100
0010
0000
1000
0100
1000
0000
,
0001
0100
0001
0000
1000
0001
1000
0010
,
0100
0001
1000
0000
0001
0010
0001
0000
,
1000
0010
1000
0000
0001
0010
0100
0010
,
0001
1000
0001
0000
0010
0100
0010
0000
,
0100
0000
0010
0000
0100
0000
0000
0000
1000
0000
1000
0000
1000
0000
0001
0100
,
0000
0000
0000
0000
0010
1000
0001
1000
,
0100
0000
0010
0001
1000
0010
0000
0010
,
0000
0100
0001
1000
0000
0001
0010
0100
,
1000
0000
0001
2000
0000
3002
0023
0230
,
2300
0000
3001
2000
0000
3010
0100
0010
,
0100
0000
0001
0010
1000
0010
0000
0100
,
0000
1000
0001
0100
0000
0010
1000
0001
,
0000
0010
0100
1000
0001
0100
0001
0100
,
0010
1000
0010
1000
0001
0010
0100
0000
,
1000
0010
0100
0000
0001
0100
1000
0100
,
0001
0010
0100
0000
1000
0010
0100
0000
,
0001
0010
0100
0000
1000
0100
0001
0100
,
1000
0010
0100
0000
0001
0100
1000
0000
,
1000
0100
0001
0000
0001
0010
0100
1000
,
0001
0100
1000
0000
0100
0001
0010
0000
,
0100
0000
1000
0000
0010
0000
0000
0000
0100
0000
0100
0000
0100
0000
0001
1000
,
0000
0000
0000
0000
0001
0010
0100
0010
,
0001
0000
1000
0000
1000
0010
0100
0010
,
1000
0000
0001
0000
0010
0100
0010
0000
,
0100
1000
0100
0000
1000
0001
0101
0000
,
1010
0000
1000
0000
0001
0100
1001
0000
,
0100
0001
0110
2000
0000
3001
0010
0100
,
1000
0001
0100
1000
0001
0010
1000
0100
,
0010
0000
0010
0001
0000
1000
0001
1000
,
0001
0000
0010
0000
0100
1000
0100
1000
,
0001
0100
0000
0100
0000
0000
0010
0000
1000
0000
0001
0000
0010
0000
0100
0000
,
1000
0001
0000
0101
0000
0000
0000
0000
0001
0000
0010
0000
0100
0000
1000
0000
,
0001
0000
0000
1000
0000
0000
0001
0000
0100
0000
0101
0000
0000
0000
1100
0000
,
0000
0101
0000
1100
1000
0100
0001
0100
,
1000
0001
0000
0001
0000
0000
0100
0000
0010
0000
0100
0000
0001
0000
1000
0000
,
0010
1000
0000
1100
0000
0000
0000
0000
0001
0000
0000
0000
1000
0000
0000
0001
,
0000
0000
1000
0000
0001
0000
0100
0000
0110
0000
0000
0110
0000
0000
0110
0000
,
1001
0000
1000
0000
0001
0100
0001
0100
,
0001
0010
0000
0010
0000
0000
0100
0000
1000
0000
0001
0000
0100
0000
0001
0000
,
1000
0100
0000
1100
0000
0000
0000
0000
1000
0000
0001
0000
1000
0000
0010
0000
,
0001
0000
0000
0010
0000
0000
1000
0000
0100
0000
1100
0000
0000
0000
0101
0000
,
0000
1100
0000
0101
0002
0000
0023
0000
,
0230
0000
0000
0000
2300
0000
0000
0000
3002
0000
0000
0100
0000
0000
1000
0000
,
1003
0000
0010
0100
0010
0000
1001
0100
,
0010
0000
0110
0001
2000
0000
3200
0000
,
0320
0032
2000
3003
,
0000
0000
0000
0000
1000
0001
0010
0000
,
0100
1000
0001
0000
0100
0010
0100
0001
,
1000
0001
0010
0000
0100
1000
0010
0000
,
0100
0000
0001
0000
0010
0000
0000
0100
0000
0000
0010
0001
1000
0001
1000
0000
,
0010
0100
0001
0000
1000
0010
0100
0000
,
0001
0000
0010
0000
0100
0000
0000
0100
0000
1000
0001
1000
0010
0000
0100
0000
,
0001
1000
0100
0000
0010
0001
0100
0000
,
0010
1000
0100
0000
2000
3002
2003
3002
,
0203
0320
2030
0000
3001
0100
1000
0000
,
1000
0000
0100
0000
0001
0000
0000
0000
0001
0000
0010
0000
0100
2000
0000
0000
,
3001
0010
0100
0000
1000
0100
0001
0000
,
0001
0000
0100
0000
1000
0000
0001
0100
0000
0010
0000
0000
0100
0001
0000
0000
,
1000
0100
0010
0000
0001
0010
1000
0000
,
1000
0000
0010
0000
0001
0000
0000
0000
1000
0010
0000
0100
0000
0010
0000
0100
,
0001
0010
0100
0000
1000
0010
0001
0000
,
0001
0000
0010
0000
1000
0000
0000
0000
0100
0000
0100
0000
0100
0000
1000
0001
,
0000
0000
0000
0000
0100
0000
0000
0000
0010
0000
0010
0000
0010
0000
1000
0001
,
0000
2002
0000
0000
,
3003
0000
0000
0000
;

//--------------- dance-single - ----------------
#NOTES:
     dance-single:
     :
     Hard:
     15:
     0,0,0,0,0:
0000
0000
0000
0000
,
0000
0000
0000
0000
,
0000
0000
0000
0000
,
0000
0000
0000
0000
,
2000
0000
0000
3002
0000
0000
0203
0000
0000
0000
0310
0000
1000
0000
0001
0000
,
0010
0000
0100
1000
0000
0010
0100
0000
0010
0000
1000
0000
0001
0000
0100
0000
,
0002
0000
0000
2003
0000
0000
3200
0000
0000
0000
0310
0000
0001
0000
1000
0000
,
0001
0000
0100
0010
0000
1000
0001
0000
0010
0000
0100
0000
1000
0000
0001
0000
,
1000
0000
0010
0000
0100
0000
0010
0000
1000
0001
1000
0001
0010
0000
0100
0000
,
1100
0000
0011
0010
0200
0000
1300
0000
,
0100
1000
0100
1000
0001
0100
0001
0100
0010
0000
1000
0000
0001
0000
0010
0000
,
0200
0300
0000
0000
0000
0000
0000
0000
0000
0000
0000
0000
0000
0000
0000
0000
0000
0000
1000
0000
0000
0000
0000
0000
0000
0000
0000
0000
0000
0000
0000
0000
0000
0000
0000
0000
0001
0000
0000
0000
0000
0000
0000
0000
0000
0000
0000
0000
0100
0000
0000
0000
0000
0000
0000
0000
0000
0000
0000
0000
0010
0000
0000
0000
0000
0000
0000
0000
0000
0000
0000
0000
0100
0000
0000
0000
0000
0000
0000
0000
0000
0000
0000
0000
0010
0000
0000
0000
0000
0000
0000
0000
0000
0000
0000
0000
1000
0000
0000
0000
0000
0000
0000
0000
0000
0000
0000
0000
0000
0000
0000
0000
0000
0000
0000
0000
0000
0000
0000
0000
0100
0000
0000
0000
0000
0000
0000
0000
0000
0000
0000
0000
0000
0000
0000
0000
0000
0000
0000
0000
0000
0000
0000
0000
1100
0000
0000
0000
0000
0000
0000
0000
0000
0000
0000
0000
0000
0000
0000
0000
0000
0000
0000
0000
0000
0000
0000
0000
0000
0000
0000
0000
0000
0000
0000
0000
0000
0000
0000
0000
0000
0000
0000
0000
0000
0000
0000
0000
0000
0000
0000
0000
,
0001
0000
0100
0000
0101
0000
0000
0000
0001
0000
1000
0100
1000
0000
0010
0000
,
0100
0001
1001
0000
1000
0010
1010
0000
,
0001
0000
0010
0000
0011
0000
0000
0000
0001
0000
0010
0100
0010
0000
0001
0000
,
1000
0010
0110
0000
1000
0001
0011
0000
,
0001
0000
1000
0000
1010
0000
0000
0000
0010
0000
0100
0001
1000
0000
0001
0000
,
0010
0100
0110
0000
1000
0001
1001
0000
,
0100
0000
0010
0000
0110
0000
0000
0000
1000
0000
1000
0000
1000
0000
0001
0100
,
0000
0000
0000
0000
0001
0010
0001
0010
0100
0000
1000
0000
0100
0000
0001
0000
,
0200
0000
1300
0010
0100
0002
0000
0023
,
0000
0130
1000
0001
0000
0001
0100
1000
,
0100
0000
0000
0000
0100
0000
0001
0000
1000
0100
1000
0000
0001
0000
0100
0010
,
0100
0000
0001
0000
0010
0000
0100
1000
0001
0000
1000
0000
0001
0000
0010
0000
,
0100
0000
0100
1000
0001
2000
0000
3002
,
0000
1003
0010
0101
0000
0001
0010
1100
,
0000
0000
0001
0000
0010
0000
1000
0000
0010
0000
0001
0000
1000
0000
0100
0010
,
0100
0000
1000
0001
1000
0000
0010
0000
0100
0001
0000
0100
0010
0000
1000
0100
,
0000
0010
0100
0000
1000
0000
0001
0000
1000
0010
0000
0100
0010
0000
0100
0001
,
0000
0010
0100
0000
1000
0000
0010
0000
0100
0001
0000
0010
0100
0000
0010
0001
,
0000
1000
0010
0000
0100
0000
0001
0000
1000
0100
0000
1000
0001
0000
1000
0010
,
0000
0100
0010
0000
1000
0000
0001
0000
1000
0100
0000
0100
0001
0000
1000
0010
,
0000
0010
0001
0000
1000
0000
1000
0000
0001
0100
0000
0100
1000
0000
0001
0010
,
0000
0010
1000
0000
0001
0000
0001
0000
1000
0100
0000
0100
0001
0000
0001
0010
,
0000
0010
1000
0000
0010
0000
0100
0000
0001
0000
0001
0000
0001
0000
1000
0010
,
0000
0100
0001
0100
0001
1000
0100
0010
0001
0000
0010
0000
1000
0000
0010
0000
,
0100
1000
0100
1000
0001
0000
1000
0000
0001
0000
0100
0000
1000
0000
0100
0000
,
0010
1000
0010
1000
0001
0000
0010
0000
0100
0000
0010
1000
0010
0000
0001
0000
,
1000
0000
0010
0001
0010
0000
1000
0000
0100
0000
0010
0001
1000
0000
0010
0100
,
0010
0000
0100
0001
1000
0000
0001
0000
1000
0100
0010
0000
0110
0000
0000
0000
,
0001
0100
0010
0000
0110
0000
0200
0000
0000
0000
0301
0000
1000
0000
0001
0000
,
0010
0000
0200
0000
2300
0000
3001
0000
0100
0000
0010
1000
0001
0000
0010
0000
,
0100
1100
0000
0110
0000
1000
0001
1000
,
0101
0001
1000
0010
1100
0001
1100
0001
,
1000
0010
0000
0110
0000
0000
0100
0001
0010
0000
0100
0000
1000
0000
0001
0000
,
1000
0010
0000
0110
0000
0000
0100
0000
0001
0000
0001
0000
0010
0000
0100
0000
,
1200
0000
0000
0010
0000
0000
1300
0000
0001
0000
0101
0000
1000
0000
1100
0000
,
0001
0000
0101
0000
1000
0000
1100
0000
0001
0000
1000
0010
0100
0000
0100
0010
,
1000
0001
0000
1001
0000
0000
1000
0000
0001
0000
0100
0010
0100
0000
0010
0100
,
0010
1000
0000
1001
0000
0001
0010
0000
0011
0000
0000
0000
1100
0000
0000
0011
,
0000
0000
1100
0000
0100
0000
1000
0000
1100
0000
0000
0101
0000
0000
0110
0000
,
1001
0000
1000
0000
0001
0100
0001
0100
0010
0000
1100
0000
0001
0000
1100
0000
,
0001
0010
0000
0110
0000
0000
0010
0001
1000
0000
0001
0000
0100
0000
1000
0000
,
0100
0001
0000
0101
0000
0000
0001
0000
1000
0000
0001
0000
0010
0000
0100
1000
,
0001
0000
0100
0010
0000
0010
1000
0001
0010
0000
1001
0000
0100
0000
1001
0000
,
0010
0000
1001
0000
0100
0000
1001
0000
2000
0000
0100
0000
0002
3000
0000
0000
,
0203
0000
0010
0000
0002
0300
0000
0000
0023
0000
0000
0100
0000
0000
0001
0000
,
0130
0000
0010
0000
0110
0000
0001
1000
0200
0000
0301
0000
1100
0000
1000
0001
,
0200
0000
1300
0000
0101
0000
0100
0001
2000
0000
0010
0000
3002
0000
0100
0000
,
2003
0010
3002
0000
2000
0000
3003
0000
,
0001
0010
0100
1000
0001
0010
0100
1000
0001
0000
0101
0000
1100
0000
0000
0000
,
1000
0000
1100
0000
0101
0000
0000
0000
1001
0000
1000
0010
0001
0000
0010
0000
,
0100
0110
1001
0000
0001
1100
0101
0000
,
1000
0000
0101
0000
1100
0000
0000
0000
0001
0010
0100
0000
0001
0100
0010
0000
,
0001
1001
0110
0000
0110
0001
0110
0000
,
0110
0000
1000
0000
0110
0000
0000
0000
1001
0000
0001
0100
1000
0100
0001
0000
,
1001
0100
1001
0000
1100
0101
1100
0000
,
0101
1100
0101
0000
0002
2003
3002
2003
,
3020
0000
0230
0000
0301
0010
0001
0010
0100
1000
0000
0010
1000
0000
0100
1000
,
0000
0010
1000
0000
0001
0000
0001
0000
0100
0001
0000
0010
0001
0000
0100
0001
,
0000
0010
0001
0000
1000
0000
1000
0000
0001
0100
0000
1000
0100
0000
0001
0100
,
0000
1000
0100
0000
0001
0000
0001
0000
1000
0100
0000
0001
0100
0000
1000
0100
,
0000
0001
0100
0000
1000
0001
1000
0000
0001
0010
0000
0010
1000
0000
0001
0100
,
0000
0100
1000
0000
0001
0000
0001
0000
1000
0010
0000
0010
0001
0000
1000
0100
,
0000
0100
0001
0000
1000
0000
1000
0000
0001
0010
0000
0010
1000
0000
1000
0100
,
0000
0100
0001
0000
1000
0000
0001
0000
0100
0000
0100
0000
0100
0000
0001
1000
,
0000
0000
0000
0000
0001
1000
0001
1000
0100
0000
0100
0000
0100
0000
1000
0001
,
0000
2002
0000
0000
,
3003
0000
0000
0000
;

//--------------- dance-single - ----------------
#NOTES:
     dance-single:
     :
     Challenge:
     17:
     1.0325,1.15279,0.871171,0.11293,1.129296,896,788,108,14,0,0,1.0325,1.15279,0.871171,0.11293,1.129296,896,788,108,14,0,0:
0000
0000
0000
0000
,
0000
0000
0000
0000
,
0000
0000
0000
0000
,
0000
0000
0000
0000
,
0002
0000
0000
2003
0000
0000
3020
0000
0000
0000
0100
0000
0130
0000
0001
0000
,
0010
0000
0100
1000
0001
0010
0100
0000
0110
0000
0010
0000
0001
0000
1000
0000
,
0020
0000
0000
0230
0000
0000
0302
0000
0000
0000
1003
0000
0010
0000
0100
0000
,
0001
0000
0010
0000
0100
1000
0100
1000
0001
0000
0100
0000
0020
0000
1030
0000
,
0110
0000
0010
0000
1001
0000
1000
0000
0001
0010
0001
0010
0100
0000
0010
0000
,
0011
0000
0001
1000
0100
0000
0010
0000
1001
0000
0001
0000
1000
0000
0010
0000
,
0100
0000
0000
0001
0000
0000
1000
0000
0000
0000
0000
0000
0100
0000
0000
1000
0000
0000
0001
0000
0000
1000
0000
0000
0010
0000
0000
0100
0000
0000
0001
0000
1000
0000
0001
0000
1000
0000
0001
0000
0010
0000
0100
0000
1000
0000
0001
0000
,
0020
0030
0000
0000
0000
0000
0000
0000
0000
0000
0000
0000
0000
0000
0000
0000
0000
0000
0100
0000
0000
0000
0000
0000
0000
0000
0000
0000
0000
0000
0000
0000
0000
0000
0000
0000
1000
0000
0000
0000
0000
0000
0000
0000
0000
0000
0000
0000
0001
0000
0000
0000
0000
0000
0010
0000
0000
0000
0000
0000
0001
0000
0000
0000
0000
0000
0010
0000
0000
0000
0000
0000
0100
0000
0000
0000
0000
0000
1000
0000
0000
0000
0000
0000
0100
0000
0000
0000
0000
0000
1000
0000
0000
0000
0000
0000
0010
0000
0000
0000
0000
0000
0000
0000
0000
0000
0000
0000
0000
0000
0000
0000
0000
0000
0000
0000
0000
0000
0000
0000
1010
0000
0000
0000
0000
0000
0000
0000
0000
0000
0000
0000
0000
0000
0000
0000
0000
0000
0000
0000
0000
0000
0000
0000
1001
0000
0000
0000
0000
0000
0000
0000
0000
0000
0000
0000
0000
0000
0000
0000
0000
0000
0000
0000
0000
0000
0000
0000
0000
0000
0000
0000
0000
0000
0000
0000
0000
0000
0000
0000
0000
0000
0000
0000
0000
0000
0000
0000
0000
0000
0000
0000
,
0010
0000
0011
0000
1001
0000
0000
0000
0011
0000
0001
1000
0100
0000
0010
0000
,
0100
0110
1001
0000
0001
0101
0110
0000
,
1000
0000
1100
0000
0110
0000
0000
0000
0110
0000
0010
0001
1000
0000
0010
0000
,
0100
0101
1001
0000
1100
0011
1100
0000
,
0101
0000
1010
0000
0101
0000
0000
0000
0011
0000
0001
0010
0100
1000
0010
0000
,
0110
1001
0110
0000
1010
0101
1010
0000
,
0011
0000
1100
0000
0011
0000
0000
0000
0010
0000
0010
0000
0010
0000
0001
1000
,
0000
0000
0000
0000
0001
1000
0001
1000
0100
0000
0010
0000
0001
0000
1000
0010
,
0100
0000
0010
1000
0000
0001
1000
0000
0100
0000
0010
0000
0001
0010
0000
0100
,
0010
0000
1000
0010
0000
0100
1000
0001
0100
0000
1000
0000
0100
0001
0000
0001
,
0010
0000
0100
1000
0000
1000
0010
0000
0001
0010
1000
0100
0010
1000
0010
0001
,
1000
0000
0001
0100
0010
1000
0001
0010
1000
0000
0010
0000
0001
0100
0000
0010
,
0100
0000
1000
0100
0000
0010
1000
0001
0010
0000
1000
0000
0010
0001
0000
0001
,
0100
0000
0010
1000
0000
1000
0100
0000
0010
0000
0001
0000
1000
0010
0000
0100
,
0001
0000
0010
0100
0000
1000
0001
0000
0100
0000
1000
0000
0100
0000
0001
0010
,
0100
0000
0010
0001
1000
0000
0010
0000
0100
0001
0000
0100
0010
0000
0100
1000
,
0000
0100
0010
0000
0100
0001
0010
0100
1000
0001
0000
1000
0100
0000
1000
0001
,
0000
1000
0010
0000
0100
0001
1000
0100
0010
0001
0000
0010
0100
0000
0010
1000
,
0000
0010
0100
0000
0010
0001
1000
0100
1000
0010
0000
0100
0001
0000
0010
0100
,
0000
1000
0001
0000
0010
0000
0110
0000
1000
0100
0000
0001
0100
0000
1000
0100
,
0000
0001
0100
0000
1100
0000
1001
0000
0001
0100
0000
1000
0100
0000
0001
0100
,
0000
1000
0100
0000
0101
0000
1001
0000
0001
0010
0000
1000
0010
0000
0001
0100
,
0000
1000
0100
0000
0110
0000
1001
0000
0010
0000
0010
0000
0010
0000
1000
0001
,
0000
0100
0010
0100
0010
1000
0100
0010
0001
0000
1000
0010
0100
0000
0010
1000
,
0001
0010
0001
0100
0010
1000
0010
0100
0010
1000
0001
0010
0100
0010
0001
0010
,
0100
1000
0010
0100
0001
0000
1000
0001
0100
0000
0010
1000
0010
0100
0010
1000
,
0001
0010
0100
1000
0001
0000
1000
0010
0100
0010
1000
0100
0010
0001
0100
0010
,
0100
0001
0010
0100
1000
0000
0001
1000
0001
1000
0100
0010
0110
0000
0000
0000
,
0100
0010
0001
1000
2001
0000
3020
0000
0000
0000
0130
0000
0001
0000
0010
0000
,
0100
0000
1100
0000
0011
0000
1000
0000
0001
0100
0010
0000
0100
0001
1000
0000
,
0001
0010
0000
0100
1000
0001
0101
0000
0000
0000
1100
0000
0101
0000
1100
0000
,
0101
0000
1000
0000
0010
0000
0100
0000
0001
0010
0100
0010
0001
0010
0100
0010
,
0002
1000
0000
1003
0000
0000
0010
0100
0010
0000
1000
0000
0001
0000
0010
0100
,
1000
0001
0000
0101
0000
0000
0200
0000
0001
0000
0301
0000
0010
0000
0100
1000
,
0001
0000
0001
0100
0000
0010
1000
0001
0100
0100
1000
0001
0100
0100
0010
0001
,
0100
0100
1000
0001
0100
0100
0010
0001
1000
0010
0100
0010
1000
0010
0100
0010
,
2000
0001
0000
3001
0000
0000
0001
1000
0100
1000
0001
1000
0100
0010
0001
1000
,
0010
0100
0000
0110
0000
0010
1000
0001
0010
0000
0100
0000
1001
0000
1000
0010
,
0000
0100
0001
0010
0100
1000
0001
0100
0101
0000
0000
1100
0000
0000
0110
0000
,
1002
0000
0103
0000
0010
0100
0010
0100
0001
0000
1000
0010
0100
0000
0010
1000
,
0001
0010
0000
0011
0000
0000
0010
0100
1000
0000
0001
0010
0100
0010
0001
1000
,
0010
0100
0000
0110
0000
0000
0010
0000
1000
0000
0001
0000
1000
0000
0010
0100
,
0001
0000
1000
0100
0000
0010
0001
1000
0100
0100
0001
1000
0100
0100
0010
1000
,
0100
0100
0001
1000
0100
0100
0010
1000
0002
0000
1000
0000
0203
0000
0010
0000
,
0302
0000
0010
0000
2003
0000
0100
0000
3002
0000
0000
0010
0000
0000
1000
0000
,
0103
0000
0001
1000
0010
0000
0100
0001
0010
0000
0100
0000
1100
0000
0100
1000
,
0010
0000
0100
0000
0101
0000
0100
0001
2000
0000
0010
0000
3002
0000
0100
0000
,
2003
0010
3002
0100
2000
0000
3003
0000
,
0001
0010
0100
1000
0001
0010
0100
1000
1100
0000
1001
0000
1010
0000
0000
0000
,
0101
0000
1001
0000
0011
0000
0000
0000
1001
0000
0001
0010
0100
1000
0010
0000
,
0110
1001
0110
0000
1010
1001
1100
0000
,
0011
0000
1001
0000
0101
0000
0100
0001
0010
1000
0010
0001
1000
0010
0100
0000
,
0110
1001
0110
0000
0101
0110
1100
0000
,
1100
0000
0110
0000
0101
0000
0100
0001
0000
1000
0100
0001
0100
1000
0010
0000
,
0110
1001
0110
0000
0011
0110
1010
0000
,
1010
0110
0011
0001
2000
3002
2003
3002
,
0203
0000
0000
0000
0000
0000
0320
0000
0000
0000
0000
0000
1030
0000
0100
0000
0010
0000
0001
0000
1000
0000
0100
0000
0010
0000
0000
0001
0000
0000
0000
0000
0000
0001
0000
0000
0100
0000
0000
0000
0000
0000
0100
0000
0000
0010
0000
0000
,
0000
0010
1000
0000
1000
0100
0010
0100
1000
0010
0000
0010
0100
0000
0100
0001
,
0000
0001
0010
0000
0010
0100
1000
0001
0100
0010
0000
0010
0100
0000
0100
0001
,
0000
0001
1000
0000
1000
0100
0010
0001
1000
0010
0000
0010
0100
0000
0100
0001
,
0000
0001
0010
0000
0010
0100
1000
0001
0100
0100
1000
0100
0100
0001
0100
0100
,
1000
0100
0100
0001
0010
0100
1000
0001
0010
0010
1000
0010
0010
0001
0010
0010
,
1000
0010
0010
0001
1000
0100
0010
0001
0100
0100
1000
0010
0010
0001
0100
0100
,
1000
0010
0010
0001
0100
0100
1000
0001
0100
0000
0100
0000
0100
0000
0001
1000
,
0000
0000
0000
0000
0001
1000
0001
1000
0100
0000
0100
0000
0100
0000
1000
0001
,
0000
2002
0000
0000
,
3003
0000
0000
0000
;
