#TITLE:僕の戦争;
#SUBTITLE:;
#ARTIST:神聖かまってちゃん;
#TITLETRANSLIT:My War;
#SUBTITLETRANSLIT:;
#ARTISTTRANSLIT:Shinsei Kamattechan;
#GENRE:ANIME;
#CREDIT:;
#MUSIC:Boku no Sensou (My War).ogg;
#BANNER:Boku no Sensou (My War).png;
#BACKGROUND:Boku no Sensou (My War)-bg.png;
#CDTITLE:;
#SAMPLESTART:8.387;
#SAMPLELENGTH:13.333;
#SELECTABLE:YES;
#OFFSET:-0.054;
#BPMS:0.000=144.000;
#STOPS:;
#BGCHANGES:0.500=Boku no Sensou (My War).avi=1.000=0=0=0=StretchNoLoop====,
99999.000=-nosongbg-=1.000=0=0=0=StretchNoLoop====
;
#FGCHANGES:;

//--------------- dance-single - ----------------
#NOTES:
     dance-single:
     :
     Medium:
     11:
     0,0,0,0,0:
0000
0000
0000
0000
,
0002
0000
0000
0023
0000
0000
0230
0000
1300
0000
0001
0000
1000
0000
0001
0000
,
0200
0000
0000
0320
0000
0000
2030
0000
3001
0000
0100
0000
0001
0000
0100
0000
,
0020
0000
0000
2030
0000
0000
3002
0000
0013
0000
0100
0000
0010
0000
0100
0000
,
2000
0000
0000
3002
0000
0000
2003
0000
3001
0000
0010
0000
0100
0000
1000
0000
,
0021
0000
0130
1000
0100
0001
0100
1000
,
0001
0010
0010
0010
1001
0000
0100
0010
,
1020
0000
0130
0001
0100
1000
0100
0001
,
0010
0100
0100
0100
2000
3200
0320
0031
,
2001
0000
3001
0100
0001
0010
1000
0010
,
0001
1000
1000
1000
0110
0000
0100
0010
,
1001
0110
1001
0110
,
0100
0010
0010
0010
0100
0001
1000
0001
,
1000
0010
0100
0001
1000
0010
0100
0001
,
1000
0100
0010
0100
1000
0001
0100
0010
,
0001
0010
1000
0001
1000
0010
0100
1000
,
0001
0010
0001
0010
1000
0100
0010
0100
,
0001
0000
0100
1000
0000
1100
0000
0101
,
0000
1010
0000
0101
0000
0001
1000
0000
,
0011
0000
1000
0001
0000
0101
0000
1010
,
0000
0011
0000
0001
0100
1000
0001
0010
,
1000
0000
0001
0010
0100
0010
0001
0010
,
0100
1000
0010
0100
0010
1000
0001
0100
,
0001
0001
1000
1000
0000
0011
0000
0010
,
0200
0000
0000
0000
2300
3200
0320
2030
,
3020
0000
0031
0100
1000
0100
0001
0010
,
0100
0001
1000
0001
0200
0000
1300
0010
,
0200
0000
1300
0100
0010
1000
0100
0010
,
1000
0010
0001
0010
1000
1000
0010
0010
,
0002
0000
0103
0001
0100
1000
0100
0001
,
1000
0100
0001
0100
2000
0000
3010
0100
,
1001
0110
1001
0110
,
0001
0010
0010
0010
1002
0023
0230
2300
,
3002
0000
0000
2003
3200
0000
0320
0000
,
0032
0000
0000
0203
2300
0000
3200
0000
,
0302
0000
0000
0023
0230
0000
2300
0000
,
3002
0000
0203
0000
1300
0100
0001
0100
,
0020
0000
0000
0230
0302
0000
2003
0000
,
3200
0000
0320
0000
0032
0203
2300
3002
,
0023
0000
2030
3200
0320
0000
0032
0203
,
0320
0130
0100
0010
0110
0000
0010
1000
,
0001
0010
1000
0010
0001
0100
1000
0100
,
0001
0010
1000
0010
0001
0100
1000
0100
,
0110
1001
0110
1001
,
0100
0010
0100
0010
1001
0000
0001
1000
,
0001
0001
1000
1000
0001
0001
1000
1000
,
0001
0001
1000
1000
0001
0001
1000
1000
,
0010
0010
0100
0100
0010
0010
0100
0100
,
0010
0010
0100
0100
0010
0010
0100
0100
,
0001
0001
0010
0010
0100
0100
1000
1000
,
0001
0001
0100
0100
0010
0010
1000
1000
,
0001
0010
0100
1000
0001
0010
0100
1000
,
0001
0100
0010
1000
0001
0100
1001
0000
;

//--------------- dance-single - ----------------
#NOTES:
     dance-single:
     :
     Hard:
     15:
     0,0,0,0,0:
0000
0000
0000
0000
,
1001
0000
0000
1100
0000
0000
0101
0000
0001
0100
0001
0000
0001
0100
0001
0010
,
0001
0000
0000
0011
0000
0000
1100
0000
1000
0100
1000
0000
1000
0100
1000
0010
,
1000
0000
0000
1010
0000
0000
1100
0000
0100
0010
0100
0000
0100
0010
0100
1000
,
0100
0000
0000
0011
0000
0000
1100
0000
0011
0000
1100
0000
1010
0000
0101
0000
,
1001
0000
0001
0100
0020
0000
1000
0000
0130
0001
0010
0100
0010
0001
1000
0000
,
0001
1000
0010
0100
0010
1000
0010
0100
0001
0000
0010
0001
0200
0000
0310
0000
,
1001
0000
1000
0100
0020
0000
0001
0000
0130
1000
0010
0100
0010
1000
0001
0000
,
1000
0001
0010
0100
0010
0001
0010
0100
2000
0000
3200
0000
0320
0000
0032
0000
,
1003
0000
0100
1000
0020
0000
0100
0000
1030
0001
0100
0001
1000
0001
0100
0000
,
0001
0010
0100
1000
0100
0010
0100
1000
0010
0000
0010
1000
0200
0000
0310
0000
,
0110
0000
0000
0010
1001
0000
0000
0000
0110
0000
0000
0100
1001
0000
0000
0000
,
0110
0000
1001
0000
1001
0000
1001
0000
0001
0010
0100
1000
0001
0010
0100
1000
,
0001
0000
1000
0000
0100
0000
1000
0000
0010
0000
1000
0000
0001
0000
0100
0001
,
1000
0000
0001
0000
0010
0000
0100
0000
1000
0100
0010
0000
0001
0010
0100
0000
,
1000
0000
0001
0000
0100
0000
0001
0000
1000
0000
0001
0010
0100
0000
1000
0000
,
0001
0000
0100
0000
0001
0000
1000
0000
0010
0000
0100
0001
0100
0001
0100
0001
,
1000
0010
0100
1000
0101
0001
0010
0001
,
1100
0100
1000
0001
1010
0010
1100
0100
,
0011
0001
1000
0010
0101
0001
1000
0001
,
0110
0100
0001
1000
1100
0110
0011
1100
,
1000
0010
0110
0001
0100
0010
1001
0100
,
0010
1000
0110
0001
1000
0010
1001
0100
,
0001
0011
0100
1100
0000
1010
0000
0101
,
2002
0000
0000
3003
0002
0203
0320
2030
,
3010
0000
0100
0001
0100
0000
0001
0000
1000
0100
0010
0100
0010
0001
0100
0000
,
0010
1000
0010
0100
0010
0100
0010
1000
0001
0000
0010
0001
0100
0000
0010
0100
,
0010
0000
1000
0100
1000
0000
0010
0000
1000
0100
0010
0100
1000
0100
0010
0000
,
0001
0100
0010
0100
0010
0100
0001
0100
1000
0000
1000
0100
0001
0000
0010
0100
,
0010
0000
0100
1000
0100
0000
0001
0000
0100
1000
0100
1000
0001
0010
0100
0000
,
0010
0001
1000
0001
1000
0100
0001
0100
1000
0000
1000
0010
0100
0000
0001
0100
,
0010
0000
1000
0100
0110
0000
0001
0100
0010
0000
1000
0100
0110
0000
0001
0100
,
0010
0000
1001
0000
1001
0000
1001
0000
0001
0010
0100
1000
0001
0010
0100
1000
,
0002
0000
0000
0000
0100
0000
1003
0010
0200
0000
0001
0310
0200
0000
1300
0100
,
0020
0000
0000
0000
0100
0000
0001
1030
0200
0000
1000
0301
0200
0000
0001
1300
,
0020
0000
0000
0000
1000
0000
0100
0031
0020
0000
0100
1030
0002
0000
0000
0000
,
0023
0000
0100
0000
0230
0000
1000
0000
1300
0100
0010
0001
1000
0001
0010
0100
,
2000
0000
0000
0000
0100
0000
3100
1000
0020
0000
1030
0001
0020
0000
0100
0000
,
0100
1030
0001
0010
1000
0001
0100
1000
0020
0000
0230
0000
2300
0000
3002
0000
,
0013
0100
0010
1000
0002
0000
0010
0000
0103
1000
0010
0100
0002
0000
1000
0000
,
1003
0000
1100
0000
0101
0000
1000
0000
0110
0000
0010
0100
0010
0100
0010
0100
,
0002
0013
2000
3010
0002
0103
2000
3100
,
0002
0000
0013
0000
2000
0000
3010
0000
0002
0000
0103
0000
2000
0000
3100
0010
,
0100
0000
0001
1000
0001
0000
0010
0100
0010
0000
0001
1000
0001
0000
0100
0010
,
0100
0000
0110
0000
0110
0000
1001
0000
1001
0000
0000
0000
0010
0100
0010
0100
,
0010
0000
1000
0001
0100
0000
0001
1000
0100
0000
1000
0001
0100
0000
0001
1000
,
0100
0000
1000
0001
0100
0000
0001
1000
0200
0000
1000
0001
0000
0000
0001
1000
,
0000
0000
1300
0001
0100
0000
0001
1000
0100
0000
1000
0001
0100
0000
0001
1000
,
0100
0000
1000
0001
0100
0000
0001
1000
0200
0000
1000
0001
0000
0000
0001
1000
,
0000
0000
1300
0001
0100
0000
0001
1000
0100
0000
1000
0001
0100
0000
0001
1000
,
0100
0000
1000
0001
0100
0000
0001
1000
0200
0000
1000
0001
0000
0000
0001
1000
,
0300
0010
0110
1000
1001
0010
0110
1000
,
1001
0010
0110
1000
1001
0010
1001
0000
;

//--------------- dance-single - ----------------
#NOTES:
     dance-single:
     :
     Challenge:
     19:
     1.257344,1.243491,0.930497,1.32459,1.740577,804,719,85,121,0,1,1.257344,1.243491,0.930497,1.32459,1.740577,804,719,85,121,0,1:
0000
0000
0000
0000
,
0011
0000
0000
1100
0000
0000
0011
0000
0110
0001
1000
0000
0001
0100
0010
1000
,
1010
0000
0000
0101
0000
0000
1010
0000
0110
1000
0001
0000
0001
0010
0100
1000
,
1100
0000
0000
0011
0000
0000
1100
0000
0011
0100
1000
0000
1000
0010
0100
0001
,
0101
0000
0000
1010
0000
0000
0101
0000
0011
0000
1100
0000
1010
0000
0101
0000
,
1001
0000
0001
0100
0020
0000
0100
0000
0130
0001
0010
0100
0010
0001
1000
0000
,
0010
1000
0010
0100
0010
0001
0010
0100
0010
0000
0100
0001
2000
0000
3100
0000
,
0110
0000
0010
0001
0200
0000
0010
0000
1300
0100
0010
0100
0001
0010
0100
0000
,
0010
0100
0010
0001
0010
0100
0010
1000
0010
0000
0100
1000
0002
0000
0103
0000
,
1010
0000
0100
0001
0020
0000
1000
0000
0130
1000
0010
0001
1000
0100
0001
0000
,
1000
0100
0100
0001
1000
0100
0100
0001
1000
0000
0001
0010
0200
0000
0310
0000
,
0110
0000
0000
0001
0010
0100
1001
0000
0000
0100
0000
0000
0110
0000
0000
1000
0100
0010
1001
0000
0000
0010
0000
0000
,
0110
0000
0000
0000
0000
0000
1001
0000
0000
0000
0000
0000
1001
0000
0000
0000
0000
0000
1001
0000
0000
0000
0000
0000
0001
0000
0000
0010
0000
0000
0100
0000
0000
1000
0000
0000
0001
0000
0000
0010
0000
0000
0100
0000
1000
0000
0010
0000
,
0200
0000
0301
0010
2000
0000
3001
0100
0020
0000
0031
0100
2000
0000
3001
0010
,
0200
0000
0301
0010
2000
0000
3002
0000
1003
0010
0002
0000
0103
1000
0002
0000
,
2003
0000
3001
0010
0200
0000
0302
0000
2003
0000
3001
0100
2000
0000
3002
0000
,
0013
1000
0200
0000
0301
0100
2000
0000
3020
0000
0130
0001
2000
0010
3001
0010
,
2000
0000
3100
0000
0021
0000
0032
0003
0110
0000
0200
0000
1000
0000
0302
0003
,
0110
0000
2000
0000
0100
0000
3020
0030
1001
0020
0230
0300
0011
0000
0200
0300
,
1020
0000
0100
0000
0032
0000
2003
3000
0110
0000
0002
0003
1100
0000
0020
0000
,
1000
0000
0230
0300
0011
0000
2000
3000
1200
0300
0120
0030
0012
0003
1200
0300
,
1002
0000
0103
0000
0120
0000
0032
0000
0203
0300
0020
0030
1001
0000
0200
0000
,
0010
0000
2300
3000
0120
0000
0032
0000
0203
0000
0320
0030
1002
0000
0103
0000
,
1001
1001
0010
1001
0000
1010
0000
0101
,
2002
0000
0000
0000
0000
0000
3003
0000
0101
0000
1010
0000
0100
0001
0010
0100
,
0010
0001
0100
0010
1010
1000
0100
0010
0100
1000
0001
0100
0110
0010
1000
0100
,
0010
1000
0010
0100
0110
0010
0001
1000
0010
0001
0010
0100
0110
0010
1000
0100
,
1000
0001
0100
0001
1001
1000
0010
0100
1000
0100
0010
1000
1001
0001
0010
0100
,
0001
0100
1000
0001
1001
1000
0010
0100
0010
1000
0100
1000
1001
0001
0010
0100
,
1000
0010
0100
0001
1010
0100
0001
0010
0100
1000
0100
1000
0011
0100
1000
0010
,
0100
0001
0010
0001
1100
0010
1000
0100
1000
0010
0100
0010
0101
1000
0001
0010
,
0110
1000
0001
0010
0011
0100
1000
0010
1100
0001
1000
0010
0011
0001
1000
0010
,
0110
0000
0000
0000
0000
0000
1001
0000
0000
0000
0000
0000
1001
0000
0000
0000
0000
0000
1001
0000
0000
0000
0000
0000
0110
0000
0000
0001
0000
0000
0010
0000
0000
0100
0000
0000
1100
0000
0000
1000
0000
0000
0100
0000
0010
0000
0001
0000
,
2000
0000
0000
0100
0000
0000
3010
0000
0000
0100
0000
0000
1000
0000
0000
0001
0000
0000
0100
0000
0010
0000
0100
0000
0002
0000
0000
0010
0000
0000
0103
0000
1000
0000
0010
0000
0200
0000
0000
0001
0000
0000
0310
0000
0100
0000
1000
0000
,
0002
0000
0000
1000
0000
0000
0103
0000
0000
0010
0000
0000
0100
0000
0000
1000
0000
0000
0010
0000
0100
0000
0010
0000
0002
0000
0000
0010
0000
0000
1003
0000
0100
0000
0010
0000
0002
0000
0000
1000
0000
0000
0013
0000
0100
0000
0010
0000
,
2000
0000
0000
0100
0000
0000
3010
0000
0000
0001
0000
0000
0010
0000
0000
0100
0000
0000
1000
0000
0010
0000
0100
0000
2000
0000
0000
0100
0000
0000
3001
0000
0010
0000
0100
0000
0020
0000
0000
0001
0000
0000
1030
0000
0010
0000
0100
0000
,
0002
0000
0000
0010
0000
0000
0103
0000
1000
0000
0010
0000
0200
0000
0000
0001
0000
0000
1300
0000
0010
0000
0100
0000
0001
0000
0100
0000
0010
0000
1000
0000
0010
0000
1000
0000
0001
0000
0100
0000
0010
0000
1000
0000
0010
0000
0100
0000
,
0002
0000
0000
0010
0000
0000
0103
0000
0000
1000
0000
0000
0200
0000
0000
1000
0000
0000
0301
0000
0100
0000
0010
0000
0002
0000
0000
0010
0000
0000
1003
0000
0100
0000
0010
0000
0002
0000
0000
1000
0000
0000
0103
0000
0010
0000
0100
0000
,
2000
0000
0000
0010
0000
0000
3100
0000
0001
0000
1000
0000
0020
0000
0000
0100
0000
0000
0031
0000
0010
0000
0100
0000
0010
0000
0100
0000
1000
0000
0001
0000
0010
0000
0001
0000
1000
0000
0100
0000
0010
0000
0100
0000
0010
0000
0001
0000
,
2000
0000
0000
0100
0000
0000
3100
0000
0001
0000
1000
0000
0002
0000
0000
0100
0000
0000
0103
0000
1000
0000
0001
0000
2000
0000
0000
0100
0000
0000
3100
0000
0001
0000
1000
0000
0002
0000
0000
0100
0000
0000
0103
0000
1000
0000
0001
0000
,
1000
0000
0100
0000
1000
0000
0001
0000
0010
0000
0100
0000
1000
0000
0100
0000
0010
0000
0001
0000
1000
0000
0001
0000
0100
0000
0000
0001
0000
0000
1000
0000
0000
0001
0000
0000
1000
0000
0000
0010
0000
0000
0100
0000
0001
0000
1000
0000
,
0200
0310
0001
1000
0020
0130
0010
1000
0002
0013
0100
0010
0002
0103
0010
1000
,
0020
0000
1030
0000
0001
0000
1000
0000
0200
0000
0310
0000
0100
0000
1000
0000
0200
0000
0310
0000
0001
0000
0010
0000
0002
0000
0103
0000
0010
0000
1000
0010
,
0200
0000
0301
0000
1000
0000
0001
0010
0200
0000
1300
0000
0001
0000
1000
0010
0200
0000
0301
0000
1000
0000
0001
0010
0200
0000
1300
0000
0001
0000
0100
0001
,
2000
0000
3100
1000
0002
0000
0103
0001
0020
0000
0130
1000
0020
0000
0130
0001
2000
0000
0000
0000
0000
0000
0000
0000
3010
0000
0100
0000
0010
0000
0100
0000
,
0001
0000
0100
0000
0001
0000
0100
0000
1000
0000
0100
0000
1000
0100
0010
0100
0001
0000
0100
0000
0001
0000
0100
0000
1000
0000
0100
0000
1000
0100
0010
0100
,
0001
0000
0100
0000
0001
0000
0100
0000
1000
0000
0100
0000
1000
0100
0010
0200
0001
0000
0000
0000
0001
0000
0000
0000
1000
0000
0000
0000
1300
0100
0010
0100
,
0001
0000
0010
0000
0001
0000
0010
0000
1000
0000
0010
0000
1000
0010
0100
0010
0001
0000
0010
0000
0001
0000
0010
0000
1000
0000
0010
0000
1000
0010
0100
0010
,
0001
0000
0010
0000
0001
0000
0010
0000
1000
0000
0010
0000
1000
0010
0100
0020
0001
0000
0000
0000
0001
0000
0000
0000
1000
0000
0000
0000
1030
0010
0100
0010
,
0001
0000
0100
0000
0001
0000
0100
0000
1000
0000
0100
0000
1000
0100
0010
0100
0001
0000
0010
0000
0001
0000
0010
0000
1000
0000
0010
0000
1000
0010
0100
0010
,
0001
0000
0100
0000
0001
0000
0100
0000
1000
0000
0100
0000
1000
0100
0010
0200
0001
0000
0000
0000
0001
0000
0000
0000
1000
0000
0000
0000
1300
0100
0010
0100
,
0001
0000
0000
0000
0000
0000
0010
0000
0100
0000
0010
0000
2002
0000
0000
3003
0000
0000
0001
0000
1000
0000
0001
0000
0220
0000
0000
0330
0000
0000
0100
0000
0010
0000
0100
0000
2002
0000
0000
3003
0000
0000
1000
0000
0001
0000
1000
0000
,
0220
0000
0000
0330
0000
0000
0010
0000
0100
0000
0010
0000
2002
0000
0000
3003
0000
0000
0001
0000
1000
0000
0001
0000
0220
0000
0000
0330
0000
0000
0100
0000
0010
0000
0100
0000
2002
0000
0000
3003
0000
0000
0000
0000
0000
0000
0000
0000
;
