#TITLE:ボッカデラベリタ;
#SUBTITLE:;
#ARTIST:柊キライ feat Ado;
#TITLETRANSLIT:Bocca della verita;
#SUBTITLETRANSLIT:;
#ARTISTTRANSLIT:Hiiragi Kirai feat Ado;
#GENRE:POP;
#CREDIT:;
#MUSIC:Bocca della verita.ogg;
#BANNER:Bocca della verita.png;
#BACKGROUND:Bocca della verita-bg.png;
#CDTITLE:;
#SAMPLESTART:1.421;
#SAMPLELENGTH:11.294;
#SELECTABLE:YES;
#OFFSET:-0.009;
#BPMS:0.000=170.000
,96.000=85.000
,98.000=170.000
,135.500=85.000
,136.000=170.000
,164.000=85.000
,166.000=170.000
,292.500=85.000
,294.500=170.000
,306.500=85.000
,308.500=170.000
,326.000=85.000
,326.500=170.000
;
#STOPS:134.000=0.176
,134.500=0.176
,135.000=0.176
,194.000=0.176
,194.500=0.176
,195.000=0.176
,324.500=0.176
,325.000=0.176
,325.500=0.176
;
#BGCHANGES:1.750=Bocca della verita.avi=1.000=0=0=0,
99999.000=-nosongbg-=1.000=0=0=0=StretchNoLoop====
;
#FGCHANGES:;

//--------------- dance-single - ----------------
#NOTES:
     dance-single:
     :
     Medium:
     13:
     0,0,0,0,0:
0000
0000
0000
0000
,
0001
0000
0000
0000
1000
0000
0000
0000
0001
0000
0000
0010
0000
0000
0010
0000
,
0100
0000
0010
0000
0100
0000
0010
0000
0200
0000
0000
2300
0000
0000
3002
0000
,
0000
0103
0001
0010
0100
1000
0100
0010
,
0100
1000
0001
1000
1001
0000
1001
0000
,
1000
0000
0000
0000
0001
0000
0000
0000
1000
0000
0000
0010
0000
0000
0010
0000
,
0100
0000
0010
0000
0100
0000
0010
0000
0200
0000
0000
0301
0000
0000
1000
0000
,
0000
0001
0010
0100
0010
0001
1000
0100
,
0010
0001
0000
1000
0200
0000
0320
0000
,
0032
0000
1003
0100
0010
0100
0001
0100
,
1000
0000
0001
0100
0010
0100
1000
0100
,
0001
0000
0010
0100
1000
0100
0010
0001
,
1000
0000
0001
0100
0001
0100
0001
0100
,
0010
0000
1000
0010
0100
0010
0001
0010
,
1000
0000
0001
0010
0100
0010
1000
0010
,
0001
0000
1000
0010
0100
0001
0100
0010
,
1000
0000
0100
1000
0100
1000
0100
0010
,
0110
0000
0000
0000
0110
0000
0000
0000
0110
0000
0000
0001
0000
0000
0100
0000
,
0001
0000
1000
0000
0001
0000
1000
0000
0001
0000
0000
0100
0000
0000
0100
0000
,
0000
0010
1000
0100
0010
0100
1000
0001
,
0100
0010
0100
0001
0100
0010
1000
0000
,
0000
1000
0100
0010
0100
0100
0001
0100
,
0100
0000
1000
0000
0100
0010
0000
0000
0110
0000
0000
0000
0100
0000
1000
0000
,
0001
0100
1000
0100
0010
0001
0010
0200
,
0000
0000
0000
0000
0300
0100
0010
0100
0101
0000
0000
0000
1100
0000
0000
0000
,
1000
0000
0000
0010
0000
0000
0100
0000
0001
0000
0001
0000
1000
0000
1000
0000
,
0100
0000
0000
0010
0000
0000
0001
0000
0000
0000
1000
0000
0100
0000
0010
0000
,
0001
1000
0001
1000
0001
0010
0100
1000
,
0100
0010
0001
0000
0000
0001
0100
0010
,
1000
0000
1000
0000
0001
0000
0001
0000
0100
0000
0010
0000
1000
0001
0000
0000
,
0100
0000
0010
1000
0100
0001
0100
1000
,
0010
0000
0001
0000
1000
0000
0001
0000
0010
0000
1000
0000
0010
0100
0000
0000
,
1001
0000
0210
0000
0320
0000
0000
2030
,
0000
3001
0010
0100
1100
0101
1001
0100
,
0020
0000
0000
0000
0100
0000
0000
0000
1030
0000
0000
0001
0000
0000
1000
0000
,
0010
0000
0100
0000
0010
0000
0100
0000
0010
0000
0000
0100
0000
0000
0110
0000
,
0000
1000
0001
0100
0010
1000
0001
0010
,
0100
0100
1000
1000
1100
0000
0011
0000
,
1001
0000
0000
0000
1001
0000
0000
0000
0001
0000
0000
0100
0000
0000
0010
0000
,
1000
0000
1000
0000
0001
0000
0001
0000
0020
0000
0000
0100
0000
0000
0130
0000
,
0000
1000
0010
0001
0010
1000
0010
0001
,
0010
0000
0000
1000
0000
0000
0100
0000
0010
0000
0000
0100
0000
0000
1000
0000
0001
0000
0000
0000
1000
0000
0000
0000
0100
0000
0000
0000
0010
0000
0000
0000
,
0001
1000
0100
0010
0001
0100
1000
0100
,
0001
0100
1000
0100
0001
0100
0010
1000
,
0001
0100
0010
1000
0001
0010
1000
0010
,
0001
0010
1000
0010
0001
0010
0100
1000
,
0001
0010
0100
1000
0001
0100
1000
0100
,
0001
0100
1000
0100
0110
0000
0110
0000
,
1010
0000
0000
0110
0000
0000
0001
0000
0010
0000
0100
0000
0110
0000
0000
0000
,
0000
0000
0100
0000
1000
0010
0000
1000
0001
0000
0100
0000
0010
0000
0100
0000
,
0001
0000
0010
0000
0100
1000
0000
0100
0010
0000
0001
0000
1000
0100
1000
0000
,
0100
0000
0010
0000
0001
0100
0000
0001
1000
0000
0010
0000
1000
0000
0100
0000
,
0001
0200
0000
2300
0000
3020
0000
0230
,
0000
0000
0301
0000
0010
0100
0000
1000
0001
0000
0100
0000
0001
0100
0001
0000
,
0010
0200
0000
2300
0000
3002
0000
2003
,
0000
0000
3001
0000
0100
0010
0000
1000
0010
0000
0100
0000
0001
0000
0100
0000
,
0001
2000
0000
3200
0000
0320
0000
0001
,
0031
0000
2000
0000
0000
0100
0000
0000
3001
0000
0200
0000
0000
0010
0000
0000
,
0301
0000
1000
0010
0000
0100
0001
0000
0001
0000
0010
0000
0100
0000
1000
0000
,
0001
0000
0020
0000
0000
0000
0230
0000
0000
0000
1300
0000
0001
0100
0000
0010
,
1000
0001
0100
0001
0100
0010
1000
0010
,
1000
0100
0010
0100
1000
0001
0100
0010
,
0100
0000
0001
0000
0010
0000
0100
0000
1000
0000
0100
0010
0000
0001
0000
0010
,
0100
1000
0010
0100
1000
0100
0001
0010
,
1000
0010
0100
0010
0100
0220
0000
0330
,
0000
0000
1001
0000
0000
0000
1001
0000
0000
0000
0002
0000
0000
0010
0000
0000
,
1003
0000
0010
0000
0100
0000
0010
0000
0100
0000
0020
0000
0000
1000
0000
0000
,
0031
0000
0010
1000
0100
0001
1000
0010
,
0100
0001
0100
0010
0001
0101
0000
1100
,
0000
0000
1001
0000
0000
0000
1001
0000
0000
0000
2000
0000
0000
0010
0000
0000
,
3001
0000
0100
0000
0010
0000
0100
0000
0010
0000
0200
0000
0000
1000
0000
0000
,
0301
0000
1000
0001
0100
1000
0001
0010
,
0100
0000
2000
0000
0000
3200
0000
0000
0302
0000
0023
0000
0000
0230
0000
0000
,
1300
0000
0001
1000
0001
1000
0000
0100
0010
0100
0010
0000
0001
0000
1000
0000
,
0010
0100
0001
0100
0010
1000
0001
1000
,
0001
0000
0010
0100
0010
0100
1000
0100
,
0010
0000
0001
0000
1000
0000
0100
0000
0010
0000
0001
1000
0001
1000
0000
0010
,
0100
0010
0100
0000
0001
0000
0100
0000
1000
0000
0001
0000
0010
0000
1000
0000
,
0100
0000
0110
0000
0000
0000
0110
0000
0000
0000
1100
0000
0000
0101
0000
0000
,
1001
0001
1000
0001
1000
1001
0000
0110
,
0000
2002
0000
0000
0000
0000
0000
0000
,
3003
1001
1001
1001
0110
1000
0000
0001
,
0100
0010
0100
1000
0100
0001
0000
1000
,
0100
0010
0100
0001
0100
1000
0000
0010
,
0100
0001
0100
0010
1000
0001
0000
1000
,
0100
1000
0100
1000
0100
0010
0000
0001
,
0010
0100
0010
1000
0010
0001
0000
1000
,
0010
0100
0010
0001
0010
1000
0000
0001
,
0010
0100
1000
0100
0010
0001
0000
0100
,
0001
0000
0000
0100
0000
0000
0001
0000
0000
0100
0000
0000
0010
0000
0000
1000
0000
0000
0000
0000
0000
0001
0000
0100
,
0000
0001
0000
0100
0000
0010
0000
1000
0000
0010
0000
0100
0000
0001
0000
0010
0000
0000
0000
0000
0000
0001
0000
0010
,
0000
0001
0000
0010
0000
0100
0000
1000
0000
0100
0000
1000
0000
0001
0000
0100
0000
0000
0000
0000
0000
0001
0000
0100
,
0000
0010
0000
1000
0000
0001
0000
1000
0000
0010
0000
0100
0000
0010
0000
1000
0000
0000
0000
0000
0000
0001
0000
0000
,
0010
0100
0010
0001
0010
0100
0000
1000
,
1000
0000
0000
0001
0000
0000
0001
0000
0000
1000
0000
0100
0000
0010
0000
0001
0000
0000
0000
0000
0000
1000
0000
0000
,
1000
0001
0001
0100
0010
0100
0000
1000
,
0100
0000
0000
0001
0000
0000
1001
0000
0000
0001
0000
0100
0000
0010
0000
1000
0000
0000
0000
0000
0000
0100
0000
0000
,
0010
0100
0010
0100
0010
0110
0000
0000
;

//--------------- dance-single - ----------------
#NOTES:
     dance-single:
     :
     Hard:
     15:
     0,0,0,0,0:
0000
0000
0000
0000
,
1010
0000
0000
0000
1010
0000
0000
0000
1001
0000
0000
1000
0000
0000
0020
0000
,
0100
0000
0100
0000
0100
0000
0100
0000
0230
0000
0000
0001
0000
0000
1300
0000
,
0000
1000
0100
0001
0010
0001
1000
0100
,
1000
0010
0100
0010
1010
0000
0101
0000
,
0011
0000
0000
0000
0011
0000
0000
0000
1001
0000
0000
0001
0000
0000
0010
0000
,
0100
0000
0010
0000
0100
0000
0010
0000
0200
0000
0000
1000
0000
0000
0301
0000
,
0000
0001
0100
1000
0010
1000
0001
0100
,
0001
0000
0020
0000
0000
0000
0130
0000
2000
0000
0000
0000
3001
0010
0001
0010
,
0100
0000
0000
0000
1000
0000
0010
0000
0100
0000
0001
0000
1000
0100
0000
1000
,
0001
0000
0000
0000
0001
0000
0100
0000
0010
0000
1000
0000
0001
0010
0000
0001
,
1000
0000
0000
0000
1000
0000
0100
0000
1000
0000
0001
0000
1000
0100
0000
0010
,
0001
0000
1000
0101
1000
0101
1000
0101
,
0010
0000
0000
0000
0100
0000
1000
0000
0010
0000
0100
0000
0001
0010
0000
0001
,
1000
0000
0000
0000
1000
0000
0010
0000
0100
0000
0001
0000
1000
0100
0000
1000
,
0001
0000
0000
0000
0001
0000
0010
0000
0100
0000
1000
0000
0001
0100
0000
0010
,
1000
0000
0001
1100
0001
1100
0001
1100
,
0010
0000
0000
0000
0010
0000
0000
0000
0010
0000
0000
0100
0000
0000
0020
0000
,
0100
0000
0100
0000
0100
0000
0100
0000
0130
0000
0000
0001
0000
0000
1000
0000
,
0000
0001
0100
0010
0100
1000
0100
0010
,
1000
0100
0010
0100
1000
0001
1000
0000
,
0001
0010
0100
0010
0001
0100
1000
0100
,
0001
0000
0010
0000
0100
1000
0000
0000
0001
0000
0000
0000
1000
0000
0010
0000
,
1000
0010
0100
0001
0100
0001
1000
0002
,
0000
0000
0000
0000
0000
1000
1000
1003
1100
0000
0000
0000
0011
0000
0000
0000
,
0001
0000
0000
0010
0000
0000
0100
0000
1000
0000
0001
0000
1000
0000
0001
0000
,
0010
0000
0000
0100
0000
0000
0010
0000
0000
0000
0001
0000
1000
0000
0010
0000
,
1000
0001
0100
1000
0100
0001
1000
0100
,
0001
0100
0010
0000
0001
0000
0000
0000
1000
0000
0100
0000
1000
0000
0001
0000
,
0010
0000
0100
0000
0010
0000
1000
0000
0010
0000
0001
0000
0100
0010
0000
0000
,
1000
0000
0001
0100
1000
0001
1000
0100
,
0010
0000
1000
0000
0001
0000
0010
0000
0100
0000
0001
0000
0100
0010
0000
0000
,
0001
0000
0011
0000
1100
1000
0001
1000
,
0001
0010
0100
0010
0110
1001
0110
0011
,
1100
0000
0000
0000
1100
0000
0000
0000
1001
0000
0000
1000
0000
0000
0200
0000
,
0010
0000
0010
0000
0010
0000
0010
0000
0320
0000
0000
0001
0000
0000
1030
0000
,
0000
1000
0010
0001
0100
0001
1000
0010
,
1000
0100
0010
0100
1100
0000
0011
0000
,
0101
0000
0000
0000
0101
0000
0000
0000
1001
0000
0000
0001
0000
0000
0100
0000
,
0010
0000
0100
0000
0010
0000
0100
0000
0020
0000
0000
1000
0000
0000
0031
0000
,
0000
0001
0010
1000
0100
1000
0001
0010
,
0001
0000
0000
0001
0000
0000
0001
0000
1000
0000
0000
1000
0000
0000
1000
0000
0001
0000
0000
0000
0100
0000
0000
0000
0001
0000
0000
0000
0100
0000
0001
0000
,
1000
0000
0010
0000
1000
0000
0010
1000
0100
0000
0001
0000
0100
0000
0001
0100
,
1000
0000
0010
0000
1000
0000
0010
1000
0001
0000
0100
0000
0001
0000
0100
0001
,
0010
0000
1000
0000
0010
0000
1000
0010
0100
0000
0001
0000
0100
0000
0001
0100
,
1000
0000
0010
0000
1000
0000
0010
1000
0100
0000
0010
0000
0100
0000
0010
0100
,
1000
0000
0001
0000
1000
0000
0001
1000
0010
0000
0100
0000
0010
0000
0100
0010
,
1000
0000
0100
0000
1000
0000
0100
1000
0001
0000
0010
0000
0001
0000
0010
0001
,
0100
0000
1000
0000
0100
0000
1000
0100
0001
0000
1000
0000
1001
0000
1000
0100
,
1000
0100
1000
0000
0001
0000
0010
0000
0100
1000
0100
0000
1000
0000
0001
0000
,
0100
0000
0010
0000
1000
0000
0100
0000
0010
0000
0001
0000
1000
0100
0010
0000
,
0001
0000
0100
0000
0001
0000
1000
0000
0010
0100
0010
0000
1000
0000
0001
0000
,
1000
1100
0000
0110
0000
0011
0000
1001
,
0000
0000
1000
0000
0100
0000
0010
0000
0001
0010
0001
0000
1000
0010
1000
0000
,
0001
0000
1000
0100
0010
0001
1000
0100
0010
0001
2000
0000
0000
0001
3002
0000
,
0000
0000
1003
0000
0010
0000
0100
0000
0001
1000
0010
0000
0100
0000
0001
0000
,
1000
0000
0000
0000
0000
0000
0100
0000
0000
0000
0000
0000
0010
0000
0000
0001
0000
0000
0010
0000
0000
0100
0000
0000
1000
0000
0000
0100
0000
0000
1000
0000
0000
0000
0001
0000
0000
0000
0010
0000
0000
0000
0100
0000
0000
0000
0000
0000
,
0010
0100
2000
0000
0000
3010
0000
0000
0100
0000
0001
0100
0000
0001
1000
0000
,
0100
0000
0010
0001
0000
0010
0100
0000
1000
0000
0100
0000
0010
0000
0001
0000
,
1000
0000
0010
0100
0010
0000
1000
0001
1000
0000
0010
0000
0100
0001
0000
1000
,
0001
1000
0100
0010
0001
1000
0001
0100
,
0010
0000
1000
0000
0100
0000
1000
0000
0100
0000
0010
0001
0010
0000
0100
0000
,
1000
0000
0001
0100
0001
0000
0100
1000
0100
0000
0001
0010
0000
0100
0000
0010
,
0001
0000
1000
0000
0100
0000
0010
0000
0001
0000
1000
0000
0100
0010
0000
0000
,
0001
0100
0010
0100
0010
0220
0000
0000
,
0330
0000
0101
0000
0000
0000
0101
0000
0000
0000
1001
0000
0000
0001
0000
0000
,
0200
0000
0010
0000
0010
0000
0010
0000
0010
0000
0320
0000
0000
1000
0000
0000
,
0031
0000
0001
0010
1000
0100
1000
0001
,
0010
0001
0100
0010
0100
0101
0000
1010
,
0000
0000
1100
0000
0000
0000
1100
0000
0000
0000
1001
0000
0000
1000
0000
0000
,
0100
0000
0010
0000
0100
0000
0010
0000
0100
0000
0020
0000
0000
0001
0000
0000
,
1030
0000
1000
0010
0001
0100
0001
1000
,
0010
0000
1000
0000
0000
1000
0000
0000
1000
0000
0001
0000
0000
0001
0000
0000
,
0001
0000
1000
0100
1000
0100
0000
0010
0001
0010
0001
0000
0010
0000
1000
0000
,
0010
0001
0010
1000
0010
0001
0100
0001
,
0100
0000
0010
1000
0010
1000
0100
0001
,
0100
0000
1000
0000
0100
0000
0001
0000
0100
0000
1000
0010
1000
0010
0000
0100
,
0001
0100
0001
0000
0010
0000
1000
0000
0010
0000
0001
0000
0100
0000
1000
0000
,
0100
0000
1001
0000
0000
0000
1001
0000
0000
0000
1010
0000
0000
0110
0000
0000
,
0101
0001
1000
0001
1000
1001
0000
1001
,
0000
0220
0000
0000
0000
0000
0000
0000
,
0330
0110
0110
0110
1001
0100
0000
0001
,
0010
0000
0100
0000
1000
0000
0001
0100
0000
0001
1000
0000
0000
0000
1000
0000
,
0100
0000
0010
0000
0001
0000
1000
0010
0000
1000
0001
0000
0000
0000
0001
0000
,
0100
0000
0001
0000
1000
0000
0001
0100
0000
0010
1000
0000
0000
0000
0001
0000
,
1100
0001
1100
0001
1100
0010
0000
0100
,
0001
0000
0010
0000
0100
0000
1000
0010
0000
1000
0001
0000
0000
0000
0001
0000
,
0010
0000
0100
0000
1000
0000
0001
0100
0000
0001
1000
0000
0000
0000
1000
0000
,
0010
0000
0100
0000
0001
0000
1000
0100
0000
0010
0001
0000
0000
0000
1000
0000
,
0101
0000
0000
1000
0000
0000
0101
0000
0000
1000
0000
0000
0101
0000
0000
0010
0000
0000
0000
0000
0000
1000
0000
0100
,
0000
1000
0000
0001
0000
0010
0000
0001
0000
1000
0000
0100
0000
0010
0000
0011
0000
0000
0000
0000
0000
0001
0000
0100
,
0000
0001
0000
1000
0000
0100
0000
1000
0000
0001
0000
0100
0000
0010
0000
1010
0000
0000
0000
0000
0000
1000
0000
0100
,
0000
0010
0000
1000
0000
0010
0000
0100
0000
0001
0000
0100
0000
1000
0000
1001
0000
0000
0000
0000
0000
0010
0000
0000
,
0100
0000
0010
0000
0100
0000
0010
0000
0100
0000
0010
0000
0000
0000
1000
0010
,
0100
0000
0000
0000
0000
0000
0001
0000
0000
0100
0000
0000
0010
0000
0000
0000
0000
0000
1000
0000
0000
0000
0100
0000
0000
0000
0010
0000
0000
0000
0110
0000
0000
0000
0000
0000
0000
0000
0000
0000
0000
0000
0001
0000
0000
0010
0000
0000
,
0100
0000
1000
0100
0010
0000
0001
0010
0100
1000
0001
0000
0000
0000
1000
0000
,
1100
0000
0000
0001
0000
0000
0101
0000
0000
0001
0000
0010
0000
0100
0000
1100
0000
0000
0000
0000
0000
0010
0000
0000
,
0100
0010
0100
0010
0100
0110
0000
0000
;

//--------------- dance-single - ----------------
#NOTES:
     dance-single:
     :
     Challenge:
     17:
     0.958318,1.191329,0.439312,0.104598,0.906517,962,899,63,15,0,0,0.958318,1.191329,0.439312,0.104598,0.906517,962,899,63,15,0,0:
0000
0000
0000
0000
,
0011
0000
0000
0000
1100
0000
0000
0000
0011
0000
0000
0001
0000
0000
1000
0000
,
0110
0000
0110
0000
0110
0000
0110
0000
0120
0000
0000
1000
0000
0000
0031
0000
,
0000
0100
0001
0010
0100
1000
0100
0010
,
0100
1000
0001
0100
0110
0000
0110
0000
,
1010
0000
0000
0000
0101
0000
0000
0000
1010
0000
0000
1000
0000
0000
0001
0000
,
0010
0000
0100
0000
0010
0000
0100
0000
0120
0000
0000
0001
0000
0000
1030
0000
,
0000
0100
1000
0010
0100
0001
0100
0010
,
1000
0000
0001
0000
0000
0000
0010
0000
0100
0000
0000
0000
1000
0100
0010
0100
,
1000
0000
0000
0000
0001
0000
0100
0000
0010
0000
0100
0000
0001
0010
0000
0010
,
0100
0000
0000
0000
1000
0000
0100
0000
0010
0000
0100
0000
1000
0010
0000
0010
,
0100
0000
0000
0000
0010
0000
0100
0000
0001
0000
1000
0000
0100
0010
0000
0010
,
0001
0000
0000
0000
1000
0100
1000
0000
1000
0001
1000
0000
1000
0100
1000
0001
,
0010
0000
0000
0000
0100
0000
1000
0000
0010
0000
0100
0000
0001
0010
0000
0010
,
0100
0000
0000
0000
1000
0000
0010
0000
0100
0000
0001
0000
1000
0010
0000
0010
,
0100
0000
0000
0000
0001
0000
0010
0000
1000
0000
0010
0000
0001
0100
0000
0100
,
0010
0000
0000
0000
0100
0010
0100
0000
0100
1000
0100
0000
0100
0001
0010
0100
,
1000
0000
0000
0000
0001
0000
0000
0000
1000
0000
0000
0100
0000
0000
0010
0000
,
1001
0000
1001
0000
1001
0000
1001
0000
1001
0000
0000
0100
0000
0000
0010
0000
,
0000
0000
1000
0000
0100
0000
0010
0000
0100
0000
0010
0001
0100
0010
0100
0001
,
1000
0000
0000
0010
0000
0000
0100
0000
0000
0010
0000
0000
1000
0100
1000
0100
0000
0000
1000
0001
1000
0001
0000
0000
,
0100
0000
0000
1000
0000
0000
0100
0000
0000
0001
0010
0001
0010
0000
0000
0100
0000
0000
1000
0000
0000
0010
0000
0000
,
0001
0000
0000
0000
0000
0000
0010
0000
0000
0000
0000
0000
1000
0000
0000
0002
0000
0000
0000
0000
0000
0000
0000
0000
0013
0000
0100
0000
0010
0000
0100
0000
0000
0000
0000
0000
0010
0000
0001
0000
0010
0000
0001
0000
0000
0000
0000
0000
,
1000
0000
0000
0100
0000
0000
0010
0000
0000
0001
0010
0100
1000
0000
0000
0010
0000
0000
0100
0000
0000
0020
0000
0000
,
0000
0000
0000
0000
0000
0000
0000
0000
0000
0000
0000
0000
0000
0000
0000
0100
0000
0000
0100
0000
0000
0100
0030
0000
0110
0000
0000
0000
0000
0000
0000
0000
0000
0000
0000
0000
0110
0000
0000
0000
0000
0000
0100
0000
0001
0000
0100
0000
,
0001
0000
0000
0010
0000
0000
0100
0000
1000
0000
0001
0000
0100
0000
0001
0000
,
1000
0100
1000
0100
0000
0000
1000
0001
1000
0001
0000
0000
0100
0000
0000
0010
0000
0000
1000
0000
0000
0100
0010
0100
,
0010
0001
1000
0010
0100
1000
0100
0001
,
0010
0000
0000
0100
0000
0000
0010
0000
0000
0000
0000
0000
1000
0000
0000
0000
0000
0000
0000
0000
0000
0000
0000
0000
0010
0000
0000
0000
0000
0000
0001
0000
0000
0000
0000
0000
0100
0000
0000
0000
0000
0000
0010
0000
1000
0000
0010
0000
,
1000
0000
0010
0000
1000
0000
0100
0000
0010
0000
0100
0000
1000
0001
0000
0000
,
0100
0001
0100
0001
0000
0000
1000
0010
1000
0010
0000
0000
0100
0000
0000
0001
0000
0000
0010
0000
0000
0100
0010
0100
,
0010
0000
0001
0000
1000
0000
0001
0000
0100
0000
0100
0000
0010
1000
0000
0000
,
0001
0010
0100
0010
0000
0000
0100
1000
0001
1000
0000
0000
0010
0000
0000
0100
0000
0000
0001
0010
0100
1000
0000
0000
,
0001
0010
0100
0010
1001
0110
1001
0110
,
0120
0000
0000
0000
0100
0000
0000
0000
1030
0000
0001
0010
0000
0100
1000
0000
,
0010
0000
0010
0000
0010
0000
0010
0000
0010
0000
1000
0010
0000
0100
0010
0000
,
0100
0001
1000
0100
0010
0001
1000
0001
,
0010
0100
1000
0100
0110
0000
0110
0000
,
0011
0000
0001
0000
1100
0000
1000
0000
0010
0000
0100
0001
0000
1000
0001
0000
,
1010
0000
0010
0000
0101
0000
0001
0000
1000
0000
0001
0100
0000
0010
0100
0000
,
1000
0100
0001
0100
0010
0001
0010
1000
,
0020
0000
0000
1000
0000
0000
0001
0000
0230
0000
0000
1000
0000
0000
0001
0000
0310
0000
0000
0000
1000
0000
0000
0000
0100
0000
0000
0000
0010
0000
0001
0000
,
0100
0000
0010
0000
1000
0000
0001
0100
0010
0000
1000
0000
0100
0000
0010
0001
,
1000
0000
0010
0000
0100
0000
1000
0100
0010
0000
0100
0000
0001
0000
1000
0100
,
0010
0000
0001
0000
0100
0000
0010
1000
0001
0000
0100
0000
1000
0000
0100
0001
,
0010
0000
0100
0000
0010
0000
0100
1000
0010
0000
0100
0000
1000
0000
0100
0010
,
0001
0000
1000
0000
0100
0000
0001
0010
1000
0000
0010
0000
0001
0000
0100
0010
,
0100
0000
1000
0000
0001
0000
0010
0100
0010
0000
1000
0000
0100
0000
0010
0001
,
1000
0000
0010
0000
0100
0000
0001
1000
0010
0000
0010
0000
0110
0000
0100
0001
,
0100
0000
0000
0001
0000
0000
0100
0000
0000
0010
0000
0000
1000
0000
0000
0100
0000
0000
0010
0000
0000
0100
0000
0000
1000
0000
0100
0000
0010
0000
0001
0000
0000
0010
0000
0000
0100
0000
0000
1000
0000
0000
0010
0000
0000
0100
0000
0000
,
0010
0000
0000
1000
0000
0000
0010
0000
0000
0100
0000
0000
0001
0000
0000
0010
0000
0000
0001
0000
0000
0100
0000
0000
0010
0000
0000
1000
0000
0000
0010
0000
0000
0100
0000
0000
0001
0000
0100
0000
0010
0000
1000
0000
0000
0000
0000
0000
,
1000
0000
0000
0000
0000
0000
0100
0000
0000
0010
0000
0000
0001
0000
0000
1000
0000
0000
0100
0000
0000
0010
0000
0000
0100
0000
1000
0000
0001
0000
0010
0000
0000
0100
0000
0000
1000
0000
0000
0010
0000
0000
0100
0000
0000
0001
0000
0000
,
0100
0000
0000
0010
0000
0000
0100
0000
0000
0010
0000
0000
0100
0000
0000
0010
0000
0000
0100
0000
0000
0000
0001
0000
0000
0000
1000
0000
0000
0000
0001
0000
0000
0000
0000
0000
0010
0000
0000
0000
0000
0000
0100
0000
0000
0000
0000
0000
,
1000
0000
0000
0000
0000
0000
0001
0000
0000
0100
0000
0000
0001
0000
0000
0100
0000
0000
0010
0000
0000
1000
0000
0000
0001
0000
0100
0000
0010
0000
1000
0000
0000
0000
0000
0000
0001
0000
0100
0000
0010
0000
1000
0000
0000
0010
0000
0000
,
0100
0000
0000
0010
0000
0000
1000
0000
0100
0000
0010
0000
0001
0000
1000
0000
0100
0000
0010
0000
0001
0000
1000
0000
0100
0000
0010
0000
0001
0000
2000
0000
0000
0000
0000
0000
0000
0000
0000
0001
0000
0000
3002
0000
0000
0000
0000
0000
,
0000
0000
0000
0000
0000
0000
1003
0000
0000
0001
0000
0000
1000
0000
0000
0010
0000
0000
0100
0000
0000
0001
0000
0000
1000
0000
0100
0000
0010
0000
0001
0000
0000
0010
0000
0000
0001
0000
0000
0010
0000
0000
0100
0000
0000
1000
0000
0000
,
0001
0000
0000
0010
0000
0000
0100
0000
0000
1000
0000
0000
0001
0000
0100
0000
0010
0000
1000
0000
0000
0001
0000
0000
0010
0000
0100
0000
1000
0000
0001
0000
0000
0000
0100
0000
0000
0000
0010
0000
0000
0000
0200
0000
0000
0000
0000
0000
,
0301
0000
0100
0000
0010
0000
2000
0000
0000
0000
0000
0000
0000
0000
0000
3010
0000
0000
0000
0000
0000
0000
0000
0000
0110
0000
0000
0000
0000
0000
0100
0000
0000
0001
0000
0000
0000
0000
0000
1000
0000
0000
0100
0000
0000
0010
0000
0000
,
0100
1000
0100
0010
0000
0100
1000
0000
0001
0000
0100
0000
0010
0000
1000
0000
,
0001
0000
0100
0010
0100
0000
0001
1000
0001
0000
0010
0000
0100
1000
0000
0001
,
0010
0100
1000
0000
0100
0000
0010
0000
0001
0000
1000
0000
0001
0000
0100
0000
,
0010
0000
0000
1000
0000
0000
0100
0000
0000
1000
0000
0000
0100
0000
0000
1000
0100
0010
0001
0000
0000
1000
0000
0000
,
0001
0000
0010
0100
0010
0001
0010
0100
1000
0010
0100
0010
0000
1000
0000
0001
,
0100
0000
1000
0000
0100
0000
0001
0000
1000
0000
0100
0000
0010
0001
0000
0000
,
1000
0000
0010
0000
0100
0000
0010
0000
0100
0000
0010
0100
0010
0100
0010
0100
,
0010
0000
1001
0000
0000
0000
1001
0000
0000
0000
0001
0000
0000
0010
0000
0000
,
0100
0000
0110
0000
0110
0000
0110
0000
0110
0000
0120
0000
0000
1000
0000
0000
,
0031
0000
1000
0100
0010
0001
1000
0100
,
1000
0001
0010
0100
1000
1100
0000
0101
,
0000
0000
1001
0000
0000
0000
1001
0000
0000
0000
1000
0000
0000
0100
0000
0000
,
0010
0000
0011
0000
1010
0000
0011
0000
1010
0000
0020
0000
0000
1000
0000
0000
,
0031
0010
0100
1000
0001
0010
0001
1000
,
0100
0000
0010
0000
0000
0001
0000
0000
0011
0000
1000
0000
0000
0010
0000
0000
,
1010
0000
1000
0010
1000
0010
0000
0100
0001
0100
0001
0000
0100
0000
0010
0000
,
1000
0001
1000
0010
0100
0001
0010
0001
,
0010
0000
0100
1000
0100
1000
0100
0010
,
0001
0000
1000
0000
0001
0000
0010
0000
0100
0000
1000
0100
1000
0100
0000
0010
,
0001
0010
0001
0000
0100
0000
0001
0000
0010
0000
0001
0000
0100
0000
0010
0000
,
0100
0000
0110
0000
1000
0000
0110
0000
0001
0000
0110
0000
0000
1010
0000
0000
,
0101
0001
1000
0001
1000
1001
0010
1001
,
0100
0220
0000
0000
0000
0000
0000
0000
,
0330
0110
0110
0110
1001
1001
0000
1000
,
0100
0000
0010
0000
0100
0000
1000
0010
0000
0010
0100
0000
0000
0000
0001
0000
,
0100
0000
0010
0000
0100
0000
0001
0010
0000
0010
0100
0000
0000
0000
0010
0000
,
0100
0000
1000
0000
0001
0000
0100
0010
0000
0010
1000
0000
0000
0000
0001
0100
,
0001
0000
0001
1000
0001
0000
0001
0100
0001
1000
0010
0000
0000
0000
0100
0000
,
0001
0000
0010
0000
0100
0000
1000
0010
0000
0010
0100
0000
0000
0000
0001
0000
,
0010
0000
0100
0000
1000
0000
0001
0010
0000
0010
0100
0000
0000
0000
1000
0000
,
0010
0000
0001
0000
0010
0000
1000
0100
0000
0100
0010
0000
0000
0000
0100
0010
,
0100
0000
0000
0000
0000
0000
0100
0000
0000
0001
0000
0000
0100
0000
0000
0000
0000
0000
0100
0000
0000
1000
0000
0000
0010
0000
0000
0100
0000
0000
0001
0000
0000
0000
0000
0000
0000
0000
0000
0000
0000
0000
1000
0000
0000
0000
0010
0000
,
0000
0100
0000
0001
0000
0010
0000
0100
0000
0001
0000
1000
0000
0010
0000
0001
0000
0000
0000
0000
0000
1000
0000
0010
,
0000
0100
0000
1000
0000
0001
0000
0010
0000
0100
0000
0001
0000
0010
0000
1000
0000
0000
0000
0000
0000
0001
0000
0100
,
0000
0010
0000
1000
0000
0010
0000
0001
0000
1000
0000
0100
0000
0010
0000
0001
0000
0000
0000
0000
0000
0010
0000
0000
,
0100
0000
0010
0000
0100
0000
0010
0000
0100
0000
0010
0000
0000
0000
0001
0010
,
0001
0000
0000
0010
0000
0000
0100
0000
0000
1000
0000
0000
0100
0000
0000
1000
0000
0000
0001
0000
0000
0000
0100
0000
0000
0000
1000
0000
0000
0000
0100
0000
0000
0000
0000
0000
0000
0000
0000
0000
0000
0000
0010
0000
0000
1000
0000
0000
,
0010
1000
0001
0100
0001
0100
0001
0010
0100
1000
0001
0000
0000
0000
1000
0100
,
0010
0000
0000
0100
0000
0000
1000
0000
0000
0000
0000
0000
1001
0000
0000
0000
0000
0000
0001
0000
0000
0000
0010
0000
0000
0000
0100
0000
0000
0000
1000
0000
0000
0000
0000
0000
0000
0000
0000
0000
0000
0000
0010
0000
0000
0000
0000
0000
,
0100
0010
0100
0010
0100
0110
0000
0000
;
