#TITLE:Bling-Bang-Bang-Born;
#SUBTITLE:;
#ARTIST:Creepy Nuts;
#TITLETRANSLIT:Bling-Bang-Bang-Born;
#SUBTITLETRANSLIT:;
#ARTISTTRANSLIT:Creepy Nuts;
#GENRE:ANIME;
#CREDIT:;
#MUSIC:Bling-Bang-Bang-Born.ogg;
#BANNER:Bling-Bang-Bang-Born.png;
#BACKGROUND:Bling-Bang-Bang-Born-bg.png;
#CDTITLE:;
#SAMPLESTART:63.270;
#SAMPLELENGTH:12.229;
#SELECTABLE:YES;
#OFFSET:0.934;
#BPMS:0.000=157.000;
#STOPS:;
#BGCHANGES:2.750=Bling-Bang-Bang-Born.avi=1.000=0=0=0=StretchNoLoop====,
99999.000=-nosongbg-=1.000=0=0=0=StretchNoLoop====
;
#FGCHANGES:;

//--------------- dance-single - ----------------
#NOTES:
     dance-single:
     :
     Easy:
     8:
     0,0,0,0,0:
0000
0000
0000
0000
,
0000
0000
0000
0000
,
1000
0000
1000
0000
0001
0100
0001
0100
,
0001
0000
0001
0000
1000
0100
1000
0100
,
1000
0000
0001
0000
0100
0010
0100
0010
,
0100
0001
1000
0010
,
1001
0000
0001
0100
1000
0000
0100
0000
,
1001
0000
1000
0100
0001
0000
0100
0000
,
1000
0000
1000
0000
0001
0100
0001
0000
,
0110
0000
0000
0000
,
1000
0000
1000
0100
0010
0000
0100
1000
,
0001
0000
0001
0100
0010
0000
0100
0001
,
2000
3100
0002
0103
,
1100
0101
1100
0101
,
0110
0000
0001
1000
0001
0000
0100
0000
,
0101
1100
0101
0001
,
1100
0000
1000
0001
1000
0000
0010
0000
,
0110
0000
1001
0000
1001
0000
0001
0010
,
0100
0000
0010
0000
0001
0000
1000
0010
,
0100
0000
0010
0000
1000
0000
0001
1000
,
0001
0000
0010
0000
0100
0000
1000
0001
,
1000
0000
0010
0000
0100
0000
0001
0010
,
1000
0010
0001
0101
,
1000
1100
0001
0101
,
1000
0001
0100
1000
,
0001
0000
0010
0000
1000
0001
1000
0000
,
0001
0010
0001
0010
0100
0000
1000
0000
,
1000
0010
1000
0010
0100
0000
0001
0000
,
0001
1000
0001
1000
0100
0000
1000
0000
,
1000
0001
1000
0001
0100
0000
1000
0000
,
0100
0001
1000
0000
0100
0000
0100
1000
,
0001
0000
0000
0000
0100
0000
0000
0000
0010
0000
0000
0010
0000
0000
0010
0000
,
1000
0001
1000
0000
0001
1000
0001
0000
,
0100
0010
0100
0010
0100
0000
0000
0000
,
0001
1000
0001
1000
,
0001
0000
0010
0000
0100
0000
0100
1000
,
0001
0000
0100
0001
1000
0000
0001
0000
,
0101
0010
1100
0010
,
1000
0001
1000
0001
,
1000
0000
0010
0000
0100
0000
0001
1000
,
0100
0000
1000
0001
0100
0000
0200
0000
,
0020
0000
0330
0000
,
0101
1100
0101
1100
,
0101
1100
0101
0000
,
1100
0101
1100
0101
,
1100
0101
1100
0000
,
0101
1100
0101
1100
,
0101
0000
1100
0000
1001
0000
1000
0100
,
1000
0000
0001
0100
0001
0000
0100
0000
,
0020
0100
0100
0130
,
1001
0000
1001
0000
0001
0100
0010
0000
,
0010
0100
0001
0010
0100
0000
0010
0000
,
1001
0000
1001
0000
1000
0100
0010
0000
,
0010
0100
1000
0010
0100
0000
0010
0000
,
1001
0000
1001
0000
0001
0100
1000
0000
,
1000
0100
0001
0010
1000
0000
0010
0000
,
1001
0000
1001
0000
1000
0100
0001
0000
,
0001
0100
1000
0010
0001
0000
0010
0000
,
1000
0001
1000
0001
,
0110
0000
0000
0000
;

//--------------- dance-single - ----------------
#NOTES:
     dance-single:
     :
     Medium:
     12:
     0.692581,0.752726,0.710015,0.144222,0.216333,437,373,64,13,0,0,0.692581,0.752726,0.710015,0.144222,0.216333,437,373,64,13,0,0:
0000
0000
0000
0000
,
0000
0000
0000
0000
,
0001
0000
1000
0000
0001
0000
1000
0000
0100
0000
0000
0100
0000
0000
0100
0000
,
1000
0000
0001
0000
1000
0000
0001
0000
0100
0000
0000
0100
0000
0000
0100
0000
,
0001
0000
0010
0000
0100
0000
1000
0000
0001
0100
0000
0100
0001
0000
1000
0000
,
0100
0000
1000
0000
0010
0000
0100
0000
0001
0000
1000
0100
1000
0000
0000
0000
,
1001
0000
0000
0000
0001
0000
1000
0000
0100
0000
0000
0100
0000
0000
1000
0000
,
0001
0000
0000
0000
1000
0000
0001
0000
0100
0000
0000
0100
0000
0000
0001
0000
,
1000
0010
0001
0010
1000
0001
0010
0100
,
0110
0000
0000
0000
,
1000
0000
0000
1000
0000
0000
0001
0000
0100
0000
0010
0000
0100
0000
0100
0000
,
0001
0000
0000
0001
0000
0000
0010
0000
0100
0000
1000
0000
1000
0000
0010
0000
,
0100
0001
0010
1000
0000
0001
0100
1000
,
1100
0101
1100
0101
,
0110
0000
0002
1000
1003
0000
0100
0000
,
1001
0000
0000
1100
0000
0000
0101
0000
0100
0000
0001
0000
1000
0000
0100
0000
,
0110
0000
0002
1000
1003
0000
0010
0000
,
0110
0000
0000
0101
0000
0000
1100
0000
1001
0000
0001
0000
0010
0000
0100
0000
,
1000
0001
0100
1000
0100
0000
0100
0001
,
1000
0100
0001
0100
1000
0000
0001
0100
,
0001
1000
0001
0010
1000
0000
1000
0010
,
0001
1000
0001
0100
1000
0001
1000
0100
,
0001
0010
0100
1000
0001
0000
0101
0000
,
1000
1100
0001
0101
,
1000
0000
0001
0100
0000
0001
0010
0000
0100
1000
0000
0010
0100
0000
0001
0000
,
0101
0000
0000
1000
0000
1000
0100
0000
0020
0000
0001
0000
0031
0000
0000
0000
,
0010
0100
1000
0001
0101
1000
0001
1000
,
0100
0010
0100
1000
1001
0001
0100
1000
,
0100
0001
1000
0100
0110
0010
0001
1000
,
0010
0001
0010
0100
0101
0001
1000
0100
,
0010
0001
0010
0001
1000
0010
0001
1000
,
0100
0000
0001
0000
0010
0000
0100
0000
1100
0000
0000
1001
0000
0000
0101
0000
,
0110
1000
0010
0100
1001
0010
0100
0010
,
1001
0100
0010
0100
1001
0000
0000
0000
,
0001
0100
1000
0100
0001
0100
1000
0100
,
0001
0010
1000
0000
0010
0000
0001
1000
,
0010
0000
0010
1000
0001
0000
1001
0000
,
2100
0000
3001
0100
0102
0000
1003
0000
,
1000
0100
0001
0100
1000
0100
0001
0100
,
1000
0010
0001
0000
0010
0000
1000
0001
,
0010
0000
0010
0001
1000
0000
0200
0000
,
0020
0000
0000
0000
0330
1000
0001
1000
,
0102
0000
0000
0010
0000
0000
0013
0000
2100
0000
0000
0010
0000
0000
3010
0000
,
0102
0000
0000
0010
0000
0000
0013
0000
0001
0000
1000
0000
0001
0000
0000
0000
,
2010
0000
0000
0100
0000
0000
3100
0000
0012
0000
0000
0100
0000
0000
0103
0000
,
2010
0000
0000
0100
0000
0000
3100
0000
1000
0000
0001
0000
1000
0000
0000
0000
,
0101
0000
0000
1100
0000
0000
0101
0000
1100
0000
0000
0101
0000
0000
1100
0000
,
0101
0000
0000
1100
0000
0000
0101
0000
1100
0000
0000
0000
1000
0000
0100
0000
,
0001
0000
0001
0100
1000
0000
1100
0000
,
0101
0000
0110
0000
1001
0100
0100
0100
,
1001
0000
0000
0000
1001
0000
0000
0000
0001
1000
0000
0100
0000
1000
0001
0000
,
1000
0010
0001
1000
0100
0001
1000
0000
,
1001
0000
0000
0000
1001
0000
0000
0000
1000
0001
0000
0100
0000
0001
1000
0000
,
0001
0010
1000
0001
0100
0110
1001
0000
,
1100
0000
0000
0000
1100
0000
0000
0000
1000
0010
0000
0100
0000
0010
1000
0000
,
0001
0010
1000
0001
1000
0010
0001
0000
,
0101
0000
0000
0000
0101
0000
0000
0000
0001
0100
0000
0010
0000
0100
0001
0000
,
1000
0010
0001
1000
0001
0010
1000
0001
,
1000
0001
1000
0001
,
0110
0000
0000
0000
;

//--------------- dance-single - ----------------
#NOTES:
     dance-single:
     :
     Hard:
     16:
     0.982609,0.94909,1.275807,0.077658,0.726655,620,505,115,7,0,0,0.982609,0.94909,1.275807,0.077658,0.726655,620,505,115,7,0,0:
0000
0000
0000
0000
,
0000
0000
0000
0000
,
1100
0000
0001
0000
1100
0000
0001
0000
0100
0001
0100
0001
1000
0000
0001
0000
,
0101
0000
1000
0000
0101
0000
1000
0001
0100
0001
0100
0001
1000
0000
0100
0000
,
0110
0000
0010
0001
1000
0001
1000
0000
0001
0100
0000
0100
0001
0000
1000
0010
,
0100
0010
1000
0000
0010
1000
0001
0000
0010
0001
0100
0001
0010
0000
0011
0000
,
1100
0000
0000
0000
1001
0000
0001
0100
0001
0100
0010
0100
0001
1000
0100
0000
,
1100
0000
0000
0000
1000
0100
1000
0100
0010
0100
1000
0001
0010
0100
1000
0000
,
0001
0010
0100
0000
0010
0100
1000
0000
0001
0010
0100
1000
0001
0000
1000
0000
,
0001
0100
0010
0000
1000
0010
1000
0010
1000
0000
0001
0100
0001
0100
0001
0000
,
1010
0000
0000
1001
0000
0000
0101
0000
2010
0000
0001
0000
0001
0000
3100
0000
,
0011
0000
0000
1001
0000
0000
1100
0000
0012
0000
1000
0000
1000
0000
0103
0000
,
1010
0000
1000
0100
1000
0000
0001
0000
1000
0000
0001
0100
0001
0000
0010
0000
,
1100
1000
0101
0001
1100
1000
0101
0000
,
0110
0000
0100
0101
1100
0001
0010
0100
,
1100
0000
0000
0101
0000
0000
1100
0000
0101
0000
1000
0000
0010
0000
0100
0000
,
0101
0000
0100
1100
0101
1000
0010
0100
,
0101
0000
0000
1100
0000
0000
0101
0000
1100
0000
1000
0100
1000
0000
0001
0100
,
0001
0000
1000
0010
1000
0010
0100
0001
0010
0000
0100
1000
0100
1000
0001
0100
,
0010
0000
0100
0001
1000
0001
1000
0000
0001
0000
1000
0000
0100
0010
0100
0010
,
0001
0000
1000
0010
1000
0010
0100
0000
0001
0000
1000
0000
0001
0010
0001
0010
,
0100
0000
1000
0001
1000
0001
0100
0000
0010
0000
1000
0000
0001
0010
0100
1000
,
0001
0000
1000
0010
0100
0001
1000
0100
0010
0000
0000
0000
1001
0000
0000
0000
,
0010
0000
0000
0000
1001
0000
0000
0000
0010
0000
0000
0000
1001
0000
0001
0010
,
0100
0000
0010
0001
0000
0010
0100
0000
1000
0001
0000
0100
0010
0100
0001
1000
,
0100
0000
0000
1000
0001
1000
0001
0000
0100
0000
1000
0000
0100
0000
0001
1000
,
0001
0000
0001
0010
0100
1000
0010
0000
0100
0000
0010
0100
0010
0000
1000
0001
,
1000
0000
1000
0100
0010
0001
1000
0000
0010
0000
1000
0000
0100
0010
1000
0010
,
0100
0000
1000
0010
0100
0010
1000
0000
0001
0000
0100
0010
0001
0010
0100
0001
,
1000
0000
0001
0010
0100
1000
0001
0000
0100
0000
0110
0000
1001
0000
1000
0000
,
0001
0100
0001
0100
0001
0010
0100
0000
1000
0000
0001
0100
1000
0000
0100
0001
,
1000
0000
0001
0010
0001
0010
1000
0000
0010
0000
0001
1000
0000
0010
0100
0000
,
0001
0010
1000
0010
0001
0000
1001
0000
1000
0010
0001
0010
1000
0000
1001
0000
,
0110
0000
0001
0010
0100
1000
0001
0000
1001
0000
0000
0000
0110
0000
0000
0000
,
1000
0100
0001
0100
1000
0010
0001
0010
,
1000
0001
0101
0000
1001
0000
0001
1000
,
0101
0000
1000
0001
1100
0000
0110
0000
,
2010
0000
0001
3100
0102
0000
1003
0000
,
0001
0010
1000
0010
0001
0100
1000
0100
,
0001
1000
1001
0000
0110
0000
1000
0001
,
1010
0000
0001
1000
0011
0000
0110
0000
,
2002
0000
0000
0000
3003
1000
0001
1000
,
0001
0010
0000
1100
0000
0000
0101
0000
1000
0010
0000
0101
0000
0000
1100
0000
,
0001
0010
0000
1100
0000
0000
0101
0000
1001
0000
0110
0000
0110
0000
0001
0000
,
1000
0100
0000
0011
0000
0000
1010
0000
0001
0100
0000
1010
0000
0000
0011
0000
,
1000
0100
0000
0011
0000
0000
1010
0000
1001
0000
0110
0000
0110
0000
1000
0000
,
0001
0010
0000
1100
0000
0000
0011
0000
1000
0010
0000
0101
0000
0000
1010
0000
,
0001
0010
0000
1100
0000
0000
0011
0000
0110
0000
0000
0000
0001
0000
1000
0000
,
0101
0000
1000
0001
1100
0000
0110
0000
,
1001
0010
1001
0010
1001
0100
0100
0100
,
1001
0000
0000
0000
1001
0000
0000
0000
0001
1000
0000
0110
0000
0001
1000
0000
,
1100
0010
0101
0010
1001
0100
0010
0000
,
1001
0000
0000
0000
1001
0000
0000
0000
1000
0001
0000
0110
0000
1000
0001
0000
,
0110
0001
0110
1000
0110
0001
1000
0000
,
0110
0000
0000
0000
0110
0000
0000
0000
0001
0010
0000
1001
0000
0100
1000
0000
,
0101
0010
1100
0010
0101
1000
0001
0000
,
0110
0000
0000
0000
0110
0000
0000
0000
1000
0010
0000
1001
0000
0100
0001
0000
,
1100
0010
0101
0010
1100
0001
1000
0020
,
0100
0100
0100
0100
0100
0100
0100
0130
,
0110
0000
0000
0000
;

//--------------- dance-single - ----------------
#NOTES:
     dance-single:
     :
     Challenge:
     18:
     1.171207,1.047271,1.930352,0.133128,0.887518,739,565,174,12,0,0,1.171207,1.047271,1.930352,0.133128,0.887518,739,565,174,12,0,0:
0000
0000
0000
0000
,
0000
0000
0000
0000
,
0101
0000
1000
0000
0101
0000
1000
0000
0001
0010
0100
1000
0001
0000
0011
0000
,
1100
0000
0001
0000
1100
0000
0001
0010
0100
1000
0010
0100
0010
0000
0110
0000
,
1001
0000
0001
0100
0010
0100
0001
0000
1100
0010
0000
0100
0011
0000
0001
0010
,
0100
1000
0001
0000
1010
0001
0100
0000
0011
1000
0100
0010
0100
0000
0110
0000
,
1001
0000
0000
0000
0110
0000
0001
0010
0100
0001
0100
0010
0001
0100
0010
0000
,
0110
0000
0000
0000
1000
0010
0100
1000
0100
0010
1000
0100
0010
1000
0010
0000
,
0100
1000
0010
0000
0100
0001
0010
0000
0100
1000
0010
0100
0001
0000
1001
0000
,
1000
0010
0100
0000
0010
1000
0001
1000
0100
0000
0010
0001
1000
0001
0100
0000
,
0110
0000
0010
1000
0001
0000
0011
0000
2100
0000
0001
0000
0010
0000
3100
0000
,
0110
0000
1000
0001
0100
0000
1010
0000
0102
0000
1000
0000
0010
0000
0103
0000
,
0110
0000
1000
0001
0100
0000
0101
0000
0210
0000
0310
0100
0010
0100
0010
0000
,
0120
0000
0130
0010
0200
0000
0310
0100
0020
0000
0130
0010
0110
0000
0010
0000
,
1001
0000
0001
0100
1000
0000
1100
0000
0201
0000
0010
0000
0001
0000
0310
0000
,
1001
0000
1000
0010
0001
0000
0011
0000
1020
0000
0100
0000
0100
0000
0130
0000
,
1001
0000
1000
0100
0001
0000
0101
0000
1200
0000
0010
0000
1000
0000
0310
0000
,
0101
0010
0000
0000
0110
0000
0110
0000
1001
0000
0001
0010
0100
0000
0010
0100
,
1000
0000
0001
0100
0010
0100
0001
0010
1000
0000
0010
0001
0100
0010
1000
0001
,
0100
0000
0010
1000
0001
0010
0100
0000
1100
0000
0001
0000
1000
0001
0100
0001
,
0100
0000
1000
0100
0001
0100
0001
0000
1100
0000
0011
0000
1000
0001
0010
0100
,
1000
0000
0010
0100
0001
0010
0100
0000
1100
0000
0011
0000
0001
0010
1000
0010
,
0001
0000
0000
0000
1000
0000
0010
0000
0001
0000
0010
0000
1000
0000
0001
0000
1000
0000
0000
0000
0000
0000
0000
0000
0001
0010
0100
0000
0000
0000
0000
0000
,
0110
0000
0000
0000
0000
0000
0000
0000
1000
0010
0100
0000
0000
0000
0000
0000
0110
0000
0000
0000
0000
0000
0000
0000
0001
0010
0100
0000
0010
0000
0001
0000
,
1000
0000
0010
0100
0000
0010
1000
0000
0001
0010
0000
0100
0010
0001
0010
0100
,
0110
0000
0000
1000
0001
1000
0001
0000
0100
0000
0110
0000
0110
0000
0010
1000
,
0001
0000
0001
0010
0001
0100
0010
0000
0110
0000
0010
1000
0001
0000
0001
0010
,
0100
0000
0100
1000
0001
0010
0100
0000
1100
0000
1001
0000
1000
0010
0100
0010
,
1000
0000
1000
0100
0001
0100
1000
0000
1001
0000
0001
0100
0010
0100
0010
1000
,
0001
0000
0001
1000
0100
1000
0001
0000
0010
0000
0011
0000
1100
0000
0001
0000
,
1000
0001
1000
0100
0001
0100
1000
0000
1001
0000
0001
0100
1000
0000
1000
0100
,
0001
0000
1000
0100
0001
0100
1000
0000
1001
0000
0001
0100
0000
0010
0100
0000
,
1000
0100
0001
0010
0100
0000
1001
0000
1000
0001
1000
0100
0001
0100
1000
0000
,
1001
0000
0000
0000
0000
0000
0001
0000
0000
0100
0000
0000
1000
0000
0000
0100
0000
0000
0001
0000
0000
0000
0000
0000
1001
0000
0000
0000
0000
0000
0000
0000
0000
0000
0000
0000
0001
0000
1000
0000
0001
0000
1000
0000
0001
0000
1000
0000
,
0100
0100
0101
0100
1100
0100
0101
0100
,
1100
1000
1001
0001
1001
0000
1010
0110
,
0101
0000
0011
0110
1100
0000
1001
0000
,
2100
0001
0100
3010
0102
1000
0100
0013
,
0011
0010
1010
0010
0011
0010
1010
0010
,
0011
0001
1001
1000
1001
0000
1010
0110
,
0101
0000
0011
0110
1100
0010
1001
0010
,
0110
0000
0000
0000
0000
1000
0001
1000
,
0001
0100
1000
0000
0000
0000
1100
0000
0000
0000
0000
0000
0101
0000
0000
0000
0001
0100
1000
0000
0000
0000
1100
0000
0000
0000
0000
0000
0101
0000
0000
0000
,
0001
0100
1000
0000
0000
0000
1100
0000
0000
0000
0000
0000
0101
0000
0000
0000
1001
0000
0000
0000
1100
0000
0000
0000
0110
0000
0000
0000
1001
0000
0000
0000
,
1000
0100
0001
0000
0000
0000
0101
0000
0000
0000
0000
0000
1100
0000
0000
0000
1000
0100
0001
0000
0000
0000
0101
0000
0000
0000
0000
0000
1100
0000
0000
0000
,
1000
0100
0001
0000
0000
0000
0101
0000
0000
0000
0000
0000
1100
0000
0000
0000
1001
0000
0000
0000
0101
0000
0000
0000
0110
0000
0000
0000
1001
0000
0000
0000
,
0001
0100
1000
0000
0000
0000
0110
0000
0000
0000
0000
0000
1001
0000
0000
0000
1000
0100
0001
0000
0000
0000
0110
0000
0000
0000
0000
0000
1001
0000
0000
0000
,
0001
0100
1000
0000
0000
0000
0110
0000
0000
0000
0000
0000
1001
0000
0000
0000
0110
0000
0000
0000
1010
0000
0000
0000
0011
0000
0000
0000
1001
0000
0000
0000
,
0101
0000
0000
0000
1010
0000
1001
0000
1100
0000
0000
1000
0100
0000
1000
0000
,
1100
0001
0101
0010
1001
0110
0110
0110
,
1001
0000
0100
0000
1001
0000
0100
0000
0011
0100
0000
1100
0000
0100
0011
0000
,
0011
0110
1100
1001
0110
1100
0101
0010
,
1001
0000
0100
0000
1001
0000
0100
0000
1010
0100
0000
0101
0000
0100
1010
0000
,
0011
0000
0001
0010
0100
0000
1000
0010
0100
0000
0110
0000
1001
0000
0010
0000
,
0110
0000
0001
0000
0110
0000
0001
0000
1100
0001
0000
0011
0000
0001
1100
0000
,
0110
1001
0101
1010
0110
1001
0110
0001
,
0110
0000
1000
0000
0110
0000
1000
0000
0101
1000
0000
1010
0000
1000
0101
0000
,
1100
1001
0101
1001
0110
1000
0001
0020
,
0100
0100
0100
0100
0100
0100
0100
0130
,
0110
0000
0000
0000
;
