#TITLE:BlackFlagBreaker!!;
#SUBTITLE:;
#ARTIST:社築 × sasakure.UK;
#TITLETRANSLIT:BlackFlagBreaker!!;
#SUBTITLETRANSLIT:;
#ARTISTTRANSLIT:Yashiro Kizuku x sasakure.UK;
#GENRE:POP;
#CREDIT:;
#MUSIC:BlackFlagBreaker!!.ogg;
#BANNER:BlackFlagBreaker!!.png;
#BACKGROUND:BlackFlagBreaker!!-bg.png;
#CDTITLE:;
#SAMPLESTART:49.351;
#SAMPLELENGTH:12.515;
#SELECTABLE:YES;
#OFFSET:-0.026;
#BPMS:0.000=163.000
,36.000=326.000
,36.500=81.500
,36.667=326.000
,37.250=163.000
,37.750=326.000
,38.000=81.500
,38.167=326.000
,38.500=163.000
,39.000=326.000
,40.000=163.000
,346.000=326.000
,347.250=81.500
,347.500=326.000
,348.000=163.000
;
#STOPS:36.000=0.046
,36.250=0.046
,37.000=0.046
,37.750=0.046
,39.000=0.046
,39.250=0.046
,39.500=0.046
,39.750=0.046
,346.000=0.046
,346.250=0.046
,346.500=0.046
,346.750=0.046
,347.000=0.046
;
#DISPLAYBPM:163.000;
#BGCHANGES:4.500=BlackFlagBreaker!!.avi=1.000=0=0=0=StretchNoLoop====,
99999.000=-nosongbg-=1.000=0=0=0=StretchNoLoop====
;
#FGCHANGES:;

//--------------- dance-single - ----------------
#NOTES:
     dance-single:
     :
     Medium:
     12:
     0,0,0,0,0:
0000
0000
0000
0000
,
0000
0000
0000
0000
,
1000
1000
0001
0001
,
0100
0100
0010
0010
,
1000
0100
1000
0001
0010
0100
1000
0001
,
0100
0001
1000
0010
0110
0000
1001
0000
,
0001
0001
1000
1000
,
0010
0010
0100
0200
,
0301
0010
0001
1000
0100
0010
0001
1000
,
0010
0100
0010
0100
0001
1000
0001
1000
,
0100
0010
0001
1000
0010
0100
0010
1000
,
0001
0101
1000
1100
,
0001
0010
0100
1000
0010
0100
0010
1000
,
0001
0010
0011
0000
1000
0010
1010
0000
,
1000
0001
0010
0001
0100
0010
1000
0001
,
0010
1100
0010
0101
,
1000
0100
1000
0001
0100
0001
1000
0100
,
0010
0100
1000
0001
0100
0010
0100
0001
,
1000
0000
1000
0010
0000
0010
0100
0001
,
0101
0000
1000
1010
0000
0010
1000
0100
,
0010
0100
1000
0010
1000
0100
1000
0001
,
1000
0100
0010
0001
1000
0001
0100
0010
,
1000
0000
0001
0101
0000
0100
0001
1000
,
1100
0000
0010
0110
0000
1000
0001
0100
,
0010
1000
0100
0010
0100
1000
0001
0100
,
0001
0010
0001
0100
0010
0100
0001
0010
,
0100
0000
0000
1001
0000
0000
0100
0000
0000
1001
0000
0000
0000
0000
0000
0000
,
1000
0000
0000
0110
0000
0000
0001
0000
0000
0110
0000
0000
0000
0000
0000
0000
,
0011
0000
0001
0010
0200
0000
1300
0001
,
0200
0000
0310
1000
0002
0000
0013
0100
,
1000
0000
0000
1010
0000
0000
0001
0000
0000
0101
0000
0000
0100
0000
0001
0000
,
0010
0000
0000
0110
0000
0000
1000
0000
0001
0000
0000
1001
0000
0000
0010
0000
,
0100
0000
0000
0101
0000
0000
0011
0000
0000
1100
0000
0000
1001
0000
0000
1010
,
0000
0000
0110
0000
0000
0101
0000
0000
0011
0000
0000
0000
1100
0000
0000
0000
,
1001
0000
0001
0100
0010
0100
0001
1000
,
0001
0010
0100
0010
0011
0000
1010
0000
,
1100
0000
1000
0010
0100
0001
1000
0001
,
1000
0100
0010
0001
0010
0100
1000
0010
,
0101
0000
0010
1100
0000
0010
1000
0001
,
1000
0100
0010
0000
0110
0000
0100
1000
,
0001
0100
0010
0100
0001
0010
0100
0010
,
0001
1000
0010
1001
,
0002
0000
0000
0010
0000
0000
0103
0000
0200
0000
0000
0000
0301
0000
2000
0000
,
0000
3001
0010
0100
1000
0001
0010
0100
,
1000
0000
0001
0000
2000
0000
0000
0000
3020
0000
0000
0100
0000
0000
0230
0000
,
0000
0301
0100
0010
1000
0001
0100
0010
,
2000
0000
0000
3002
0000
0000
0023
0000
0000
0000
0230
0000
0000
0000
1300
0000
,
0020
1000
2030
0100
,
3200
0000
0000
0320
0000
0000
0032
0000
0000
0000
0013
0000
0100
0000
1000
0000
,
0010
0100
0010
1000
0001
0010
0100
1000
,
0001
0000
0000
0001
0000
0000
1000
0000
0000
1000
0000
0000
0000
0000
0000
0000
,
0010
0000
0000
0010
0000
0000
0100
0000
0000
0100
0000
0000
0000
0000
0002
0000
,
0000
0000
1003
0000
0100
0000
1000
0000
0200
0000
0000
0010
0000
0000
0320
0000
,
0000
0032
0000
2003
0000
0000
0000
3010
,
0200
0000
0000
0010
0000
0000
0310
0000
0000
0000
0110
0000
0000
0000
0001
0000
,
0020
0000
0000
0100
0000
0000
0130
0000
0110
0000
0000
1000
0000
0000
0001
0000
,
1001
0000
0000
0000
,
0000
0000
0000
0000
,
1001
0000
0001
0100
0000
0100
0010
0100
,
0000
0100
0001
1000
0000
1000
1001
0000
,
0001
1000
0100
1100
0000
1000
0001
0101
,
0000
0001
0010
0011
0000
1000
0010
0100
,
0110
0000
0000
0101
0000
0000
0011
0000
0000
0110
0000
0000
1100
0000
0000
1001
,
0000
0000
0101
0000
0000
0110
0000
0000
1010
0000
0000
0000
0101
0000
0000
0000
,
1001
0000
0000
0001
0000
0000
0010
0000
0100
0000
1000
0000
0010
0000
1000
0000
,
0100
0010
0100
1000
0101
0000
0011
0000
,
1100
0000
0000
1000
0000
0000
0010
0000
0100
0000
0001
0000
0010
0000
0100
0000
,
0010
0001
0100
0001
0010
0100
1000
0010
,
0110
0000
0010
1001
0000
0001
0010
0100
,
1000
0001
0100
0000
0210
0000
0310
1000
,
0001
0010
0100
0010
0001
1000
0100
0010
,
1100
0000
0101
0000
0010
0100
1001
0000
,
1001
0000
0000
1000
0000
0000
0010
0000
0100
0000
0001
0000
0010
0000
0001
0000
,
0100
0010
0100
0001
1100
0000
1010
0000
,
0101
0000
0000
0001
0000
0000
0010
0000
0100
0000
1000
0000
0010
0000
0100
0000
,
0010
1000
0100
1000
0010
0100
0001
0010
,
0110
0000
0010
1001
0000
1000
0010
0100
,
0001
1000
0100
0000
0210
0000
0310
0000
,
0001
1000
0010
1000
0010
0100
0001
0010
,
0100
1000
0110
0001
0010
0100
1001
0000
,
0101
0001
0010
0100
1000
0010
0100
0001
,
0010
0100
1001
0010
0100
0010
0110
0000
,
0001
0010
0001
0010
0100
1000
0010
1000
,
0010
0100
0001
0010
0000
0100
1000
0010
,
0000
0100
0001
0010
0000
0100
1000
0000
,
0100
0010
0001
0100
0000
0010
1000
0100
,
0000
0010
0001
0100
0010
0100
0110
0000
,
0010
1000
0001
0002
0000
0013
0100
0200
,
0000
1300
0010
0020
0000
0130
0110
0000
,
0010
1000
0100
0010
0001
1000
0001
0010
,
0100
1000
0100
1000
0001
0100
0001
0100
,
0010
0000
0000
0010
0000
0000
1000
0000
0001
0000
0010
0000
0100
0000
1000
0000
,
0000
1001
0000
0000
0000
0000
0000
0000
;

//--------------- dance-single - ----------------
#NOTES:
     dance-single:
     :
     Hard:
     15:
     0,0,0,0,0:
0000
0000
0000
0000
,
0000
0000
0000
0000
,
0001
0100
0001
0100
0010
1000
0001
1000
,
0001
0010
0100
1000
0001
0010
0100
1000
,
0010
0000
0010
0000
0100
0001
0000
0100
0010
0000
1000
0100
0010
0000
0100
0000
,
1000
1000
0001
0001
0110
0000
1001
0000
,
1001
0000
0000
0001
0000
0000
0010
0000
0100
0000
1000
0000
0100
0000
1000
0000
,
0001
0000
0100
0000
0001
0000
0100
0000
0010
1000
0010
1000
0002
0000
0000
0000
,
0013
0100
1000
0100
0010
0100
1000
0001
,
0100
0000
0100
0000
0010
1000
0000
0001
0010
0000
0100
0000
1000
0001
1000
0001
,
0100
0000
0010
0000
0000
0000
0010
0000
1000
0000
0001
0000
0010
0000
0010
0100
,
0000
0100
1000
0000
1000
0001
0000
0100
0000
0100
0001
0000
0001
0010
0000
0010
,
0100
0000
1000
0000
0000
0000
1000
0000
0010
0000
0100
0000
0001
0000
0001
1000
,
0000
1000
0100
0000
0100
0010
0000
0001
0000
0001
1000
0000
1000
0010
0000
0010
,
0100
0000
0001
0000
0000
0000
0001
0000
0100
0000
0010
0000
0010
1000
0000
0100
,
0000
0100
0010
0000
0010
0001
0000
1000
0000
1000
0010
0000
0010
0100
0000
0100
,
0001
0000
1000
0000
0000
0000
1000
0000
0100
0000
0010
0000
0010
0100
0000
1000
,
0000
1000
0001
0000
0001
0100
0000
0010
0000
0010
1000
0000
1000
0001
0000
0001
,
0010
0000
0010
0100
0000
0100
1000
0001
,
0101
0000
1000
1100
0000
0001
0010
0100
,
1000
0000
0001
0010
0100
0000
0010
0000
0001
0010
0100
0000
0010
0000
0001
0000
,
0001
0010
0100
0000
0010
0100
1000
0000
0001
0010
0100
0000
1000
0100
0010
0001
,
1000
0000
1000
1100
0000
1000
0001
0100
,
0101
0000
0010
1010
0000
1000
0001
0100
,
0001
0000
1000
0010
0100
0000
0010
0000
1000
0010
0100
0000
0010
0000
1000
0000
,
1000
0010
0100
0000
0010
0100
0001
0000
1000
0010
0100
0000
0001
0100
0010
1000
,
0001
0000
0000
0011
0000
0000
1000
0000
0000
1010
0000
0000
0000
0000
0000
0000
,
1000
0000
0000
0101
0000
0000
0001
0000
0000
1100
0000
0000
0000
0000
0000
0000
,
1001
0000
0001
1000
2010
0000
3010
0100
,
0102
0000
0013
0100
2100
0000
3010
0100
,
0001
0000
1000
0010
0000
1000
0001
0000
0010
0100
0000
1000
0001
0000
0000
0000
,
1000
0000
0001
0010
0000
0001
1000
0000
0010
0100
0000
0001
1000
0000
0010
0000
,
0100
0010
0000
0010
0100
0000
0100
0010
0000
0010
0100
0000
0100
0010
0000
0010
,
0100
0000
0100
0010
0000
0010
0100
0000
0101
0000
0000
0000
1010
0000
0000
0000
,
1001
0000
0001
0000
0010
0000
0100
0000
1000
0000
0001
0100
0010
0000
1000
0000
,
0100
0010
0100
1000
1010
0000
0101
0000
,
1001
1000
0100
0010
0001
1000
0001
1000
,
0010
0000
0100
0001
1000
0000
1000
0100
0010
0000
0010
0001
1000
0000
0010
0000
,
0101
0000
0010
1100
0000
1010
1000
0001
,
0101
0000
0110
0000
2001
0000
3010
0100
,
0010
0000
0100
0001
1000
0000
0100
0000
0010
0000
0100
1000
0001
0000
0100
0000
,
0010
0000
0100
0001
0010
0000
0100
0000
0010
0001
1000
0001
1000
0000
0000
0000
,
1020
0000
0000
0100
0000
0000
1030
0000
0001
0020
0000
0000
0100
0000
2030
0000
,
0000
0000
3001
0000
0100
0000
0010
0000
0100
0001
1000
0000
1000
0100
0010
0002
,
0000
0000
0100
0000
0203
0000
0000
0000
0320
0000
0000
1000
0000
0000
2030
0000
,
0000
3001
0010
0100
1000
0001
0010
0100
,
2000
0000
0000
3020
0000
0000
0230
0000
0000
0000
0301
0010
0001
0010
0002
0000
,
0000
0000
1003
0100
1000
0100
1000
0100
1000
0100
0010
0001
0010
0001
0010
0001
,
0020
0000
0000
0230
0000
0000
1300
0010
1000
0010
1000
0010
1000
0010
0100
0000
,
0001
1000
0010
0100
0001
0010
0100
1000
,
1100
0000
0000
0011
0000
0000
1100
0000
0000
0011
0000
0000
0000
0000
0000
0000
,
1010
0000
0000
0101
0000
0000
1010
0000
0000
0101
0000
0000
0001
0000
0001
0000
,
0020
0000
0130
1000
0002
0000
0103
0020
,
0000
1030
0010
0200
0000
0001
0000
0301
,
0020
0000
0000
0100
0000
0000
0230
0000
0000
1000
0000
0000
1300
0000
0001
0000
,
0200
0000
0000
0001
0000
0000
0301
0000
1000
0000
0000
0000
1000
0000
0100
0000
,
0110
0000
0000
0000
,
0000
0000
0000
0000
,
1001
0001
0100
0010
0100
0001
0010
0001
,
0100
0001
0010
0001
0100
0001
1001
0000
,
1001
1000
0100
0010
0100
1000
0010
0100
,
0001
0000
1000
0000
0001
0000
1000
0000
0001
1000
0001
1000
0001
1000
0001
1000
,
0100
0010
0000
0010
0100
0000
0100
0010
0000
0010
0100
0000
0100
0010
0000
0010
,
0100
0000
0100
0010
0000
0010
0100
0000
1100
0000
0000
0000
0011
0000
0000
0000
,
1001
0000
0000
0001
0000
0000
0100
0000
0010
0000
1000
0000
0001
0000
0010
0000
,
0100
0000
0010
0001
1000
0000
0010
0100
0001
0000
0000
0000
1001
0000
0000
0000
,
1001
0000
0000
1000
0000
0000
0010
0000
0100
0000
0001
0000
0010
0000
0100
1000
,
0001
0000
0001
0100
0010
0000
0010
1000
0100
0000
0100
0010
0001
1000
0100
0010
,
0001
0000
0000
0011
0000
0000
2100
0000
0000
0000
3010
0000
0100
0000
0010
0000
,
2000
0001
3001
0000
1002
0000
1003
0100
,
0110
1000
0001
1000
0110
0001
1000
0001
,
0110
0000
1000
0010
0100
0000
0010
0000
0100
0001
0100
0001
1000
0000
0100
0000
,
0110
0000
0000
1000
0000
0000
0001
0000
0010
0000
0100
1000
0010
0000
0010
1000
,
0100
0000
0100
0010
0100
1000
0010
0100
0010
0000
0000
0000
1001
0000
0000
0000
,
1001
0000
0000
0001
0000
0000
0010
0000
0100
0000
0010
0001
0100
0000
0100
0001
,
0010
0000
0010
0100
1000
0000
0001
0000
0100
0000
0010
0000
0100
0001
0010
0100
,
1000
0000
0000
1000
0010
0000
0101
0000
0000
0000
0001
0000
0001
0000
1000
0000
,
0100
0000
0010
0100
0010
0000
0001
0000
1000
0000
0010
0000
0100
0000
0001
0000
,
1000
0000
0100
0010
0000
0001
1000
0000
0010
0000
0100
0001
1000
0000
0100
0000
,
0010
0000
0100
1000
0001
0000
0101
0000
0100
0001
0100
0001
0010
0000
0000
0000
,
1100
0000
1000
0001
0000
0010
0100
0000
0010
0000
0001
1000
0010
0000
0100
0000
,
0010
0000
0100
0001
1000
0000
0100
0000
0010
0001
0010
0001
1000
0000
0010
0000
,
1000
0000
0010
0100
0001
0000
0010
0000
0100
1000
0000
0001
0100
0000
0010
0000
,
0100
0001
0010
0110
0000
1000
0010
0110
,
0000
0001
0010
0110
0000
1000
1001
0000
,
0010
1000
0001
0101
0000
0001
1000
1100
,
0000
0000
1000
0000
0010
0000
1000
0000
0001
0100
0001
0100
0001
0100
0000
0000
,
0110
0100
0001
0012
0013
0100
1000
2100
,
3100
0010
0001
0102
0103
0010
1001
0000
,
1000
0000
0010
0100
0010
0000
0100
0001
1000
0000
0100
0010
0100
0000
1000
0000
,
0010
0100
0010
0100
0001
1000
0001
1000
0100
1000
0100
1000
0001
0100
0001
0100
,
0010
0000
0000
0010
0000
0000
1000
0000
0001
0000
0010
0000
0100
0000
1000
0000
,
0000
1100
0000
0000
0000
0000
0000
0000
;

//--------------- dance-single - ----------------
#NOTES:
     dance-single:
     :
     Challenge:
     18:
     1.040026,1.46077,0.392944,0.085733,1.414599,1019,964,55,12,0,0,1.040026,1.46077,0.392944,0.085733,1.414599,1019,964,55,12,0,0:
0000
0000
0000
0000
,
0000
0000
0000
0000
,
0001
0001
1000
1000
,
0001
0001
1000
1000
,
0010
0000
0010
0000
1000
0001
0000
1000
0100
0000
0010
0100
1000
0000
0001
0000
,
0100
0010
1000
0001
0100
0001
0010
0100
0010
0000
0000
0000
0110
0000
0000
0000
,
1001
0000
0000
0001
0100
0000
0010
0000
0100
0000
0001
0010
0000
0100
0010
0000
,
0100
1000
0001
0000
1000
0000
0010
0000
0100
0001
0100
0001
0020
0000
0000
0000
,
0130
1000
0001
0000
0100
0010
1000
0000
0001
0000
0010
0100
0010
0100
1000
0000
,
0001
0100
0001
0000
0010
0100
0000
1000
0010
0000
0100
0001
0010
0100
0010
0100
,
1000
0010
0100
0001
0000
0000
0100
0000
0001
0000
1000
0010
1000
0001
0010
0100
,
0000
0100
1000
0000
1000
0001
0000
0100
0000
0100
0010
0000
0010
1000
0000
1000
,
0100
0010
0001
1000
0000
1000
0010
0100
0010
0000
0010
1000
0001
0010
0100
1000
,
0000
1000
0010
0000
0010
0100
0000
0001
0000
0001
1000
0000
1000
0100
0000
0100
,
0010
0001
1000
0010
0000
0000
0100
0010
1000
0000
1000
0010
0100
0001
0000
0100
,
0000
0100
0001
0000
0001
0010
0000
0100
0000
0100
1000
0000
1000
0010
0000
0010
,
1000
0001
0010
0100
0000
0100
1000
0001
0100
0000
0100
0010
1000
0010
0000
0100
,
0000
0100
0001
0000
1000
0100
0010
0100
0000
0100
1000
0000
0010
0100
0000
0001
,
1000
0000
0010
0100
0000
0001
1000
0100
,
1100
0000
0001
0101
0000
0100
0010
1000
,
1001
0000
0001
0010
0100
1000
0001
0000
0001
0010
0100
1000
0001
0000
1000
0100
,
0010
0000
0100
1000
0001
0000
0100
0000
0001
0100
0010
1000
0001
1000
0100
0010
,
0001
0000
1000
1100
0000
0010
0100
0001
,
0101
0000
0010
0110
0000
1000
0001
0100
,
0101
0000
1000
0010
0100
0001
1000
0000
1000
0010
0100
0001
1000
0000
0010
0000
,
0100
0001
0010
0000
0100
1000
0001
0000
1000
0100
0010
0001
1000
0001
0100
0010
,
1000
0000
0000
0000
0000
0000
0000
0000
0000
1010
0000
0000
0000
0000
0000
0000
0000
0000
0001
0000
0000
0000
0000
0000
0000
0000
0000
1001
0000
0000
0000
0000
0000
0000
0000
0000
1000
0000
0100
0000
0010
0000
0001
0000
1000
0000
0100
0000
,
0010
0000
0000
0011
0000
0000
1000
0000
0000
1010
0000
0000
0000
0000
0000
0000
,
0210
0000
0000
0010
0000
0000
0301
0000
1002
0000
0100
0000
0013
0000
0000
0000
,
0012
0000
0000
0010
0000
0000
1003
0000
2100
0000
0001
0000
3010
0000
0000
0000
,
0010
0000
1000
0100
0000
1000
0010
0000
0100
0001
0010
0000
0110
0000
0000
0000
,
1000
0000
0001
0010
0000
0001
0100
0000
0010
1000
0000
0010
0100
0000
0001
0000
,
0010
0100
0000
0010
0001
0000
0100
0010
0000
1000
0010
0000
0100
0001
0000
0010
,
0100
0000
1000
0010
0000
0100
0010
0000
1001
0000
0000
0100
0010
0000
0100
0000
,
1001
0000
0001
0010
0000
0010
0100
0000
1000
0000
0010
0100
0010
0000
0100
0000
,
0001
1000
0100
0010
0001
0000
1000
0000
1010
0000
0000
0100
0001
0000
0010
0000
,
0110
0000
1000
0010
0000
0010
0100
0000
0001
1000
0100
1000
0001
0000
0100
0000
,
0010
1000
0100
0010
0100
0000
0100
1000
0010
0100
0010
1000
0001
0010
0100
0010
,
0001
0000
1000
0010
0100
0000
0101
0000
0000
0000
1010
0000
0010
0000
0100
0000
,
0101
0010
0110
0000
2001
0000
3010
0100
,
0010
0000
0100
0001
0010
0000
0010
0001
0100
0010
0000
0010
1000
0000
0100
0000
,
0010
0001
0100
0001
0010
0000
0110
0000
0100
1000
0100
0010
0001
0010
0100
0000
,
1200
0000
0000
0010
0000
0000
1300
0000
0002
0010
0000
0000
1000
0000
0203
0000
,
0000
0000
0000
0000
0000
0000
0301
0000
0000
0000
0000
0000
0001
0000
0010
0000
0100
0000
0010
0000
0001
0000
0010
0000
0100
0000
0000
1000
0000
0000
0010
0000
0000
0100
0000
0000
0010
0000
0000
1000
0000
0000
0100
0000
0000
0020
0000
0000
,
0000
0000
0000
0000
0000
0000
0031
0000
0100
0000
0010
0000
2000
0000
0000
0000
0000
0000
0000
0000
0000
0000
0000
0000
3020
0000
0000
0000
0000
0000
0000
0000
0000
0100
0000
0000
0000
0000
0000
0000
0000
0000
0230
0000
0000
0000
0000
0000
,
0000
0000
0000
0301
1000
0010
0100
0010
1000
0001
0000
0000
0010
0100
0010
0001
0100
0001
0100
0010
1000
0001
0010
0100
,
2000
0000
0000
0000
0000
0000
0000
0000
0000
3200
0000
0000
0000
0000
0000
0000
0000
0000
0320
0000
0000
0000
0000
0000
0000
0000
0000
0000
0000
0000
0031
0000
0100
0000
0001
0000
0100
0000
0001
0000
0100
0000
0020
0000
0000
0000
0000
0000
,
0000
0000
0000
1030
0100
1000
0100
1000
0100
1000
0100
1000
0001
0100
0001
1000
0100
1000
0001
0100
0001
1000
0100
0010
,
0002
0000
0000
0000
0000
0000
0000
0000
0000
0103
0000
0000
0010
0000
0000
0000
0000
0000
1000
0000
0010
0000
0100
0000
0010
0000
0100
0000
0010
0000
0100
0000
0000
0001
0000
0000
0010
0000
0000
0100
0000
0000
1000
0000
0010
0000
0100
0000
,
0010
1000
0001
0100
0010
0100
0001
0010
0100
0000
0100
1000
0001
0000
0100
0000
,
1010
0000
0000
0000
0000
0000
0000
0000
0000
0101
0000
0000
0000
0000
0000
0000
0000
0000
1010
0000
0000
0000
0000
0000
0000
0000
0000
0101
0000
0000
0000
0000
0000
0000
0000
0000
0001
0000
0010
0000
0100
0000
1000
0000
0001
0000
0010
0000
,
0100
0000
0000
0011
0000
0000
1100
0000
0000
0011
0000
0000
0001
0010
0001
0010
,
0200
0000
1300
0001
0200
0000
0310
2000
,
0000
3001
0010
0002
0000
1000
0000
0103
,
0020
0000
0000
1000
0000
0000
0230
0000
0000
0001
0000
0000
0301
0000
0010
0000
,
0200
0000
0000
1000
0000
0000
0310
0000
0001
0100
0000
0001
1000
0000
0010
0000
,
0110
0000
0000
0000
,
0000
0000
0000
0000
,
1001
0000
0001
0100
0000
0100
0010
0100
,
0000
0100
0001
1000
0000
1000
0100
0000
,
0100
0010
0100
1000
0001
0100
0001
1000
,
0100
0000
0000
1000
0000
0000
0010
0000
0000
1000
0000
0000
0100
0000
0000
1000
0000
0000
0010
0000
0000
0100
0000
0000
0001
0000
1000
0000
0001
0000
1000
0000
0001
0000
1000
0000
0100
0000
0010
0000
0001
0000
1000
0000
0100
0000
0010
0000
,
0001
1000
0000
0010
0100
0000
0001
0010
0000
0100
1000
0000
0010
0100
0000
0010
,
1000
0000
0001
0010
0000
0100
0010
0000
0110
0000
0000
0000
1001
0000
0000
0000
,
1100
0000
1000
0010
0100
0000
0010
0000
0100
0001
1000
0000
0001
0000
0010
0100
,
0010
0000
0100
1000
0010
1000
0001
0010
0100
0000
0010
0000
1001
0000
0000
0000
,
0011
0000
0001
0010
0100
0000
0010
0000
0001
1000
0010
0000
0100
0000
0001
0010
,
0100
0010
0001
1000
0010
0100
0001
1000
0001
0100
0010
0100
0001
1000
0100
0010
,
0001
0000
0000
1100
0000
0000
0101
0000
0000
0001
1000
0000
0010
0000
0100
0001
,
0020
0000
0000
0100
0000
0000
0130
1000
0020
0000
0100
0000
1000
0000
0130
0000
,
0101
0000
0001
0010
0000
0010
0100
0000
1100
0000
1000
0010
0000
0010
0100
0000
,
0101
0000
0000
0000
0000
0000
0001
0000
0000
0010
0000
0000
0100
0000
0000
0000
0000
0000
1000
0000
0000
0000
0000
0000
0001
0000
0010
0000
0001
0000
0010
0000
0001
0000
0010
0000
0100
0000
0000
0000
0000
0000
1000
0000
0000
0000
0000
0000
,
1001
0000
0000
0001
0010
0000
0100
0000
0010
0100
0010
0001
0010
0100
1000
0010
,
0100
0000
0000
0010
0000
0000
1000
0000
0000
0010
0000
0000
0100
0000
0001
0000
0010
0000
0100
0000
0010
0000
0001
0000
1000
0000
0000
0000
0000
0000
0000
0000
0000
0010
0000
0000
0100
0000
0000
0000
0000
0000
0010
0000
0000
0000
0000
0000
,
1001
0000
0000
1000
0010
0000
0100
0000
0010
1000
0010
0100
0010
1000
0001
0010
,
0100
0010
0001
0010
0100
1000
0001
0100
0010
0100
0001
0010
0100
1000
0100
0010
,
0001
0000
0100
0010
0100
0000
1010
0000
1000
0000
0001
1000
0001
0000
0010
0000
,
0100
1000
0100
1000
0100
1000
0001
0010
0100
1000
0001
0010
0001
0010
0001
0010
0100
1000
0001
1000
0001
1000
0001
0010
,
0100
0000
0000
0000
0000
0000
1000
0000
0000
0010
0000
0000
0000
0000
0000
0010
0000
0000
0100
0000
0001
0000
0100
0000
0001
0000
0100
0000
0001
0000
1000
0000
0010
0000
0100
0000
0001
0000
1000
0000
0010
0000
1000
0000
0010
0000
1000
0000
,
0001
0000
0001
0010
0100
0000
0110
0000
0010
0001
0010
0001
1100
0000
0010
0000
,
1001
0000
0000
0000
0000
0000
0001
0000
0000
0010
0000
0000
0100
0000
0000
0000
0000
0000
1000
0000
0100
0000
1000
0000
0001
0000
0100
0000
0001
0000
1000
0000
0100
0000
1000
0000
0010
0000
0100
0000
0010
0000
1000
0000
0001
0000
0010
0000
,
0100
0000
1000
0001
0100
0000
0110
0000
0010
1000
0010
1000
0101
0000
0001
0010
,
0100
0000
0010
0100
1000
0000
0010
0000
0100
0001
0000
1000
0100
0000
0010
0000
,
1100
0000
1000
0010
0100
0000
0010
0000
0100
0000
0001
0010
0100
0000
0010
0000
,
0100
0000
1000
0010
0100
0000
0010
0000
0100
0001
0010
0100
1000
0010
0100
0001
,
0010
0000
0100
1000
0010
0000
0100
0000
0010
0000
0100
0001
0010
0000
0100
0000
,
1000
0010
0100
0001
0010
0100
1000
0000
0001
0100
0001
0100
0001
0010
0000
0000
,
0110
0000
0100
1000
0001
0000
0201
0000
0000
0000
0310
1000
0001
0000
0021
0000
,
0000
0000
0031
1000
0010
0000
1020
0000
0000
0000
0130
0000
0110
0000
0010
0000
,
1000
0100
0010
0001
1000
0010
0100
0001
1000
0100
0010
0001
1000
0010
0100
0001
,
1000
0100
1000
0001
1000
0100
1000
0001
0100
0001
1000
0001
0100
0001
1000
0100
1000
0001
0100
0001
1000
0100
1000
0001
,
0010
0000
0000
0110
0000
0000
0100
1000
0001
0000
0100
0010
0100
0001
0000
0010
,
0000
0100
1000
0000
1000
0010
0000
0100
0000
0001
1000
0000
0100
0010
0000
0110
;
