#TITLE:Black Glow;
#SUBTITLE:;
#ARTIST:Albemuth;
#TITLETRANSLIT:Black Glow;
#SUBTITLETRANSLIT:;
#ARTISTTRANSLIT:Albemuth;
#GENRE:POP;
#CREDIT:;
#MUSIC:Black Glow.ogg;
#BANNER:Black Glow.png;
#BACKGROUND:Black Glow-bg.png;
#CDTITLE:;
#SAMPLESTART:51.015;
#SAMPLELENGTH:12.000;
#SELECTABLE:YES;
#OFFSET:1.485;
#BPMS:0.000=160.000;
#STOPS:;
#LASTBEATHINT:1.218645;
#BGCHANGES:8.000=Black Glow.avi=1.000=0=0=0=StretchNoLoop====,
99999.000=-nosongbg-=1.000=0=0=0=StretchNoLoop====
;
#FGCHANGES:;

//--------------- dance-single - ----------------
#NOTES:
     dance-single:
     :
     Medium:
     13:
     0,0,0,0,0:
0000
0000
0000
0000
,
0000
0000
0000
0000
,
0000
0000
0000
0000
,
0000
0000
0000
0000
,
0000
0000
0000
0000
,
0000
0000
0000
0000
,
0000
0000
0000
0000
,
1000
0100
0010
0001
0000
0001
0100
0000
,
0001
0100
0010
1000
0000
1000
0100
0000
,
1000
0001
0100
0010
0000
1000
0001
0000
,
0010
0100
1001
0110
,
1001
0000
0001
1000
0010
0100
0010
1000
,
0001
0000
0001
0010
0000
0000
1100
0000
,
1001
0000
1000
0010
0100
0010
1000
0001
,
0010
0000
0100
2000
0000
0000
3010
0000
,
0100
0000
0001
1000
0100
0010
0100
1000
,
0001
0000
0100
1000
0000
0100
0010
0000
,
0100
0000
0100
0001
0000
0001
0010
0000
,
0100
1000
0001
1000
1100
0000
0100
1000
,
0001
0000
1000
0100
0001
0100
0010
0100
,
0000
0100
1000
0000
1000
0010
0100
0001
,
0101
0000
0100
0001
1000
0010
0001
1000
,
0100
0010
1000
0100
0020
0000
0130
0000
,
1100
0000
1000
0010
0100
1000
0100
0001
,
0000
0001
0010
0100
0001
0100
1000
0010
,
0000
0100
0001
1000
0000
0001
0100
0010
,
0100
0001
0010
0100
2000
0000
3001
0000
,
0101
0101
1100
0101
,
0001
0010
0100
1000
0001
0010
0100
1000
,
1100
1100
1010
0101
,
0001
0100
0010
1000
0001
0100
0010
1000
,
0001
0100
0010
0100
0001
0010
0001
1000
0100
0010
0100
1000
,
0010
1000
0001
0010
0100
0010
0001
0100
0001
1000
0010
0100
,
0020
2030
3002
0013
,
1100
0000
0000
0011
0000
0000
0001
1000
0010
0110
0000
0000
,
1001
0000
1000
0010
0000
0010
0100
0000
0001
0000
0000
0001
,
0010
0000
0010
0100
0000
0000
1001
0000
0001
0100
0000
0100
,
0010
0000
0010
1000
0000
0001
0010
0000
0010
0100
0000
1000
,
0001
0000
0000
0100
0000
0000
1000
0000
0100
0010
0000
1000
,
0001
0000
0000
0011
0000
0000
1000
0000
0000
1100
0000
0100
,
0010
0000
0001
1000
0000
0000
1010
0000
0000
0101
0000
0001
,
1000
0011
1100
0101
,
1010
0000
0000
0101
0000
0001
0010
0000
0010
0100
0000
0000
,
1100
0000
1000
0010
0000
0000
0100
0001
1000
0000
0000
0001
,
0010
0000
0010
0100
0000
0100
1000
0000
1000
0001
0000
0000
,
1001
0000
0000
1001
0000
0000
1000
0010
0100
0001
0000
1000
,
0100
0010
0000
0110
0000
0000
0001
0100
0000
0110
0000
0000
,
1001
0000
0001
0100
0000
1000
0100
0000
0001
0100
0000
1000
,
0100
0010
0100
1000
0100
0001
1000
0000
0100
0010
0000
0000
,
0021
0130
1020
0130
,
1001
0000
1000
0100
0000
0100
0001
0000
0001
0100
0000
0100
,
2000
0000
0000
0000
3001
0010
0100
1000
,
0100
0020
0000
0000
0031
0000
1000
0000
,
0001
0200
0000
0000
0310
0000
0110
0000
,
1000
0000
0000
0001
0000
0000
0001
0000
0100
0000
0000
1000
0000
0000
1000
0000
,
0100
0001
2000
0000
0000
3001
0010
0100
,
1000
0002
0000
0000
1003
0000
1000
0000
,
0010
0200
0000
0000
0301
0000
0001
0000
,
0010
0200
0000
1000
2300
0000
3010
0100
,
0010
0000
0010
1000
0100
0001
0100
1000
,
1100
1001
0101
1001
,
1000
0001
0100
1000
0100
0001
0011
0000
,
1100
1010
0101
0011
,
0001
0100
1000
0100
0001
0010
0001
1000
0100
0001
0100
1000
,
0010
1000
0001
0010
1000
0010
0001
0100
0001
1000
0010
0001
,
0020
2030
3002
0023
,
0130
1000
0010
0100
0001
0010
0210
0000
0000
0310
0000
0000
,
1001
0000
0001
0010
0000
0010
0100
0000
1000
0000
0000
0010
,
0100
0000
0100
0001
0000
0000
1001
0000
0001
0010
0000
0010
,
0100
0000
0001
0100
0000
0100
1000
0000
0010
0100
0000
0100
,
0010
0000
0000
1001
0000
0000
0110
0000
1000
0010
0000
0100
,
0001
0000
0000
0011
0000
0000
1100
0000
0000
1001
0000
0010
,
0100
0000
0000
0110
0000
0000
1010
0000
0010
0100
0000
0001
,
1000
0011
1100
1010
,
0101
0000
0000
1010
0000
0000
1000
0001
0100
0110
0000
0000
,
1010
0000
0100
0001
0000
0000
0001
0010
2000
0000
0000
3001
,
0100
0000
0100
1000
0000
1000
0010
0000
0010
0100
0000
0000
,
0110
0000
0000
0110
0000
0000
0001
0100
1000
0100
0000
0100
,
0001
0010
0000
0110
0000
0000
1000
0010
0000
0110
0000
0000
,
1001
0000
1000
0010
0000
0001
0010
0000
1000
0010
0000
0001
,
0010
1000
0001
0100
1000
0001
0010
0000
0010
0100
0000
0000
,
1002
0103
2001
3100
,
1001
0000
1000
0010
0000
0010
0100
0000
0100
0001
0000
0000
,
0101
1000
0110
0001
,
1010
0000
0000
0011
0000
0000
0001
0010
0100
1000
0010
0100
,
0102
0013
2100
3010
,
1001
0000
0001
0100
0000
1000
0100
0000
0001
0010
0000
0000
,
0110
0000
0000
0000
1001
0000
0000
0000
0001
0000
0000
1000
0000
0000
0001
0000
,
0200
0000
0020
0000
,
0330
0000
0000
0000
;

//--------------- dance-single - ----------------
#NOTES:
     dance-single:
     :
     Hard:
     15:
     0,0,0,0,0:
0000
0000
0000
0000
,
0000
0000
0000
0000
,
0000
0000
0000
0000
,
0000
0000
0000
0000
,
0000
0000
0000
0000
,
0000
0000
0000
0000
,
0000
0000
0000
0000
,
1000
0100
0010
0001
0000
0001
0100
0000
,
0001
0100
0010
1000
0000
1000
0100
0000
,
0010
0001
1000
0010
0000
0010
0100
0000
,
0101
1100
1001
0110
,
1001
0000
0001
1000
0010
0100
0010
1000
,
0001
0000
0010
0000
0100
1000
0000
0000
1000
0010
0000
0000
0010
0100
0000
0000
,
0101
0000
1000
0001
0010
0100
1000
0100
,
0010
0000
0001
0000
0100
0010
0000
0000
0010
1000
0000
0000
1000
0100
0000
0000
,
1100
0000
0001
0100
1000
0100
0001
0010
,
0100
0000
0010
0000
0001
1000
0100
0000
0001
0000
0100
0000
1000
0001
0000
0000
,
1001
0000
0000
0000
1000
0000
0001
0010
0100
0000
1000
0000
0010
0000
0000
0000
,
0010
0000
1000
0000
0001
0010
0100
0000
1000
0000
0100
0000
0010
0001
1000
0000
,
0001
0000
0100
0010
0100
0000
1000
0000
0100
0000
0001
0000
1000
0000
0100
0010
,
0100
0000
0010
0001
1000
0000
0001
0000
0100
0000
0010
0000
1000
0001
0010
0000
,
0011
0000
0000
0000
1000
0000
0010
0100
0010
0000
0001
0000
1000
0000
0100
0010
,
0100
0000
0001
1000
0100
0000
0010
0000
0100
0000
1000
0000
1100
0000
0000
0000
,
0011
0000
0001
0010
0100
0000
1000
0000
0100
0000
0001
0000
0100
0000
1000
0010
,
0100
0000
0010
1000
0001
0000
0010
0000
1000
0000
0010
0000
0001
0100
0010
0000
,
0100
0000
0001
0010
0100
0000
2000
0000
0000
0000
3010
0000
0100
0000
1000
0100
,
0010
0000
1000
0001
0010
0000
0100
0000
1000
0000
0001
0000
0100
0001
1000
0000
,
1100
0000
0011
0000
1100
0000
1001
1000
,
0001
0100
1000
0100
0002
0000
1003
0000
,
0001
0000
0010
0100
0010
0000
0001
0000
1000
0000
0010
0100
0010
0000
1000
0000
,
0001
0000
0010
0100
0010
0000
0001
0000
1000
0000
0010
0100
0010
0000
1000
0000
,
0001
0100
0001
1000
0100
1000
0001
0010
0001
1000
0010
1000
,
0001
0100
1000
0100
0010
0100
0001
0010
1000
0010
0100
0010
,
0001
0100
0100
1000
0010
0010
0001
0100
0100
1000
0010
0010
,
0002
0000
0000
2003
0000
0000
3010
0100
0010
0110
0000
0000
,
1001
0000
1000
0100
0000
0010
0100
0000
1100
0000
0000
0001
,
0100
0000
0001
0010
0000
0100
1000
0010
0100
0001
0000
0001
,
0010
0000
0100
0010
0000
1000
0010
0000
0010
0001
0000
0001
,
1000
0000
0010
0100
0001
0010
0001
0000
1000
0010
0000
0010
,
0100
0000
0001
0010
0000
0000
1100
0000
1000
0010
0000
0001
,
0010
0000
1000
0100
0010
0001
1000
0000
1000
0010
0000
0010
,
0100
0000
0001
0010
0000
1000
0010
0000
0001
0100
0000
1000
,
0100
0000
0001
0010
0000
0100
1000
0010
0100
0001
0010
0100
,
1000
0000
0100
1000
0000
0001
0010
0100
1000
0010
0000
0100
,
0001
0000
0100
0010
0000
0100
1000
0100
0001
0100
1000
0100
,
0001
0000
0100
0001
0000
1000
0100
0010
0100
1000
0100
0001
,
0100
1000
0001
0101
0000
0001
1000
0100
1000
1100
0000
0001
,
0100
0000
1000
0100
0000
0001
0100
0000
1000
0100
0000
0001
,
0100
0100
1000
0100
0100
0001
0100
0100
1000
1001
0000
0000
,
0011
1100
1010
0101
,
1001
0000
0001
0100
0000
0100
0010
0000
0010
1000
0000
1000
,
0002
0000
0000
0000
1003
0100
0010
0001
,
0010
0200
0000
0000
1300
0000
0001
0000
,
0100
0020
0000
0000
1030
0000
0001
0000
,
0102
0000
0000
0100
0000
0000
0103
0000
2100
0000
0000
0100
0000
0000
3100
0000
,
1001
0010
0200
0000
0000
0301
0010
0100
,
1000
0002
0000
0000
2003
0000
3020
0000
,
0130
0002
0000
0000
2003
0000
3200
0000
,
0310
0000
0002
0000
0000
0000
1003
0000
0010
0000
0100
0000
0001
1000
0001
0000
,
0010
0000
0100
1000
0010
0000
0100
0000
0001
0000
0001
0000
1000
0000
0001
0010
,
0100
0000
1000
0100
0010
0000
0001
0000
1000
0000
0010
0000
0100
0001
1000
0000
,
0001
0000
1000
0100
0010
0000
0001
0000
1000
0000
1000
0000
0001
0000
1000
0010
,
0100
0000
0001
0100
0010
0000
1000
0000
0001
0000
0010
0100
1000
0000
0001
0000
,
1000
0100
1000
0001
0100
0001
0010
1000
0010
0100
1000
0001
,
0100
0010
0001
0010
0100
0001
1000
0001
0010
1000
0001
0100
,
1000
0001
0100
0100
1000
0100
0100
0001
0010
0010
1000
0010
,
0010
0001
1000
0010
0100
0010
0200
0000
0000
0310
0000
0000
,
1001
0000
1000
0100
0000
0100
1000
0000
1000
0001
0000
0001
,
0100
0000
0100
1000
0000
1000
0100
0001
0010
0100
1000
0001
,
0100
0000
0001
0010
0000
0010
0001
0000
0001
0010
0000
0010
,
1000
0000
1000
0010
0000
0010
0001
1000
0001
1000
0010
0100
,
0001
0000
1000
0010
0000
0010
0100
0000
0100
0001
0000
0001
,
1000
0000
1000
0001
0000
0010
0100
0000
0100
1000
0001
0100
,
0001
0000
1000
1100
0000
0001
0101
0000
1000
1100
0000
0001
,
0101
0000
1000
1100
0000
0001
0100
0010
0100
0110
0000
0000
,
1001
0000
0010
1001
0000
0001
0100
0010
0100
0001
0010
0100
,
0010
0001
1000
0001
0100
0010
1000
0001
1000
1100
0000
0001
,
0110
0000
1000
0110
0000
1000
0001
0100
0010
0100
0010
0001
,
1000
0100
0001
0101
0000
1000
0001
0010
0100
1100
0000
0001
,
0101
0000
1000
1100
0000
0001
0101
0000
1000
1100
0000
0001
,
0010
1000
0001
0100
1000
0001
0100
1000
0001
0010
1000
0001
,
1002
0103
2001
3100
,
1001
0000
1000
0010
0000
0100
0001
0010
0100
1000
0000
0001
,
0101
1000
1100
0001
,
0110
0000
1000
0010
0000
0100
0001
0010
0100
1000
0001
0100
,
0102
0013
2100
3010
,
1001
0000
0001
0100
0000
1000
0100
0001
0010
0100
1000
0001
,
0101
0000
0000
0000
1001
0000
0000
0000
1000
0000
0000
1000
0000
0000
0001
0000
,
0200
0000
0020
0000
,
0330
0000
0000
0000
;

//--------------- dance-single - ----------------
#NOTES:
     dance-single:
     :
     Challenge:
     18:
     0.992249,1.119702,0.92061,0.194601,1.384658,928,805,123,26,0,0,0.992249,1.119702,0.92061,0.194601,1.384658,928,805,123,26,0,0:
0000
0000
0000
0000
,
0000
0000
0000
0000
,
0000
0000
0000
0000
,
0000
0000
0000
0000
,
0000
0000
0000
0000
,
0000
0000
0000
0000
,
0000
0000
0000
0000
,
1001
0010
0100
0010
0000
1000
0001
0000
,
0011
0010
0100
1000
0000
0001
0100
0000
,
2010
0001
0100
0010
0000
0010
3001
0000
,
0110
0110
1001
0110
,
0001
0010
0100
1000
0010
0100
0010
1000
,
0001
0000
0000
1000
0000
0000
0001
0010
0001
0010
0000
0000
0100
0000
0000
1000
0000
0000
0010
0100
0010
0100
0000
0000
,
0001
1000
0010
0100
0001
1000
0100
0010
,
0100
0000
0000
1000
0000
0000
0001
0100
0001
0100
0000
0000
0010
1000
0010
1000
0000
0000
0001
0010
0100
1000
0000
0000
,
0100
0010
0001
1000
0110
0001
0010
0100
,
1000
0000
0000
0001
0000
0000
0100
0010
0100
0010
0000
0000
1001
0000
0000
1000
0000
0000
0010
0100
0010
0100
0000
0000
,
0001
0000
0000
0100
0000
0000
0010
0000
0000
1000
0001
0100
0001
0000
0000
0010
0000
0000
0100
0000
0000
1000
0000
0000
,
0001
0000
0000
0100
0000
0000
0001
1000
0100
1000
0000
0000
1100
0000
0000
0101
0000
0000
0001
0010
0100
1000
0000
0000
,
1010
0000
0000
0000
0010
0000
0100
0000
0001
0000
0000
0000
0200
0000
0000
0000
0010
0000
0000
0000
0301
0000
0000
0000
0011
0000
0000
0000
0010
0100
0010
0100
,
1000
0000
0000
0000
0001
0000
0100
0000
0110
0000
0000
0000
0020
0000
0000
0000
0100
0000
0000
0000
1030
0000
0000
0000
0001
0100
0001
0100
0010
0000
0000
0000
,
1001
0000
0000
0000
1000
0000
0010
0000
0100
0000
0000
0000
0020
0000
0000
0000
1000
0000
0000
0000
0130
0000
0000
0000
0101
0000
0000
0000
0001
0010
0001
0010
,
0100
0000
0000
0000
1000
0000
0100
0000
0010
0000
0000
0000
0100
0000
0000
0000
1100
0000
0000
0000
1000
0000
0000
0000
0010
0100
0010
0100
0001
0000
0000
0000
,
0101
0000
0000
0000
0100
0000
0001
0000
1000
0000
0000
0000
0020
0000
0000
0000
0100
0000
0000
0000
1030
0000
0000
0000
1100
0000
0000
0000
0100
1000
0100
1000
,
0001
0000
0000
0000
0100
0000
0010
0000
0110
0000
0000
0000
1000
0000
0000
0000
0001
0000
0000
0000
0100
0000
0000
0000
0010
1000
0010
1000
0001
0000
0000
0000
,
1001
0000
0000
0000
1000
0000
0100
0000
0010
0000
0000
0000
0200
0000
0000
0000
1000
0000
0000
0000
0310
0000
0000
0000
0001
0000
0000
0000
1000
0010
1000
0010
,
0100
0000
0000
0000
0001
0000
0010
0000
0100
0000
0000
0000
1000
0000
0000
0000
1100
0000
0000
0000
0001
0000
0000
0000
0100
0001
0100
0001
1000
0000
0000
0000
,
0110
1000
0110
0000
1100
0000
0101
1000
,
0001
0010
0100
1000
0020
0100
0130
0000
,
0101
0000
0001
0100
1000
0000
0100
0000
0010
0000
1000
0100
0001
0000
0100
0000
,
0010
0000
0001
0100
1000
0000
0100
0000
0010
0000
1000
0100
0001
0000
0100
0000
,
0010
0001
0100
1000
0100
0010
1000
0100
0001
0100
0010
0001
,
0010
1000
0010
0100
1000
0010
0001
0010
0100
0001
0010
0100
,
1000
0100
1000
0000
0001
0000
0100
0010
0100
0000
0001
0000
0010
0100
0010
0000
0001
0000
1000
0100
1000
0100
0010
0001
,
0010
0100
1000
0001
1000
0001
0100
0010
0100
0110
0000
0000
,
1001
0000
1000
0010
0000
0100
0101
0000
0001
0010
0100
0010
,
0110
0000
1000
0001
0000
0100
0110
0000
1000
0001
0010
0100
,
1100
0000
0100
0010
0000
0001
0101
0000
0010
0100
0010
1000
,
1010
0000
0010
0100
0001
0010
0011
0000
1000
0010
0000
0100
,
0101
0000
0001
0010
0000
0100
1100
1000
0010
0100
0001
0100
,
0101
0001
1000
0100
0010
0100
0110
0000
1000
0001
0000
0010
,
0110
0000
0100
1001
0000
0001
0110
0000
0010
1001
0000
1000
,
0110
0000
0001
0110
0000
0100
1001
0001
0010
0100
1000
0001
,
0101
0000
0000
0000
0100
0000
0010
0000
0000
0000
0100
0001
1000
0000
0100
0000
1000
0000
0010
0000
0100
0000
0001
0000
,
1000
0100
1000
0000
0010
0000
0100
0001
0100
0000
0010
0000
1000
0001
1000
0000
0001
0010
0100
1000
0100
0010
0100
1000
,
0001
0000
0000
0000
1000
0000
0110
0000
0000
0000
0001
0100
0001
0000
0010
0000
0100
0000
1000
0000
0001
0000
1000
0000
,
0010
0100
0010
0000
1000
0000
1100
0000
0000
0000
0001
0000
0100
0010
0100
0000
0001
0000
0101
0000
0000
0000
1000
0000
,
1100
0000
0001
0101
0000
1000
1100
0000
0001
0101
0000
1000
,
0001
0100
0001
0000
1000
0000
0001
0010
0001
0000
1000
0000
0010
0100
0010
0000
1000
0000
1001
0000
0000
0000
0000
0000
,
0021
0130
1020
0130
,
1001
0000
0010
0110
0000
1000
1001
0000
0100
0110
0000
0001
,
2001
0000
0000
0000
3001
0010
0100
1000
,
0102
0010
0000
0000
1003
0000
0001
0000
,
0021
0100
0000
0000
0001
0000
0130
0000
,
1002
0000
0000
0100
0000
0000
0100
0000
2003
0000
0000
0100
0000
0000
3100
0000
,
1002
0010
0100
0000
0000
1003
0010
0100
,
2001
0100
0000
0000
0010
0000
3100
0000
,
0210
1000
0000
0000
1300
0010
0100
0000
,
0102
0000
0000
0000
0010
0000
0000
0000
0000
0000
0000
0000
1003
0000
0000
0000
2100
0000
0000
0000
0001
0000
0000
0000
3010
0100
0010
0100
0001
0000
0000
0000
,
2001
0000
0000
0000
3001
0000
0010
0000
0100
0000
0000
0000
2000
0000
0000
0000
0100
0000
0000
0000
3010
0000
0000
0000
1001
0000
0000
0000
0001
0010
0001
0010
,
0100
0000
0000
0000
1000
0000
0010
0000
0100
0000
0000
0000
0002
0000
0000
0000
0100
0000
0000
0000
0013
0000
0000
0000
1000
0010
1000
0010
0100
0000
0000
0000
,
0101
0000
0000
0000
0001
0000
1000
0000
0100
0000
0000
0000
0020
0000
0000
0000
0001
0000
0000
0000
0100
0000
0000
0000
0130
0000
0000
0000
1000
0001
1000
0001
,
0100
0000
0010
1000
0001
0000
0010
0000
1100
0000
0100
1000
0010
0000
0100
0000
,
0101
1000
0010
0100
0001
0010
1100
0001
0100
0010
0100
0001
,
0110
1000
0010
0100
0001
1000
0011
0100
1000
0010
0100
0010
,
1000
0001
0010
0000
0100
0000
1000
0001
0100
0000
0010
0000
1000
0100
0010
0000
0001
0000
1000
0010
0100
0001
1000
0100
,
0010
0001
1000
0010
0100
0010
0200
0000
0000
0310
0000
0000
,
1001
0000
1000
0001
0100
0010
1100
0000
0001
1000
0001
0100
,
0011
0000
1000
0001
0010
0100
1010
0001
0100
0010
1000
0010
,
1100
0000
0001
1000
0100
0010
0101
0000
1000
0001
0010
0100
,
1010
0001
1000
0010
0100
0001
1100
0001
1000
0010
0100
0001
,
0110
0000
1000
0001
0100
0010
1001
0000
0001
1000
0100
0001
,
0110
0000
1000
0001
0100
1000
0110
0000
0010
1000
0001
0010
,
0101
1000
0100
1010
0001
0100
0011
1000
0010
1100
0001
0010
,
0101
0000
1000
0000
0100
0000
1010
0000
0001
0000
0100
0010
1000
0000
0001
0000
0010
0000
0110
0000
0000
0000
0000
0000
,
1010
0001
0100
0011
1000
0100
0001
0100
1000
0001
0100
1000
,
0100
0001
0010
0000
0100
0000
1000
0010
0100
0000
0001
0000
1000
0100
0010
0001
1000
0010
0100
0000
0010
0000
1000
0000
,
0101
0000
0010
0000
0001
0000
1100
0000
0010
0000
1000
0000
0001
0000
0010
0000
0100
1000
0010
0000
0100
0000
0001
0000
,
1000
0100
0001
0000
0100
0000
1100
0000
0001
0000
1000
0000
0001
0100
1000
0000
0100
0000
0101
0000
0000
0000
0001
0000
,
1100
0001
0010
0101
1000
0010
1100
0001
0010
0101
1000
0001
,
0110
1000
0001
0110
1000
0001
0110
1000
0001
0110
1000
0001
,
1002
0103
2001
3100
,
1001
0000
0000
0000
1000
0000
0010
0000
0000
0000
0100
0001
1000
0000
0100
0000
0010
0001
1000
0000
0000
0000
0010
0000
,
0101
0010
1100
0001
,
0110
0000
0000
0000
1000
0000
0101
0000
0000
0000
1000
0001
0010
0000
0100
0000
1000
0010
0100
0000
0001
0000
0010
0000
,
2100
3010
0102
0013
,
1001
0000
0000
0000
0001
0000
0100
0000
0000
0000
1000
0100
0010
0000
1000
0000
0001
0010
0100
0000
0010
0000
0100
0000
,
0110
0000
0000
0000
1001
0000
0000
0000
0010
0000
0000
0010
0000
0000
2000
0000
,
0002
3000
0203
0000
,
0300
0000
0000
0000
;
