#TITLE:美少女無罪♡パイレーツ;
#SUBTITLE:;
#ARTIST:宝鐘マリン;
#TITLETRANSLIT:Bishoujyo Muzai Pirates;
#SUBTITLETRANSLIT:;
#ARTISTTRANSLIT:Houshou Marine;
#GENRE:POP;
#CREDIT:;
#MUSIC:Bishoujyo Muzai Pirates.ogg;
#BANNER:Bishoujyo Muzai Pirates.png;
#BACKGROUND:Bishoujyo Muzai Pirates-bg.png;
#CDTITLE:;
#SAMPLESTART:56.497;
#SAMPLELENGTH:11.294;
#SELECTABLE:YES;
#OFFSET:1.385;
#BPMS:0.000=170.000
,280.000=85.000
,284.000=170.000
;
#STOPS:;
#LASTBEATHINT:1.011477;
#BGCHANGES:6.500=Bishoujyo Muzai Pirates.avi=1.000=0=0=0=StretchNoLoop====,
99999.000=-nosongbg-=1.000=0=0=0=StretchNoLoop====
;
#FGCHANGES:;

//--------------- dance-single - ----------------
#NOTES:
     dance-single:
     :
     Medium:
     12:
     0,0,0,0,0:
0000
0000
0000
0000
,
0000
0000
0000
0000
,
0000
0000
0000
0000
,
0001
0000
0000
1000
0000
0000
0010
0000
0100
0000
0000
0010
0000
0000
1000
0000
,
0001
0000
0020
0000
0000
0000
0000
0130
,
0010
0100
1000
0001
0010
0100
1000
0001
,
1000
0100
0010
0001
1000
0100
0110
0000
,
0010
0001
1000
0000
0010
1000
0001
0000
,
0001
0010
0000
0100
1000
0001
0100
0000
,
0010
1000
0100
0000
0010
0001
0100
0000
,
0010
1000
0100
0010
0001
1000
0010
0000
,
0100
0010
0000
0100
0001
1000
0001
1000
,
0000
0001
0000
0001
0010
0100
0010
0100
,
1000
0001
0100
1000
0100
0001
0000
0010
,
0100
0000
0000
1000
0000
0000
0001
0000
0101
0000
0000
0000
0000
0000
0000
0000
,
0001
0010
0100
0000
1000
0000
0001
0000
,
1000
0010
0100
0000
0010
0000
1000
0001
,
0010
0000
0100
0000
1000
0001
0100
0010
,
1000
0001
0011
1100
,
1000
0100
0001
0000
0001
0100
1000
0000
,
0002
0000
1003
0010
0001
0010
1000
0000
,
0010
0100
0010
0000
1000
0001
1000
0000
,
0001
0010
0100
1000
0002
0000
0000
0000
,
1003
0010
0100
0100
,
0001
0000
0000
1000
0000
0001
0010
0100
,
1000
0100
0010
0001
1000
0000
0010
0000
,
0100
0000
0001
0000
1000
0000
0010
0000
0100
0000
0000
0100
0000
0000
0100
0000
,
0001
1000
0100
0000
0010
0001
1000
0000
,
0010
1000
0010
0000
0100
0001
0010
0000
,
0010
1000
0010
0001
0100
1000
0001
0010
,
1000
0000
0000
0000
0000
0000
0001
0000
1000
0000
0000
0100
0000
0000
1000
0000
,
0001
0100
0110
0000
0000
0010
1000
0001
,
0011
0000
0000
1100
0000
0000
0011
0000
0000
0000
1000
0000
0010
0000
0100
0000
,
0001
1000
1010
0000
0000
1000
0100
0010
,
0001
0000
0001
1000
0000
1000
0010
0100
,
0001
1000
0001
0010
0000
0010
0100
0000
,
1000
0001
1000
0010
0000
0010
0100
0000
,
0001
0000
0011
0000
0010
0100
1000
0001
,
0000
1000
0000
0010
0000
0100
0001
0000
,
1000
0000
0000
0100
0000
0000
0100
0000
0001
0000
0000
0100
0000
0000
0100
0000
,
1000
0110
1001
0000
,
1001
0000
0001
0100
1000
0000
0100
0001
,
0010
0100
1000
0010
0001
0010
0000
0100
,
0001
0000
1000
0001
0010
0000
0001
1000
,
1100
0011
0101
1010
,
0110
0000
0001
1000
0100
0000
0010
0000
,
1100
0000
0101
0000
1001
0010
0010
0200
,
0000
0301
0000
0001
0010
0100
1000
0000
,
0110
0000
1001
0000
0110
1000
0001
0000
,
1000
0000
1000
0000
1000
0001
0000
0100
,
0000
0100
0000
0100
0010
0000
1000
0000
,
0010
0100
0001
0100
1000
0100
0001
0010
,
0000
0010
0100
1000
0001
0000
0100
0000
,
0010
0000
1010
0000
1000
0001
0000
0010
,
0000
0010
0000
0100
1000
0001
0100
0010
,
1000
0001
0000
0001
1000
0100
1000
0100
,
0000
1000
0000
1000
0001
0100
0001
0100
,
0010
0000
0000
0100
0000
0000
0001
0000
1000
0000
0000
0100
0000
0000
0010
0000
,
0000
0220
0000
0000
,
0000
0000
0330
0001
,
1002
0000
2003
0000
,
3200
0000
0320
0000
,
0031
0010
1000
0000
0001
0100
1000
0000
,
0001
0000
0000
0100
0000
0000
1000
0000
0000
0000
0100
0000
0020
0000
0000
0000
0000
0000
1030
0000
0000
0000
0000
0000
,
0010
0000
0000
0100
0000
0000
0001
0000
1000
0000
0000
0100
0000
0000
1000
0000
,
0001
0100
0000
0100
0000
0100
0001
0010
,
0100
0000
1100
0000
1000
0001
0000
0001
,
0000
0001
0100
1000
0001
0010
1000
0002
,
0000
1000
1000
1003
0001
0010
0100
1000
,
0001
0100
0010
0200
0000
0001
0000
0301
,
2000
3000
0000
0000
0000
0000
0000
0000
0000
0000
0000
0000
0000
0000
0000
0000
0000
0000
0000
0000
0000
0000
0000
0000
1000
0000
0000
0000
0000
0000
0000
0000
0000
0000
0000
0000
0000
0000
0000
0000
0000
0000
0000
0000
0000
0000
0000
0000
0010
0000
0000
0000
0000
0000
0000
0000
0000
0000
0000
0000
0000
0000
0000
0000
0000
0000
0000
0000
0000
0000
0000
0000
0010
0000
0000
0000
0000
0000
0000
0000
0000
0000
0000
0000
0000
0000
0000
0000
0000
0000
0000
0000
0000
0000
0000
0000
0100
0000
0000
0000
0000
0000
0000
0000
0000
0000
0000
0000
0000
0000
0000
0000
0000
0000
0000
0000
0000
0000
0000
0000
0100
0000
0000
0000
0000
0000
0000
0000
0000
0000
0000
0000
0000
0000
0000
0000
0000
0000
0000
0000
0000
0000
0000
0000
0001
0000
0000
0000
0000
0000
0000
0000
0000
0000
0000
0000
0000
0000
0000
0000
0000
0000
0000
0000
0000
0000
0000
0000
0001
0000
0000
0000
0000
0000
0000
0000
0000
0000
0000
0000
0000
0000
0000
0000
0000
0000
0000
0000
0000
0000
0000
0000
,
1001
1100
1001
0101
,
1010
1100
0011
0101
,
1010
0000
0000
0010
0000
0000
0100
0000
0001
0000
0000
0001
0000
0000
1000
0000
,
0100
0110
1001
0000
,
1001
0000
1000
0100
0001
0000
0100
1000
,
0010
0100
0001
0100
1000
0100
0000
0001
,
0010
0000
0100
1000
0001
0000
0010
0001
,
0101
1010
1100
0011
,
0110
0000
1000
0001
0100
0000
0010
0000
,
0101
0000
1100
0000
1001
0100
0100
0020
,
0000
1030
0010
0100
0001
0010
0100
0000
,
0110
0000
1001
0000
0110
0001
1000
0000
,
0010
0000
0010
0000
0010
0100
0000
0001
,
0000
0001
0000
0001
1000
0000
0100
0000
,
0010
0100
1000
0100
0001
0100
1000
0010
,
0000
0010
0100
0001
1000
0000
0100
0000
,
0010
0000
0011
0000
0001
1000
0000
0010
,
0000
0010
0000
0100
0001
1000
0100
0010
,
0001
1000
0000
1000
0001
0100
0001
0100
,
0000
0001
0000
0001
1000
0100
1000
0100
,
0010
0000
0000
0100
0000
0000
1000
0000
0001
0000
0000
0100
0000
0000
0010
0000
,
0000
0220
0000
0000
,
0000
0000
0330
0000
0001
0000
1000
0010
,
0000
0100
0001
0010
0200
0000
1300
0000
,
0001
1000
0100
0000
0010
0001
1000
0000
,
0010
0100
0000
0100
0001
1000
0100
0000
,
0010
0001
0100
0000
0010
1000
0100
0000
,
0010
0001
0100
0010
1000
0100
0010
0000
,
0001
1000
0000
1000
0001
0100
0001
0100
,
0000
0001
0000
0001
1000
0100
1000
0100
,
0001
1000
0010
0001
1000
0100
1000
0001
,
0010
0000
0000
0100
0000
0000
1000
0000
0001
0000
0000
0100
0000
0000
0010
0000
,
0000
1000
0001
0010
0100
1000
0001
1000
,
0010
0000
0000
0100
0000
0000
0220
0000
0000
0000
0000
0000
0000
0000
0000
0000
,
0000
0330
0000
0000
;

//--------------- dance-single - ----------------
#NOTES:
     dance-single:
     :
     Hard:
     15:
     0,0,0,0,0:
0000
0000
0000
0000
,
0000
0000
0000
0000
,
0000
0000
0000
0000
,
0101
0000
0000
0100
0000
0000
0001
0000
1100
0000
0000
0100
0000
0000
0010
0000
,
0001
0000
1000
0010
0200
0000
0000
0000
0000
0000
0000
0000
0000
0000
0301
1000
,
0001
0000
0010
0000
0100
0000
1000
0000
0001
0000
0010
0000
0100
0000
1000
0001
,
1000
0000
0100
0000
0010
0000
0001
0000
1000
0000
0010
0100
0010
0000
0000
0000
,
1000
0001
0101
0000
0001
1000
1100
0000
,
0001
0100
0000
0100
0001
0010
0110
0000
,
1001
0010
0100
0000
1001
0010
0100
0000
,
1001
0010
0100
0001
1000
0100
1100
0000
,
1000
0000
0001
0100
0001
0000
1000
0000
0010
0000
0100
0000
0010
0000
0100
0000
,
0001
0000
1000
0100
1000
0000
0001
0000
0010
0000
0100
0000
0010
0000
0100
0000
,
1000
0000
0001
0100
0010
0000
1000
0000
0001
0000
0010
0000
0000
0000
0100
1000
,
0001
0000
0000
0100
0000
0000
0010
0000
1001
0000
0000
0000
0000
0000
0000
0000
,
0001
0000
1000
0010
0100
0000
0000
0000
0001
0010
0001
0000
0100
0000
0010
0000
,
1000
0001
0100
0001
0100
0010
0000
1000
0001
0000
0000
0000
0001
0000
0010
0000
,
0100
1000
0001
0100
0001
0100
0010
1000
0001
0010
0001
0010
0100
1000
0001
0010
,
0100
1000
0100
0000
0110
0000
0000
0000
1001
0000
0000
0000
1001
0000
0000
0000
,
1000
0000
0001
0010
0100
0000
0000
0000
1000
0000
0100
0010
0001
0000
0000
0000
,
2000
0000
0000
0000
3010
0000
0100
0000
0001
1000
0100
1000
0010
0000
0000
0000
,
1000
0001
0100
0001
0100
0010
1000
0001
0010
0100
1000
0100
1000
0001
0100
0010
,
0100
0010
1000
0001
0010
0100
1000
0100
0010
0001
1000
0010
0000
0000
0000
0000
,
1010
0100
0100
0001
,
1001
0000
0000
0001
0000
0001
0010
0100
,
1000
0100
0010
0001
1000
0000
0001
0000
,
1000
0000
0100
0000
0010
0000
0001
1000
0100
0000
0000
1100
0000
0000
0101
0000
,
1001
1000
0010
1000
0100
1000
0010
0100
,
0001
0010
0001
0100
0001
0010
0001
0100
,
1000
0000
0100
0000
0001
0000
0010
0000
0100
1000
0100
1000
0001
0100
0001
0100
,
0010
0000
0000
0000
0000
0000
0100
0001
1000
0000
0000
0100
0000
0000
0010
0000
,
0001
1000
1100
0100
0000
1000
0001
0100
,
0010
0000
1000
0001
0000
1000
0200
0000
0000
0000
0301
0000
0100
0000
1000
0000
,
0001
0100
0101
0001
0000
1000
0010
0100
,
0001
0010
0100
2000
0000
3001
0001
1000
,
0001
0100
1000
0100
0000
0100
0001
0000
,
1000
0100
0001
0100
0000
0100
1000
0000
,
0001
0000
0100
0010
0100
0000
0001
0000
1000
0000
0100
0010
0100
0000
1000
0000
,
0010
0000
0100
0001
1000
0000
0100
0000
0010
0000
0100
1000
0001
0000
0100
0000
,
0101
0000
0000
1000
0000
0000
0100
0000
1100
0000
0000
1000
0000
0000
0001
0000
,
0101
0000
0000
0000
0110
0000
0000
0000
1001
0000
0001
1000
0100
0000
0010
0000
,
0100
0000
1000
0100
1000
0000
0001
0000
1000
0000
0001
0100
0001
0000
1000
0000
,
0001
0000
0010
0000
1000
0000
0001
0000
0100
0000
1000
0001
1000
0000
0010
0000
,
1000
0000
0100
0001
0100
0000
1000
0000
0001
0000
0100
1000
0100
0000
0001
0000
,
0101
1010
1100
0011
,
1001
0000
0001
0010
0100
0000
1000
0010
,
1000
0000
0001
0100
0001
0000
1000
0010
1000
0000
0001
0000
0010
0000
0100
0000
,
0000
0100
1000
0001
0100
0010
1000
0000
,
0101
0000
1100
0000
1001
0100
0010
0000
,
1100
0000
1100
0000
0101
1100
0000
0101
,
0000
0101
0000
1100
0101
0000
0101
0000
,
1000
0000
0001
0100
0001
0000
0100
0010
0100
0000
0010
1000
0001
0000
0020
0000
,
0000
0000
0031
0000
0010
0000
0100
0000
1000
0001
1000
0000
0010
0000
0100
0000
,
0101
0000
0000
0001
0010
0000
0100
0000
1000
0000
0001
0100
0001
0000
0100
0000
,
0010
0000
0000
1000
0100
0000
0010
0000
0001
0000
1000
0100
1000
0000
0010
0000
,
0100
0000
0001
1000
0100
0000
2000
0000
0001
0000
0100
0000
0001
0000
3200
0000
,
0000
0000
1300
0001
0100
0000
0002
0000
1000
0000
0100
0000
1000
0000
0103
0000
,
0101
0000
0000
0001
0000
0000
1000
0000
1100
0000
0000
0001
0000
0000
1000
0000
,
0001
0000
0000
1000
0100
1000
0200
0000
0000
0000
0000
0000
0000
0000
0000
0000
0000
0000
0000
0000
0000
0000
0000
0000
,
0000
0000
0320
0000
0000
0000
0000
0000
0000
0000
0031
1000
,
0100
1000
0001
0100
0020
0000
0000
0000
0000
0000
0000
0000
,
0100
0000
0000
0000
0000
0000
0000
0000
0000
0000
0000
0000
0000
0000
0000
0000
0230
0000
0000
0000
0000
0000
0000
0000
0000
0000
0000
0000
0000
0000
0000
0000
0000
0000
0000
0000
0000
0000
0000
0000
0000
0000
0000
0000
0000
0000
0000
0000
0000
0000
0000
0000
0000
0000
0000
0000
0000
0000
0000
0000
0000
0000
0000
0000
0301
0000
0000
0000
0000
0000
0000
0000
0000
0000
0000
0000
0000
0000
0000
0000
0000
0000
0010
0000
0000
0000
0000
0000
0000
0000
0000
0000
0000
0000
0000
0000
0000
0000
0000
0000
0000
0100
0000
0000
0000
0000
0000
0000
0000
0000
0000
0000
0000
0000
0000
0000
0000
0000
0000
0000
2000
0000
0000
0000
0000
0000
0000
0000
0000
0000
0000
0000
0000
0000
0000
0000
0000
0000
0000
0000
0000
0000
0000
0000
0000
0000
0000
0000
0000
0000
0000
0000
0000
0000
0000
0000
0000
0000
0000
0000
0000
0000
0000
0000
0000
0000
0000
0000
0000
0000
0000
0000
0000
0000
0000
0000
0000
0000
0000
0000
0000
0000
0000
0000
0000
0000
0000
0000
0000
0000
0000
0000
,
3001
0100
0101
0000
1000
0100
1100
0000
,
0010
0000
0000
0100
0000
0000
0010
0000
0000
0000
0100
0000
0020
0000
0000
0000
0000
0000
0130
0000
0000
0000
0000
0000
,
1010
0000
0000
1000
0000
0000
0001
0000
1001
0000
0000
1000
0000
0000
0010
0000
,
0110
1000
0000
1000
0000
1000
0001
0010
,
0100
1000
1010
0000
0010
0100
0001
1000
,
0000
0001
0100
0001
1000
0100
1000
0002
,
0000
0010
0010
0023
0100
0130
1000
0001
,
1000
0100
1000
0020
0000
1000
0000
1030
,
0020
0030
0000
0000
0000
0000
0000
0000
0000
0000
0000
0000
1000
0000
0000
0000
0000
0000
0000
0000
0000
0000
0000
0000
0001
0000
0000
0000
0000
0000
0000
0000
0000
0000
0000
0000
0000
0000
0000
0000
0000
0000
0000
0000
0000
0000
0000
0000
0001
0000
0000
0000
0000
0000
0000
0000
0000
0000
0000
0000
0010
0000
0000
0000
0000
0000
0000
0000
0000
0000
0000
0000
0100
0000
0000
0000
0000
0000
0000
0000
0000
0000
0000
0000
0000
0000
0000
0000
0000
0000
0000
0000
0000
0000
0000
0000
0010
0000
0000
0000
0000
0000
0000
0000
0000
0000
0000
0000
0001
0000
0000
0000
0000
0000
0000
0000
0000
0000
0000
0000
1000
0000
0000
0000
0000
0000
0000
0000
0000
0000
0000
0000
0000
0000
0000
0000
0000
0000
0000
0000
0000
0000
0000
0000
1000
0000
0000
0000
0000
0000
0000
0000
0000
0000
0000
0000
0010
0000
0000
0000
0000
0000
0000
0000
0000
0000
0000
0000
0100
0000
0000
0000
0000
0000
0000
0000
0000
0000
0000
0000
0000
0000
0000
0000
0000
0000
0000
0000
0000
0000
0000
0000
,
0002
0010
0203
1000
0320
0100
2030
0100
,
3002
0010
0203
1000
0320
0100
0032
1003
,
1100
0000
0000
1000
0000
0000
0001
0000
0101
0000
0000
0100
0000
0000
0010
0000
,
0110
0000
0000
0000
0000
0000
0000
0000
0000
0000
0000
0000
1000
0000
0000
0000
0000
0000
0001
0000
0010
0000
0001
0000
0010
0000
0000
0000
0000
0000
0100
0000
0000
1000
0000
0000
0010
0000
0000
0000
0000
0000
0100
0000
0000
0000
0000
0000
,
0001
0000
1000
0010
1000
0000
0001
0000
1000
0000
0001
0010
0001
0000
0100
0000
,
0001
0000
0010
0000
1000
0000
0001
0000
0100
0000
1000
0001
0100
0000
0010
0000
,
1000
0000
0010
0001
0010
0000
1000
0000
0001
0000
0010
1000
0010
0000
0001
0000
,
0011
1100
1010
0101
,
1001
0000
0001
0100
1000
0000
0001
0010
,
1000
0000
0001
0010
0100
0000
1000
0100
0010
0000
0001
0000
0100
0000
0002
0000
,
0000
1003
0100
0010
0001
0100
0010
0000
,
1010
0000
0011
0000
1001
0100
0010
0000
,
1100
0000
1100
0000
0101
1100
0000
0101
,
0000
0101
0000
1100
0101
0000
0101
0000
,
0001
0000
1000
0001
0100
0000
0010
1000
0001
0000
0010
0100
1000
0000
0020
0000
,
0000
0000
0130
0000
0001
0000
1000
0000
0010
0100
0010
0000
1000
0000
0100
0000
,
1100
0000
0000
1000
0010
0000
0100
0000
0001
0000
1000
0100
1000
0000
0010
0000
,
0100
0000
0000
0001
0010
0000
0100
0000
1000
0000
0001
0100
0001
0000
0010
0000
,
0100
0000
1000
0001
0100
0000
0020
0000
1000
0000
0100
0000
1000
0000
0230
0000
,
0000
0000
0301
1000
0100
0000
0020
0000
0001
0000
0100
0000
0001
0000
0130
0000
,
1100
0000
0000
0001
0000
0000
1000
0000
0101
0000
0000
1000
0000
0000
0001
0000
,
1000
0000
0000
0010
0100
0010
0200
0000
0000
0000
0000
0000
0000
0000
0000
0000
0000
0000
0000
0000
0000
0310
0000
0000
,
1000
0100
0010
0001
2000
0000
3100
0000
,
0000
0000
1000
0010
0100
0000
0001
0000
2000
0000
0000
0000
3001
0000
0000
0000
,
0001
1000
1100
0000
1000
0001
0101
0000
,
0001
0000
1000
0100
1000
0000
0010
0000
0100
0000
0001
0000
0101
0000
0000
0000
,
1001
0100
0010
0000
1001
0100
0010
0000
,
1001
0100
0010
0100
0001
1000
1100
0000
,
0001
0000
1000
0001
0010
0000
0200
0000
1000
0000
0010
0000
1000
0000
0320
0000
,
0000
0000
0031
1000
0010
0000
0200
0000
0001
0000
0010
0000
0001
0000
0310
0000
,
0001
0000
0010
0000
0100
0000
1000
0000
0001
0000
0100
0000
1000
0000
0001
0010
,
0100
0000
0000
0101
0000
0000
1010
0000
1001
0000
0000
0011
0000
0000
0110
0000
,
0000
0000
1000
0100
1000
0000
0001
0000
0100
0010
0100
0000
0001
0000
1000
0001
,
0100
0000
0000
0010
0000
0000
0220
0000
0000
0000
0000
0000
0000
0000
0000
0000
,
0000
0330
0000
0000
;

//--------------- dance-single - ----------------
#NOTES:
     dance-single:
     :
     Challenge:
     17:
     0.77942,0.738881,0.040068,0,0.026712,817,811,6,0,0,0,0.77942,0.738881,0.040068,0,0.026712,817,811,6,0,0,0:
0000
0000
0000
0000
,
0000
0000
0000
0000
,
0000
0000
0000
0000
,
1100
0000
0000
0001
0000
0000
1000
0000
0101
0000
0000
1000
0000
0000
0001
0000
,
1000
0000
0000
0100
0010
0100
0020
0000
0000
0000
0000
0000
0000
0000
0000
0000
0000
0000
0000
0000
0000
0031
1000
0001
,
1000
0001
0010
0100
1000
0001
0010
0100
,
1100
0000
0000
0001
0000
0000
0101
0000
0000
1000
0000
0000
1010
0000
0000
0010
0100
0010
0100
0000
0000
0001
0000
0000
,
1100
1000
0100
0020
0000
0031
0100
0110
,
0000
0010
0100
0001
1000
1010
0101
0000
,
0011
0000
0000
0000
1100
0000
0000
0000
0100
1000
0001
0000
0101
0000
0200
0000
,
0000
0000
0310
0000
1000
0000
0010
0000
0100
0001
0010
0000
0120
0000
0000
0000
,
0031
0000
1000
0010
0100
0000
0020
0000
1000
0000
0100
0000
1000
0000
0130
0000
,
0100
0000
0001
0010
0100
0000
0010
0000
1100
0000
0011
0000
1100
0000
0011
0000
,
0001
0000
0000
0000
0000
0000
1000
0000
0000
0010
0000
0000
0100
0000
0000
0000
0000
0000
0001
0000
0000
0000
0000
0000
1000
0000
0000
0010
0000
0000
0100
0000
0000
0001
0000
0000
0010
0000
0000
0100
0000
0000
1000
0000
0100
0000
0010
0000
,
0001
0000
0000
0101
0000
0000
0110
0000
1001
0000
0000
0000
0000
0000
0000
0000
,
0101
0000
0000
0000
0000
0000
0000
1000
,
0010
0000
0000
0000
0000
0110
0000
0000
,
1001
0000
0000
0000
0000
0000
0000
1000
,
0010
0000
0000
0010
0000
1000
0001
0000
,
0100
0000
0100
0000
0100
0000
0100
0001
,
1000
0000
1000
0001
0010
0000
0010
0000
,
0100
0000
0100
0000
0100
0000
0100
1000
,
0001
0000
0000
0000
0001
0000
0000
0000
1000
0100
0010
0001
1000
0100
0010
0001
,
1000
0020
0230
0302
,
0023
0000
0000
0000
0000
0000
0000
0000
0000
0000
0000
0000
0130
0000
0000
0000
0000
0000
1000
0000
0000
0010
0000
0000
0100
0000
0000
0000
0000
0000
0010
0000
0000
0000
0000
0000
1000
0000
0000
0100
0000
0000
0010
0000
0001
0000
1000
0000
,
0001
0000
0000
0000
0000
0000
0010
0000
0000
0000
0000
0000
0100
0000
0000
0000
0000
0000
1000
0000
0000
0000
0000
0000
0001
0000
0000
1000
0000
0000
0010
0000
0100
0000
0010
0000
0100
0000
0000
0000
0000
0000
0001
0000
0000
0000
0000
0000
,
1000
0000
0000
0001
0000
0000
0010
0000
0100
0000
1000
0000
0001
0000
0010
0000
0100
0000
1000
0000
0001
0000
1000
0000
0001
0000
0000
0000
0000
0000
0000
0000
0000
0101
0000
0000
0000
0000
0000
0000
0000
0000
1100
0000
0000
0000
0000
0000
,
1001
0000
0001
0010
0100
0000
0001
0100
0010
0000
0001
1000
0010
0000
0100
0000
,
1010
0000
1000
0010
0100
0000
1000
0100
0010
0000
1000
0001
0010
0000
0100
0000
,
1100
0000
0000
0000
0000
0000
0010
0000
0000
0000
0000
0000
0101
0000
0000
0000
0000
0000
1000
0000
0000
0000
0000
0000
0001
0000
0000
0100
0000
0000
0001
0000
0000
0100
0000
0000
0001
0000
1000
0000
0001
0000
1000
0000
0000
0010
0000
0000
,
0100
0000
0000
0000
0000
0000
0100
0000
0000
0001
0000
0000
0010
0000
0000
0100
0000
0000
1000
0000
0100
0000
1000
0000
0001
0000
0000
0000
0000
0000
0000
0000
0000
0101
0000
0000
0000
0000
0000
0000
0000
0000
1001
0000
0000
0000
0000
0000
,
0010
0010
1001
0010
0000
0010
1000
0001
,
0010
0100
1000
1100
0000
1000
0001
0010
,
0100
0100
1001
0100
0000
0100
0001
1000
,
0010
0100
0001
0101
0000
1001
1000
0001
,
0101
0011
0100
0011
0000
1000
0001
1000
,
1100
1010
0100
1010
0000
1000
0010
0100
,
0001
0000
0000
0000
0000
0000
1000
0000
0000
0100
0000
0000
0010
0000
0000
0000
0000
0000
0001
0000
0000
0010
0000
0000
0100
0000
0000
0000
0000
0000
1000
0000
0100
0000
1000
0000
0100
0000
0000
0010
0000
0000
0001
0000
0000
1000
0000
0000
,
0001
0000
0000
0000
0000
0000
1000
0000
0000
0010
0000
0000
0100
0000
0000
0000
0000
0000
0001
0000
0000
0100
0000
0000
0010
0000
0000
0000
0000
0000
1000
0000
0010
0000
1000
0000
0010
0000
0000
0100
0000
0000
0001
0000
0000
1000
0000
0000
,
0010
0000
0000
1010
0000
0000
0110
0000
0101
0000
0000
1100
0000
0000
0101
0000
,
1001
0000
0000
0000
0000
0000
0000
0000
0000
0000
0000
0000
0000
0000
0000
0000
0000
0000
1000
0000
0100
0000
1000
0000
0100
0000
0000
0000
0000
0000
0010
0000
0000
0100
0000
0000
1000
0000
0000
0000
0000
0000
0010
0000
0000
0000
0000
0000
,
0100
0000
0001
0100
0001
0000
0010
0000
0100
0000
1000
0100
1000
0000
0001
0000
,
0102
0000
0013
0000
2100
0000
3010
0000
1002
0000
1003
0010
0100
0000
0001
0000
,
1000
0000
0100
0001
0100
0000
1000
0000
0001
0000
0100
1000
0100
0000
0010
0000
,
1010
0101
0011
1100
,
1001
0000
0001
1000
0200
0000
0001
0000
0310
0001
1000
0010
0200
0000
1000
0000
,
0301
0000
1000
0010
0100
0000
0001
0010
2000
0000
0010
0000
3010
0000
0110
0000
,
0000
0000
0000
0100
0000
0000
1001
0000
0000
0000
0000
0000
0010
0000
0000
0010
0000
0000
1001
0000
0000
1000
0100
0010
,
0001
0000
1100
0000
1001
0101
1100
0000
,
1100
0000
0011
0000
1100
0011
0000
0101
,
0000
1010
0000
0101
1010
0000
0101
0000
,
0001
0000
1000
0010
0200
0000
0010
0000
0301
0000
1000
0100
0010
0001
2000
0000
,
0000
0000
0000
3010
0000
0000
0110
0000
0000
0100
0000
0000
0001
0010
0100
1000
0000
0000
0010
0000
0000
0100
0000
0000
,
0101
0000
0000
0000
0000
0000
0001
0000
0000
0100
0000
0000
0010
0000
0000
0000
0000
0000
1000
0000
0000
0010
0000
0000
0100
0000
0000
0000
0000
0000
0001
0000
0100
0000
0010
0000
1000
0000
0000
0000
0000
0000
0010
0000
0000
0000
0000
0000
,
1001
0000
0000
0000
0000
0000
0001
0000
0000
0010
0000
0000
0100
0000
0000
0000
0000
0000
1000
0000
0000
0100
0000
0000
0010
0000
0000
0000
0000
0000
0001
0000
0000
0010
0000
0000
0100
0000
0000
0000
0000
0000
1000
0000
0100
0000
0010
0000
,
0001
0000
1000
0001
0100
0000
0020
0000
1000
0000
0100
0000
1000
0000
0130
0000
,
0100
0000
0001
0010
0100
0000
0010
0000
1100
0000
0011
0000
1100
0000
0011
0000
,
1001
0000
0000
0011
0000
0000
1001
0000
1010
0000
0000
0110
0000
0000
1001
0000
,
1100
0000
0000
1000
0100
0010
0002
0000
0000
0000
0000
0000
0000
0000
0000
0000
0000
0000
0000
0000
0000
0000
0000
0000
,
0000
0000
0000
0103
,
0200
0000
0320
0000
,
2030
0000
3002
0010
,
1003
0100
0110
0000
0001
0100
0110
0000
,
0001
0000
0000
0010
0000
0000
0100
0000
0000
0010
0000
0000
0001
0000
1000
0000
0100
0000
0010
0000
0100
0000
1000
0000
0001
0000
0010
0000
0100
0000
0010
0000
0001
0000
1000
0000
0100
0000
0000
0000
0000
0000
1000
0000
0100
0000
0010
0000
,
0001
0000
0000
0011
0000
0000
1010
0000
1100
0000
0000
0101
0000
0000
0110
0000
,
1001
0000
0010
0000
0000
0000
0010
0000
0000
0000
0010
0000
0100
0001
2000
0000
,
0100
3010
0110
0000
0001
0100
0001
2000
,
0000
3001
0100
1000
0001
0010
1000
0002
,
0000
0010
0010
0023
0100
0230
1000
1300
,
0001
0000
0100
0000
0001
0000
0010
0100
0010
0000
0001
0000
2000
0000
0000
0000
,
3002
0003
0000
0000
0000
0000
0000
0000
0000
0000
0000
0000
0100
0000
0000
0000
0000
0000
0000
0000
0000
0000
0000
0000
0010
0000
0000
0000
0000
0000
0000
0000
0000
0000
0000
0000
0000
0000
0000
0000
0000
0000
0000
0000
0000
0000
0000
0000
0010
0000
0000
0000
0000
0000
0000
0000
0000
0000
0000
0000
0100
0000
0000
0000
0000
0000
0000
0000
0000
0000
0000
0000
0001
0000
0000
0000
0000
0000
0000
0000
0000
0000
0000
0000
0000
0000
0000
0000
0000
0000
0000
0000
0000
0000
0000
0000
1000
0000
0000
0000
0000
0000
0000
0000
0000
0000
0000
0000
0100
0000
0000
0000
0000
0000
0000
0000
0000
0000
0000
0000
0010
0000
0000
0000
0000
0000
0000
0000
0000
0000
0000
0000
0000
0000
0000
0000
0000
0000
0000
0000
0000
0000
0000
0000
0010
0000
0000
0000
0000
0000
0000
0000
0000
0000
0000
0000
0100
0000
0000
0000
0000
0000
0000
0000
0000
0000
0000
0000
1000
0000
0000
0000
0000
0000
0000
0000
0000
0000
0000
0000
0001
0000
0000
0000
0000
0000
0100
0000
0000
0000
0000
0000
,
0001
0000
0100
0010
0100
0000
1000
0100
1000
0000
0100
0010
0100
0000
0001
0010
,
0001
0000
0000
0000
0000
0000
0010
0000
0000
0100
0000
0000
0010
0000
0000
0000
0000
0000
1000
0000
0000
0010
0000
0000
1000
0000
0000
0000
0000
0000
0010
0000
0000
0001
0000
0000
1000
0000
0000
0000
0000
0000
0001
0000
0100
0000
0010
0000
,
1000
0000
0000
1010
0000
0000
1100
0000
0101
0000
0000
0011
0000
0000
0110
0000
,
1001
0000
0000
0000
0000
0000
0000
0000
0000
0000
0000
0000
0001
0000
0000
0000
0000
0000
1000
0000
0100
0000
0010
0000
0001
0000
0000
0000
0000
0000
1000
0000
0000
0010
0000
0000
0100
0000
0000
0000
0000
0000
0100
0000
0000
0000
0000
0000
,
1001
0000
1000
0010
0100
0000
1000
0100
0001
0000
0010
0100
0001
0000
0100
1000
,
0010
0000
0000
1000
0000
0000
0010
0000
0000
0100
0000
0000
0001
0000
0000
0010
0000
0000
0001
0000
0000
0010
0000
0000
1000
0000
0000
0000
0000
0000
0010
0000
0100
0000
0010
0000
0100
0000
0000
0000
0000
0000
1000
0000
0000
0001
0000
0000
,
1000
0000
0001
0010
0100
0000
0001
0100
1000
0000
0010
0100
0001
0000
1000
0100
,
0001
0100
0010
0100
1000
0001
0100
0010
0001
0010
0100
0010
1000
0001
0010
0100
,
1000
0000
1000
0010
0100
0000
0001
0000
0001
0010
0100
1000
0001
0000
1000
0000
,
0010
0000
0000
0000
0000
0000
0100
0000
0000
0001
0000
0000
0100
0000
0000
0000
0000
0000
0100
0000
0000
1000
0000
0000
0100
0000
0000
0000
0000
0000
0100
0000
0000
0001
0000
0000
1000
0000
0000
0000
0000
0000
0001
0000
0010
0000
0001
0000
,
0010
0000
0100
0000
0110
0000
1000
0001
1000
0000
0010
0000
0110
0000
0000
0000
,
1010
0000
0011
0000
1001
1100
0101
0000
,
1100
0000
1000
0100
0010
0000
0010
0100
1000
0000
1100
0000
0000
0000
0101
0000
,
0100
0000
0001
0100
0010
0000
0010
0100
0001
0000
0001
0010
0100
0000
0000
0000
,
1000
0000
0001
1000
0200
0000
0010
0000
1300
0000
0001
0100
0001
0100
0020
0000
,
0000
0000
0000
2030
0000
0000
0001
0000
0000
3001
0000
0000
0010
0100
1000
0010
0000
0000
0100
0000
0000
0010
0000
0000
,
1000
0000
0000
0000
0000
0000
1000
0000
0000
0001
0000
0000
0010
0000
0000
0000
0000
0000
0010
0000
0000
0100
0000
0000
1000
0000
0000
0000
0000
0000
1000
0000
0001
0000
0010
0000
0100
0000
0000
0000
0000
0000
0010
0000
0000
0000
0000
0000
,
0001
0000
0000
0000
0000
0000
0001
0000
0000
1000
0000
0000
0010
0000
0000
0000
0000
0000
0010
0000
0000
0100
0000
0000
0001
0000
0000
0000
0000
0000
0001
0000
0000
0010
0000
0000
0100
0000
0000
0000
0000
0000
0100
0000
1000
0000
0001
0000
,
0010
0000
0100
1000
0001
0000
0200
0000
0010
0000
0001
0000
0010
0000
0301
0000
,
1000
0000
0001
0010
0100
0000
0010
0000
1100
0000
0011
0000
1100
0000
0011
0000
,
1001
0000
0000
0011
0000
0000
0101
0000
1010
0000
0000
0110
0000
0000
1001
0000
,
0100
0000
0000
0001
0100
0010
2000
0000
0000
0000
0000
0000
0000
0000
0000
0000
0000
0000
0000
0000
0000
0100
0000
0000
,
3200
0000
0010
0000
0310
0000
0001
1000
0200
0000
0000
0000
0310
0000
0000
0000
,
0000
0000
0001
1000
0100
0000
0010
0000
0120
0000
0000
0000
0130
0000
0000
0000
,
0001
1000
1100
2000
0001
3100
1100
2000
,
0001
3200
1000
0320
1000
0130
1200
0000
,
1300
0001
0101
0002
1000
0103
0101
0002
,
1000
0203
0001
0320
0001
0130
0201
0000
,
0301
0000
0010
0100
0010
0000
0002
0000
1000
0000
0100
0000
1000
0000
0103
0000
,
1000
0000
0010
0100
0010
0000
1000
0000
0101
0000
1100
0000
0101
0000
1100
0000
,
1001
0000
1000
0010
0100
0010
1000
0100
1000
0001
0010
0100
1000
0000
0001
0100
,
0010
0000
0000
1010
0000
0000
0110
0000
0101
0000
0000
1001
0000
0000
0110
0000
,
0000
0000
0001
0010
1000
0000
0010
0000
0001
0100
1000
0000
0100
0000
0001
0010
,
0100
0000
0000
0010
0000
0000
0220
0000
0000
0000
0000
0000
0000
0000
0000
0000
,
0000
0330
0000
0000
;
