#VERSION:0.83;
#TITLE:バトロワ♡ラブ;
#SUBTITLE:;
#ARTIST:P丸様。;
#TITLETRANSLIT:Battle Royale Love;
#SUBTITLETRANSLIT:;
#ARTISTTRANSLIT:Pmaru sama.;
#GENRE:POP;
#CREDIT:;
#MUSIC:Battle Royale Love.ogg;
#BANNER:Battle Royale Love.png;
#BACKGROUND:Battle Royale Love-bg.png;
#CDTITLE:;
#SAMPLESTART:45.653;
#SAMPLELENGTH:10.625;
#SELECTABLE:YES;
#OFFSET:-0.028;
#BPMS:0.000=192.000
,145.000=128.000
,146.000=192.000
;
#STOPS:144.000=0.156
,144.500=0.156
,145.000=0.156
;
#SPEEDS:0.000=1.000=0.000=0;
#SCROLLS:0.000=1.000;
#TICKCOUNTS:0.000=4;
#TIMESIGNATURES:0.000=4=4;
#LABELS:0.000=Song Start;
#COMBOS:0.000=1;
#ORIGIN:;
#PREVIEWVID:;
#JACKET:Battle Royale Love-jacket.png;
#CDIMAGE:;
#DISCIMAGE:;
#BGCHANGES:3.500=Battle Royale Love.avi=1.000=0=0=0=StretchNoLoop====,
99999.000=-nosongbg-=1.000=0=0=0=StretchNoLoop====
;
#FGCHANGES:;

//--------------- dance-single - ----------------
#NOTEDATA:;
#STEPSTYPE:dance-single;
#DESCRIPTION:;
#DIFFICULTY:Medium;
#METER:13;
#RADARVALUES:0.704434,0.746441,0.437567,0.058903,0,586,534,52,7,0,0,0,0,0,0.704434,0.746441,0.437567,0.058903,0,586,534,52,7,0,0,0,0,0;
#CHARTNAME:;
#CHARTSTYLE:;
#CREDIT:;
#NOTES:
0000
0000
0000
0000
,
0000
0000
0000
0000
,
0000
0000
0000
0000
,
0000
0000
0000
0000
,
0000
0000
0000
0000
,
0001
1000
0001
0010
0000
0100
1000
0001
,
0101
1100
0101
1100
,
1000
0001
1000
0010
0000
0100
0001
1000
,
0000
1010
0000
0101
0001
0010
0100
0010
,
0100
1000
0001
0100
0000
0010
1000
0001
,
0011
1010
0011
1010
,
1000
0001
1000
0100
0000
0010
0001
0100
,
1000
0100
0001
1000
0200
0000
0000
0000
,
0310
0000
0010
0000
0001
0000
0001
1000
,
0010
0000
0010
0000
0100
0000
0100
0001
,
1000
0000
1000
0000
0100
0000
0100
0010
,
0001
0000
0001
0000
1000
0000
1000
0010
,
0100
0000
0101
0000
0001
0000
0001
1000
,
0100
0000
1100
0000
1000
0000
1000
0001
,
0010
0000
0110
0000
0100
1000
0001
0100
,
0010
0000
0100
0001
1000
0100
0010
0001
,
1000
0000
0010
0000
0100
0001
1000
0100
,
0010
0000
0100
0000
1000
0001
0100
0010
,
0100
0000
0001
0000
1000
0100
1000
0001
,
0100
0000
0010
0000
0100
0001
1000
0100
,
1000
0000
0010
0100
0010
0000
0100
0001
,
1000
0000
0100
0010
0100
0000
0010
0001
,
1000
0100
0010
0100
1000
0001
0100
0010
,
0100
0001
1000
0001
0010
0100
1000
0001
,
0100
0000
0010
1000
0001
0010
1000
0010
,
0001
0000
1000
0010
0100
0001
0100
1000
,
0100
0000
0010
1000
0001
0010
0100
1000
,
0001
0000
0101
0000
0100
0001
1000
0010
,
0100
0000
0010
1000
0100
0001
0100
1000
,
0001
0000
0100
0010
1000
0010
0001
0010
,
1000
0000
0001
0010
0100
0010
0100
1000
,
2002
3003
0000
0000
0000
0000
0000
0000
0000
0000
0000
0000
0000
0000
0000
0000
0000
0000
0000
0000
0000
0000
0000
0000
0220
0330
0000
0000
0000
0000
0000
0000
0000
0000
0000
0000
0000
0000
0000
0000
0000
0000
0000
0000
0000
0000
0000
0000
2002
3003
0000
0000
0000
0000
0000
0000
0000
0000
0000
0000
0000
0000
0000
0000
0000
0000
0000
0000
0000
0000
0000
0000
0000
0000
0000
0000
0000
0000
0000
0000
0000
0000
0000
0000
0000
0000
0000
0000
0000
0000
0000
0000
0000
0000
0000
0000
1001
0000
0000
0000
0000
0000
0000
0000
0000
0000
0000
0000
0000
0000
0000
0000
0000
0000
0000
0000
0000
0000
0000
0000
0000
0000
0000
0000
0000
0000
0000
0000
0000
0000
0000
0000
0000
0000
0000
0000
0000
0000
0000
0000
0000
0000
0000
0000
0001
0000
0000
0000
0000
0000
0000
0000
0000
0000
0000
0000
0000
0000
0000
0000
0000
0000
0000
0000
0000
0000
0000
0000
0010
0000
0000
0000
0000
0000
0000
0000
0000
0000
0000
0000
0000
0000
0000
0000
0000
0000
0000
0000
0000
0000
0000
0000
,
0100
1000
0000
0001
0000
0100
0010
0001
,
0010
1000
0100
0000
0010
0001
1000
0000
,
0001
0010
0100
0000
1000
0100
0001
0100
,
1000
0000
0010
0000
1001
0000
1000
0010
,
0100
0001
0000
0010
0000
0010
0000
0100
,
1000
0001
0000
1000
0010
0100
0010
0000
,
0001
0010
0100
0000
0001
0010
1000
0010
,
0001
1000
1100
0011
,
0001
1000
0000
1010
0000
0101
0000
0100
,
0001
0010
0001
0100
0001
0010
0100
0000
,
0100
1000
0001
0000
0001
0100
1000
0100
,
0001
1000
0101
1010
,
1000
0001
0000
0011
0000
1100
0000
1000
,
0100
0010
0001
1000
0010
0100
0010
0100
,
0001
1000
0001
1000
0001
0010
0100
1000
,
0001
0010
0100
1000
0001
0000
0001
0000
,
1000
0010
0100
0001
1000
0000
1000
0000
,
0001
0010
0100
1000
0001
0000
0001
0000
,
1000
0100
0010
0001
1000
0000
1000
0000
,
0001
0100
0010
1000
0001
0000
0011
0000
,
0010
0100
0000
1000
0000
1000
0000
0001
,
0100
0110
0010
1001
,
1000
0010
0000
0100
0000
0100
0000
0001
,
1000
1100
0010
1001
,
0001
0100
0000
0010
0000
0010
0000
1000
,
0001
0000
0011
0000
0100
0000
1000
0010
,
0100
0001
0000
0010
0000
0100
0000
1000
,
0001
0000
1000
0000
1001
0000
0001
0100
,
0001
1000
0000
1000
0100
0001
0100
1000
,
0010
0100
0000
0100
0001
0000
1000
0100
,
1000
0001
0000
0001
0100
1000
0100
0001
,
0010
0100
0000
0000
0000
0000
0100
0000
,
0100
0000
0100
1000
0001
0000
0001
0100
,
1000
0100
0000
0110
0000
1001
0000
1000
,
0100
0010
0100
1000
0001
0100
1000
0100
,
0001
0010
1000
0010
0001
1000
0100
0010
,
0001
1000
0010
0100
1001
0000
1000
0100
,
0001
0100
0000
0110
0000
1001
0000
0001
,
0010
1000
0000
0010
0001
1000
0001
0010
,
0100
1000
0001
1000
0010
0000
0100
0001
,
1000
0001
0010
0100
1100
0000
0011
0000
,
0001
0100
0000
1010
0000
0101
0000
0001
,
0010
0100
1000
0001
1000
0010
0001
0010
,
0100
1000
0100
0000
0100
0001
0010
0100
,
1000
0000
1000
0001
0101
0000
1010
0000
,
1000
0001
0000
0011
0000
1100
0000
1000
,
0100
1000
0010
0100
0001
0100
1000
0100
,
0001
0010
1000
0010
0001
0010
0100
1000
,
0001
0100
1000
0100
0010
0000
1001
0000
,
0001
0010
0000
0100
0000
1000
0001
1000
,
0010
0001
1000
0100
0001
0000
1001
0000
,
1000
0010
0000
0100
0000
0001
1000
0001
,
0010
1000
0001
0100
1000
0000
1001
0000
,
0001
0100
0000
0010
0000
1000
0001
1000
,
0100
0001
1000
0010
0001
0000
1001
0000
,
0001
0100
0000
0110
0000
0010
1000
0100
,
0001
0100
1000
0001
0000
0000
0000
0000
;

//--------------- dance-single - ----------------
#NOTEDATA:;
#STEPSTYPE:dance-single;
#DESCRIPTION:;
#DIFFICULTY:Hard;
#METER:16;
#RADARVALUES:0,0,0,0,0;
#NOTES:
0000
0000
0000
0000
,
0000
0000
0000
0000
,
0000
0000
0000
0000
,
0000
0000
0000
0000
,
0000
0000
0000
0000
,
1000
0001
0100
0100
1000
0001
0100
0100
,
1000
0100
0001
0100
1000
0100
0001
0100
,
1000
0100
0100
0001
1000
0100
0100
0001
,
0010
0110
0000
0110
0001
1000
0001
1000
,
0001
1000
0100
0100
0001
1000
0100
0100
,
0001
0100
1000
0100
0001
0100
1000
0100
,
0001
0100
0100
1000
0001
0100
0100
1000
,
0010
0100
0001
0010
0110
0000
0000
0000
,
1000
0000
0010
0000
0100
0000
0001
0000
0101
0000
0000
0011
0000
0000
1010
0000
,
1000
0000
0010
0000
1000
0000
0001
0000
0011
0000
0000
1010
0000
0000
1100
0000
,
0100
0000
1000
0000
0001
0000
1000
0000
1010
0000
0000
1100
0000
0000
0101
0000
,
0001
0000
0100
0000
0001
0000
1000
0000
1100
0000
0000
0101
0000
0000
0011
0000
,
0010
0000
0001
0000
1000
0000
0001
0000
0101
0000
0000
1100
0000
0000
1010
0000
,
0010
0000
1000
0000
0001
0000
1000
0000
1010
0000
0000
0011
0000
0000
0101
0000
,
0100
0000
0010
1000
0001
0000
0100
0000
0001
0000
0010
0100
1000
0000
0001
0000
,
0100
0000
0010
1000
0001
0000
1000
0100
0010
0000
0100
1000
0001
0000
1000
0000
,
0010
0000
0100
0000
0001
0000
1000
0000
0010
0000
0100
0001
0000
0010
0100
0000
,
1000
0000
0001
0000
0100
0000
0010
0000
1000
0000
0001
0010
0000
0100
0010
0000
,
0001
0000
1000
0000
0010
0000
0100
0000
0001
0000
1000
0010
0000
0100
0010
0000
,
1000
0000
0010
0000
0100
0000
0001
0000
0010
0000
0100
1000
0000
0010
0100
0000
,
0001
0000
0010
0000
0100
0000
1000
0001
0100
0000
0000
0110
0000
0000
0010
1000
,
0001
0000
0010
0000
0100
0000
1000
0001
0100
0000
0000
0101
0000
0000
0001
0010
,
0100
0001
0100
1000
0001
0100
1000
0100
,
0001
0000
1000
0100
0010
0000
0001
0000
0010
0000
0100
1000
0001
0100
0001
1000
,
0010
0100
0001
0100
1000
0100
0010
1000
,
0001
1000
0100
0001
0100
1000
0010
0100
,
0001
0000
1000
0001
1000
0000
0010
0000
0100
0000
0001
1000
0001
0000
0010
0000
,
0110
0000
0000
0000
0110
0000
0100
1000
0001
0000
0100
0000
0001
1000
0100
1000
,
0001
0000
0100
0000
0110
0000
1000
0000
0001
0000
1000
0100
0000
1000
0001
0000
,
1000
0000
0010
0000
0110
0000
0001
0000
1000
0000
0001
0100
0001
0000
1000
0000
,
1100
0001
1000
0001
1000
0010
0100
0010
,
0220
0330
0000
0000
0000
0000
0000
0000
0000
0000
0000
0000
0000
0000
0000
0000
0000
0000
0000
0000
0000
0000
0000
0000
2002
3003
0000
0000
0000
0000
0000
0000
0000
0000
0000
0000
0000
0000
0000
0000
0000
0000
0000
0000
0000
0000
0000
0000
0220
0330
0000
0000
0000
0000
0000
0000
0000
0000
0000
0000
0000
0000
0000
0000
0000
0000
0000
0000
0000
0000
0000
0000
0000
0000
0000
0000
0000
0000
0000
0000
0000
0000
0000
0000
0000
0000
0000
0000
0000
0000
0000
0000
0000
0000
0000
0000
1000
0000
0000
0000
0000
0000
0000
0000
0000
0000
0000
0000
0000
0000
0000
0000
0000
0000
0000
0000
0000
0000
0000
0000
0001
0000
0000
0000
0000
0000
0000
0000
0000
0000
0000
0000
0100
0000
0000
0000
0000
0000
0000
0000
0000
0000
0000
0000
0001
0000
0000
0000
0000
0000
0000
0000
0000
0000
0000
0000
0000
0000
0000
0000
0000
0000
0000
0000
0000
0000
0000
0000
1000
0000
0000
0000
0000
0000
0000
0000
0000
0000
0000
0000
0000
0000
0000
0000
0000
0000
0000
0000
0000
0000
0000
0000
,
0010
0110
0000
1010
0000
0101
0100
0001
,
0010
0000
0100
1000
0001
0000
0100
0000
1000
0000
0100
0010
0100
0000
0010
1000
,
0001
0000
0010
0100
0010
0000
1000
0000
0001
0000
0100
0000
1000
0000
0001
0000
,
1001
0100
0010
0100
0110
0000
0010
1000
,
0001
0000
0101
0000
0000
0000
1010
0000
0000
0000
1000
0001
0010
0000
0100
0000
,
1000
0000
0010
0000
0000
0000
0100
0000
0001
0000
1000
0100
0001
0000
0100
0000
,
1000
0000
0001
0100
1000
0000
0100
0000
0010
0000
0000
0000
0100
0000
0001
1000
,
0100
0010
0001
1000
1100
0000
0011
0000
,
0100
1000
0000
1010
0000
0101
0000
0100
,
0001
0000
0010
0100
0010
0000
0001
0000
1000
0000
0001
0100
0010
0000
0100
0001
,
1000
0000
0001
0010
0100
0000
1000
0000
0001
0000
1000
0000
0100
0000
0010
0000
,
0002
1000
1003
0000
0110
0000
1001
0000
,
1000
0010
0000
0110
0000
1010
0000
0100
,
0001
0000
1000
0100
0010
0000
0001
0000
1000
0000
0010
0100
0001
0000
0010
0100
,
1000
0000
0010
0100
0001
0000
0001
0010
0100
0000
1000
0010
0100
0000
0001
0010
,
0100
0000
1000
0010
0100
0000
0001
0000
1000
0000
0001
0000
0010
0000
0100
0000
,
2000
0100
0001
0100
3001
0100
0001
0100
,
0002
0100
1000
0100
1003
0010
1000
0010
,
2000
0010
0001
0010
3001
0010
0001
0010
,
0002
1000
0010
1003
0110
0000
0001
0000
,
0001
0100
0000
0100
0000
0010
0000
0010
,
1000
0000
0001
0010
0100
0000
1000
0000
,
0001
0100
0000
0010
0000
0010
0000
1000
,
0001
0000
0010
0100
0010
0000
0001
0000
,
1000
0010
0000
0100
0000
0100
0000
0001
,
0010
0000
0100
1000
0001
0000
0100
0000
,
1000
0100
0000
0010
0000
1000
0000
0001
,
0010
0000
0010
0001
1000
0000
0100
0000
,
0100
0010
0000
0010
0000
0001
0000
1000
,
0001
0100
0000
0010
1000
0010
1000
0001
,
0010
0001
0010
0100
1000
0001
0100
0010
,
1000
0001
0010
0100
0000
0000
0100
0000
,
0100
0000
1000
0000
0001
0000
0100
0000
0110
0000
0000
0000
0010
0000
1000
0001
,
0010
0110
0000
1001
0000
1100
1000
0010
,
0100
0000
0001
1000
0100
0000
0010
0000
0001
0000
1000
0001
0100
0000
0010
0100
,
0010
0000
1000
0001
0010
0000
0100
0000
1000
0000
0010
0000
0100
0000
0001
0000
,
1001
1000
0001
0010
0110
0000
0100
1000
,
0001
0000
0011
0000
0000
0000
1001
0000
0000
0000
1000
0010
0100
0000
0001
0000
,
1000
0000
1100
0000
0000
0000
0100
0000
1000
0000
0001
0100
1000
0000
0100
0001
,
1000
0000
0001
0010
1000
0000
0010
0001
2000
0000
0000
0000
3010
0000
1000
0001
,
0020
0000
0130
1000
1100
0000
1001
0000
,
0001
0100
0000
0101
0000
1010
0000
1000
,
0010
0000
0100
0001
1000
0000
0001
0000
0010
0000
0100
1000
0001
0000
1000
0010
,
0001
0000
0010
1000
0001
0000
0010
0000
0100
0000
1000
0000
0010
0000
0100
0000
,
0002
1000
1003
0000
0011
0000
1001
0000
,
0100
1000
0000
1100
0000
1001
0000
0101
,
0001
0000
1000
0010
0100
0000
0001
0000
0010
0000
0100
1000
0010
0000
0100
0001
,
0010
0000
0100
1000
0010
0000
0010
1000
0100
0000
0010
0001
0100
0000
0010
1000
,
0100
0000
0010
0001
1000
0000
0100
0000
0011
0000
0000
0000
1100
0000
0000
0000
,
1000
0010
0000
0100
0001
1000
0100
0001
,
1000
0010
0001
1000
1100
0000
0011
0000
,
0001
0010
0000
0100
1000
0001
0100
1000
,
0001
0010
1000
0001
0011
0000
1100
0000
,
1000
0100
0000
0010
0001
1000
0010
0001
,
1000
0100
0001
1000
1010
0000
0101
0000
,
0001
0100
0000
0010
1000
0001
0010
1000
,
0001
0100
1000
1100
0000
0000
0000
0000
;

//--------------- dance-single - ----------------
#NOTEDATA:;
#STEPSTYPE:dance-single;
#DESCRIPTION:;
#DIFFICULTY:Challenge;
#METER:18;
#RADARVALUES:0.959281,1.358929,0.504885,0.050488,1.093917,798,738,60,6,154,1,0,0,98,0.959281,1.358929,0.504885,0.050488,1.093917,798,738,60,6,154,1,0,0,98;
#OFFSET:-0.028;
#BPMS:0.000=192.000
,163.000=128.000
,164.000=192.000
;
#STOPS:162.000=0.156
,162.500=0.156
,163.000=0.156
;
#WARPS:65.500=6.000,
118.979=6.000,
125.979=6.000
;
#SPEEDS:0.000=1.000=0.000=0;
#SCROLLS:0.000=1.000;
#TICKCOUNTS:0.000=4;
#TIMESIGNATURES:0.000=4=4;
#LABELS:0.000=Song Start;
#COMBOS:0.000=1;
#DISPLAYBPM:192.000;
#CHARTNAME:;
#CHARTSTYLE:;
#CREDIT:;
#NOTES:
0000
0000
0000
0000
,
0000
0000
0000
0000
,
0000
0000
0000
0000
,
0000
0000
0000
0000
,
0000
0000
0000
0000
,
0101
0000
0100
0001
0010
0000
0100
0000
1100
0000
0100
1000
0010
0000
0100
0000
,
0101
1000
1100
0001
0101
1000
1100
0001
,
0011
0000
0010
0001
0100
0000
0010
0000
0110
0000
0010
1000
0100
0000
0010
0000
,
0110
1001
0000
1001
0001
0010
0100
1000
,
1100
0000
0100
1000
0010
0000
0100
0000
0110
0000
0100
0001
0010
0000
0100
0000
,
1100
0001
0101
1000
1100
0001
0101
1000
,
1010
0000
0010
1000
0100
0000
0010
0000
0011
0000
0010
0001
0100
0000
0010
0000
,
1010
0000
0001
0000
0011
0000
1000
0000
1001
0000
0001
1000
0001
1000
0001
1000
,
0010
0000
0200
0000
0000
0302
0000
0000
0000
0000
2003
0000
0000
0000
0000
0000
,
3010
0000
0000
0000
0100
0000
0000
0000
0001
0000
0000
0000
0100
0000
0000
0010
0000
0000
1000
0000
0000
0010
0000
0000
1000
0000
0000
0000
0001
0000
0000
0010
0000
0000
0100
0000
0000
1000
0000
0000
0001
0000
0000
0000
0100
0000
0000
0000
,
0001
0000
0000
1000
0000
0000
0100
0000
0000
0010
0000
0000
0001
0000
0000
0000
0000
0000
1000
0000
0000
0000
0000
0000
0001
0000
0000
0000
0000
0000
0000
0000
0000
0000
0001
0000
0000
0000
0000
1000
0000
0000
0000
0000
0000
0000
0000
0000
,
0000
0000
2000
0000
0000
0000
0000
0002
0000
0000
0000
0000
0000
0000
0000
0000
0000
0000
0000
0000
0000
0000
0000
0000
0000
0000
0000
0000
0000
0000
0000
0000
0000
0000
0000
0000
0000
0000
0000
0000
0000
0000
0000
0000
0000
0000
0000
0000
,
0000
0000
0000
0000
0000
0000
0000
0000
0000
0000
0000
0000
0000
0000
0000
0000
0000
0000
0000
0000
0000
0000
0000
0000
0000
0000
0000
0000
0000
0000
0000
0000
0000
0000
0000
0000
0000
0000
0000
0000
0000
0000
0000
0000
0000
0000
0000
0000
0000
0000
0000
0000
3003
000M
M00M
M00M
M00M
M00M
M00M
M00M
M00M
M00M
M00M
M00M
,
M00M
M00M
M00M
M00M
M00M
M00M
M00M
M00M
M00M
M00M
M00M
M00M
M00M
M00M
M00M
M00M
M00M
M00M
M00M
M00M
M00M
M00M
M00M
M00M
M00M
M00M
M00M
M00M
M00M
M00M
M00M
M00M
M00M
M00M
M00M
M00M
M00M
M00M
M00M
M00M
M00M
0000
0000
0000
0220
0000
0000
0000
0000
0000
0000
0000
0000
0000
0000
0000
0000
0000
0000
0000
0000
0000
0000
0000
,
0330
0000
0000
0000
0001
0000
0000
0000
1000
0000
0000
0000
0001
0000
0000
0000
0100
0000
0000
0000
0010
0000
0000
0000
0100
0000
0000
0001
0000
0000
1000
0000
0000
0100
0000
0000
0010
0000
0000
0100
0000
0000
0000
0000
1000
0000
0000
0000
,
0001
0000
0000
0000
0100
0000
0000
0000
0001
0000
0000
0000
0010
0000
0000
0100
0000
0000
1000
0000
0000
0001
0000
0000
0100
0000
0000
0000
0010
0000
0000
0000
0100
0000
0000
0000
0001
0000
0000
0000
0100
0000
0000
0000
0010
0000
0000
0000
,
1000
0000
0000
0000
0000
0000
0000
0000
0000
0000
0000
0000
0100
0000
0000
0000
0000
0000
0000
0000
0000
0000
0000
0000
0010
0000
0000
0000
0000
0000
0001
0000
0000
0000
0000
0000
1000
0000
0000
0000
0000
0000
0010
0000
0000
0000
0000
0000
1000
0000
0000
0000
0000
0000
0M01
0000
0000
0000
0000
0000
M010
0000
0000
0000
0000
0000
010M
0000
0000
0000
0000
0000
10M0
0000
0000
0000
0000
0000
0000
0000
0M01
0000
0000
0000
0000
0000
0000
M000
0010
0000
0000
0000
0000
0000
0000
0000
,
010M
0000
0000
10M0
0000
0000
0M01
0000
0000
M010
0000
0000
010M
0000
0000
1000
0000
0000
0001
0000
0000
0000
0000
0000
0000
0000
0000
0000
0000
0000
0020
0000
0000
0000
0000
0000
0000
0000
0000
0000
0000
0000
0000
0000
0130
0000
0000
0000
,
1000
0000
0000
0000
0001
0000
0000
0000
0100
0000
0000
0000
0010
0000
0000
0000
1000
0000
0000
0000
0001
0000
0000
0000
0010
0000
0000
0000
0001
0000
0000
0000
0010
0000
0000
0000
0100
0000
0000
1000
0000
0000
0100
0000
0000
0010
0000
0000
,
0001
0000
0000
0000
1000
0000
0000
0000
0010
0000
0000
0000
0100
0000
0000
0000
0010
0000
0000
0000
1000
0000
0000
0000
0002
0000
0000
0000
0000
0000
0000
0000
0000
0013
0000
0000
0100
0000
0000
1000
0000
0000
0001
0000
0000
0010
0000
0000
,
0001
0000
0000
0100
0000
0000
0010
0000
0000
0100
0000
0000
0001
0000
0000
1000
0000
0000
0000
0000
0000
0001
0000
0000
1000
0000
0000
0001
0000
0000
0010
0000
0000
0000
0000
0000
0100
0000
0000
0000
0100
0000
0000
0000
0100
0000
0000
0000
,
0100
0000
0000
0000
0100
0000
0000
0000
0100
0000
0000
0000
0000
0000
0001
0000
0000
0000
1000
0000
0000
0100
0000
0000
1000
0000
0000
0001
0000
0000
0100
0000
0000
0001
0000
0000
1000
0000
0000
0020
0000
0000
0000
0000
0000
0000
0000
0000
,
0000
0000
0000
0000
0000
0000
0030
0000
0000
0100
0000
0000
0000
0000
0001
0000
0000
0000
1000
0000
0000
0100
0000
0000
0010
0000
0000
0100
0000
0000
1000
0000
0000
0100
0000
0000
0010
0000
0000
0001
0000
0000
0010
0000
0000
0100
0000
0000
,
1000
0001
0000
0100
0000
0000
0010
0000
1000
0000
0001
0000
0100
0000
0010
0000
,
1000
0000
0001
0010
0000
0100
1000
0001
0010
0100
1000
0000
0002
0000
0000
0000
,
0000
0000
0000
0000
,
0000
0000
0000
0000
0000
0000
0000
0000
0000
0000
0000
0000
0000
0000
0000
0000
0000
0000
0000
0000
0000
0000
0000
0000
0000
0000
0000
0000
0000
0000
0000
0000
0000
0000
0000
0000
0000
0000
0000
0000
0000
0000
0000
0000
0000
0000
0000
0003
000M
0000
0000
000M
0000
0000
000M
0000
0000
000M
0000
0000
000M
0000
0000
000M
0000
0000
000M
0000
0000
000M
0000
0000
000M
0000
0000
000M
0000
0000
000M
0000
0000
000M
0000
0000
000M
0000
0000
000M
0000
0000
000M
0000
0000
000M
0000
0000
200M
0000
0000
000M
0000
0000
000M
0000
0000
000M
0000
0000
000M
0000
0000
000M
0000
0000
000M
0000
0000
000M
0000
0000
000M
0000
0000
000M
0000
0000
000M
0000
0000
000M
0000
0000
000M
0000
0000
000M
0000
0000
000M
0000
0000
000M
0000
0000
000M
0000
0000
000M
0000
0000
000M
0000
0000
000M
0000
0000
000M
0000
0000
000M
0000
0000
000M
0000
0000
000M
0000
0000
000M
0000
0000
000M
0000
0000
000M
0000
0000
000M
0000
0000
000M
0000
0000
000M
0000
0000
000M
0000
0000
000M
0000
0000
,
000M
000M
000M
000M
000M
000M
000M
000M
000M
000M
000M
000M
000M
000M
000M
000M
000M
000M
000M
000M
000M
000M
000M
000M
000M
000M
000M
000M
000M
000M
000M
000M
000M
000M
000M
000M
000M
000M
000M
000M
000M
000M
000M
000M
000M
000M
000M
000M
000M
000M
000M
000M
000M
000M
000M
000M
000M
000M
000M
000M
000M
000M
000M
000M
,
300M
M00M
M00M
M00M
M00M
M00M
M00M
M00M
M00M
M00M
M00M
M00M
M00M
M00M
M00M
M00M
M00M
0000
0000
0000
0000
0000
0000
0000
0000
0000
0000
0000
0000
0000
0000
0000
0001
0000
0000
0000
0000
0000
0000
0000
1000
0000
0000
0000
0100
0000
0000
0000
1000
0000
0000
0000
0000
0000
0000
0000
0010
0000
0000
0000
0000
0000
0000
0000
,
0100
0000
0001
0100
0001
0000
0010
0000
0100
0000
1000
0001
0100
0000
0010
1000
,
0001
0000
0010
0100
1000
0000
0001
0000
0100
0001
1000
0010
0100
0001
1000
0100
,
1000
0001
0010
0100
0010
0001
1000
0100
0010
0001
1000
0001
0010
0100
1000
0001
,
0100
0001
1000
0010
0100
0001
1000
0100
0010
0000
0001
0000
1000
0000
0100
0000
,
1000
0001
0100
0001
0101
0100
1100
0100
,
0101
0100
1100
0100
0102
1000
0100
1003
,
2100
0000
0000
0000
0000
0000
0000
0000
0000
0000
0000
0000
0000
0000
0000
0000
0000
0000
0000
0000
0000
0000
0000
0000
0001
0000
0000
0000
0000
0000
0000
0000
0000
0000
0000
0000
0000
0000
0000
0000
0000
0000
0000
0000
0000
0000
0000
0000
0100
0000
0000
0000
0000
0000
0000
0000
0000
0000
0000
0000
0000
0000
0000
0000
0000
0000
0000
0000
0000
0000
0000
0000
3001
0000
0000
0000
0000
0000
0000
0000
0000
0000
0000
0000
0000
0000
0000
0000
0000
0000
0000
0000
0000
0000
0000
0000
0220
0330
0000
0000
0000
0000
0000
0000
0000
0000
0000
0000
0000
0000
0000
0000
0000
0000
0000
0000
0000
0000
0000
0000
2002
3003
0000
0000
0000
0000
0000
0000
0000
0000
0000
0000
0000
0000
0000
0000
0000
0000
0000
0000
0000
0000
0000
0000
0220
0330
0000
0000
0000
0000
0000
0000
0000
0000
0000
0000
0000
0000
0000
0000
0000
0000
0000
0000
0000
0000
0000
0000
0000
0000
0000
0000
0000
0000
0000
0000
0000
0000
0000
0000
0000
0000
0000
0000
0000
0000
0000
0000
0000
0000
0000
0000
,
1001
0000
1000
0010
0100
0000
0001
0010
0100
0000
1000
0000
0001
0000
0101
0000
,
0100
0000
0001
0010
0100
0000
1000
0010
0100
0000
0001
0000
1000
0000
0001
0000
,
1000
0000
0001
0100
0001
0000
0100
0010
0100
0000
1000
0100
0001
1000
0001
0010
,
0100
1000
0001
0010
1000
0000
0010
0000
0110
0000
0100
1000
0001
0000
0100
0000
,
0110
0000
0010
1000
0001
0000
0010
0000
0100
0000
1000
0000
0001
0000
0101
0000
,
0000
0000
0100
0001
1000
0000
0001
0010
0100
0000
1000
0000
0001
0000
1000
0100
,
1000
0000
0001
0100
1000
0000
0100
0001
0100
0000
0001
0010
1000
0000
0010
0001
,
2000
0000
0000
0000
3001
0000
0010
0000
0100
1000
0010
1000
0001
1000
0100
0010
,
0001
1000
0101
0010
1010
0101
1000
1010
,
0100
0000
0101
0000
0010
0000
1010
0000
0001
0000
1000
0001
1000
0000
0010
0000
,
0100
0001
1000
0010
0100
0001
0010
0100
1000
0001
0100
0010
0100
0001
1000
0100
,
0010
0001
1000
0010
0100
0001
1000
0001
0010
0100
1100
0000
1100
0000
1000
0001
,
1000
0001
1100
0001
0011
1100
0001
0011
,
0100
0000
1100
0000
0001
0000
1100
0000
0011
0000
1000
0010
0100
0000
0001
0000
,
1000
0100
1000
0001
0100
0001
1000
0100
0010
0000
0100
1000
0001
0000
1000
0001
,
0100
0010
0100
0010
1000
0100
0010
0100
0010
0001
0100
0010
0100
0010
1000
0001
,
0010
0100
1000
0001
2000
0010
0001
0100
,
3001
0010
0100
1000
0002
0010
1000
0100
,
1003
0010
0100
0001
0020
0100
1000
0100
,
0031
1000
0001
0010
0200
0010
0001
0010
,
1300
0000
1000
0000
0001
0100
0000
1000
,
0000
0100
0000
0001
0010
0100
1000
0010
,
0100
0000
0001
0000
0001
1000
0000
0010
,
0000
0010
0000
0100
0001
1000
0100
0010
,
0001
0000
0010
0000
0100
1000
0000
0001
,
0000
0001
0000
1000
0010
0100
0001
1000
,
0100
0000
0001
0000
0100
1000
0000
0010
,
0000
0100
0000
0001
1000
0001
0010
0100
,
1000
0000
1001
0000
0001
0100
0000
0010
,
0000
0010
0000
1000
0001
1000
0100
0010
,
0001
0100
1000
0100
0001
0100
1000
0100
,
0001
1000
0000
0010
0100
0000
0001
0010
0000
0100
0010
0000
0001
1000
0000
0010
0100
0000
0001
0000
0000
0020
0000
0000
,
0000
0000
0100
0000
0130
1000
0001
0100
,
1001
0000
0001
0100
0010
0000
1000
0100
0010
0000
0001
0000
1000
0000
1100
0000
,
0001
0000
1000
0010
0100
0000
0001
0010
0100
0000
1000
0000
0001
0000
0100
0000
,
0001
0000
1000
0100
1000
0000
0100
0010
0100
0000
0001
0100
1000
0001
1000
0010
,
0100
0001
1000
0010
0001
0000
0010
0000
0110
0000
0100
0001
1000
0000
0100
0000
,
0110
0000
0010
0001
1000
0000
0100
0000
0001
0000
0100
0000
1000
0000
1100
0000
,
0001
0000
1000
0010
0100
0000
1000
0100
0001
0000
0010
0000
0100
0000
1000
0001
,
0100
0000
0001
0010
1000
0000
0010
0001
0100
0000
1000
0100
0001
0000
0010
0000
,
0100
0000
0000
0000
1000
0000
0001
0000
1000
0001
0010
0100
0010
0001
0010
0100
,
1000
0001
0110
1000
0101
1001
0010
1100
,
0010
0000
0101
0000
0010
0000
1001
0000
1000
0000
0010
0100
0010
0000
1000
0000
,
0001
0010
0100
1000
0001
1000
0100
0001
0100
1000
0010
0100
0001
1000
0001
0100
,
1000
0100
0001
0010
0100
1000
0001
1000
0100
0010
0110
0000
0110
0000
0100
1000
,
0001
0100
0110
1000
0001
1100
0010
0101
,
1000
0000
0011
0000
0100
0000
1000
0000
0110
0000
0001
0010
0100
0000
1000
0000
,
0010
0100
1000
0100
0001
1000
0100
0010
0100
0000
1000
0010
0100
0000
0001
1000
,
0100
0010
0100
0010
0001
0100
0010
0100
0010
1000
0100
0010
0100
0010
0001
1000
,
1100
1000
0110
0001
1010
0101
0001
1100
,
0001
0000
0010
0100
1000
0000
0010
0200
0001
0000
0010
0000
1000
0000
0310
0000
,
1001
0010
0110
1000
1100
0011
0100
1010
,
1000
0000
0001
0010
0100
0000
0010
0200
1000
0000
0010
0000
0001
0000
0310
0000
,
1001
0100
0110
0001
0101
1010
0100
0011
,
0100
0000
1000
0100
0010
0000
0100
0010
0002
0000
0010
0000
1000
0000
0103
0000
,
1001
0010
1010
0100
0101
0011
0100
1100
,
1000
0000
0001
0010
1000
0000
0001
0000
0100
0000
1000
0000
0001
0000
0100
0000
;
