#TITLE:抜錨;
#SUBTITLE:;
#ARTIST:ナナホシ管弦楽団 -Cover- ウォルピスカーター;
#TITLETRANSLIT:Batsubyou;
#SUBTITLETRANSLIT:;
#ARTISTTRANSLIT:Nanahoshi Kangengakudan;
#GENRE:POP;
#CREDIT:;
#MUSIC:Batsubyou.ogg;
#BANNER:Batsubyou.png;
#BACKGROUND:Batsubyou-bg.png;
#CDTITLE:;
#SAMPLESTART:46.307;
#SAMPLELENGTH:13.714;
#SELECTABLE:YES;
#OFFSET:1.693;
#BPMS:0.000=140.000;
#STOPS:;
#BGCHANGES:;
#FGCHANGES:;

//--------------- dance-single - ----------------
#NOTES:
     dance-single:
     :
     Medium:
     11:
     0,0,0,0,0:
0000
0000
0000
0000
,
0000
0000
0000
0000
,
0001
0000
0100
0001
0000
0100
0010
0000
0000
0110
0000
0000
,
1000
0000
0100
1000
0000
0100
0010
0000
0000
0110
0000
0000
,
0001
0000
0100
0010
0000
1000
0001
0000
0010
0100
0000
1000
,
0010
0000
0100
0001
0000
0000
1001
0000
0000
0110
0000
0000
,
1001
0000
1000
0010
0000
0010
0100
0000
0001
0010
0000
0010
,
0100
0000
1000
0010
0000
0010
0100
0000
0000
1001
0000
0000
,
1001
0000
0001
0010
0000
0010
0100
0000
1000
0010
0000
0010
,
0100
0000
0001
0010
0000
0010
0200
0000
0000
1000
0000
0000
,
1300
0000
0000
0010
0000
0000
0100
0000
0001
1000
0000
0000
,
0001
0000
0000
0010
0000
0000
0100
0000
1000
0001
0000
0000
,
0100
0000
0100
0010
0000
0000
1000
0000
1000
0001
0000
0000
,
0011
0110
1100
1001
,
1000
0000
0001
0100
0000
0000
0001
0000
1000
0100
0000
0000
,
1000
0000
0001
0010
0000
0000
0001
0000
1000
0010
0000
0000
,
0100
0001
1000
0100
,
1000
0000
0001
0100
0000
0010
0100
0000
0000
0110
0000
0000
,
1001
1001
1100
1100
,
1001
1001
0101
0101
,
1000
1100
0001
0101
,
1000
1010
0001
0011
,
0110
1100
0110
0101
,
0010
1100
0010
0101
,
0002
0203
0320
2030
,
3001
0000
0001
0010
0000
0010
0100
0000
0100
1000
0000
1000
,
0001
0110
1000
0110
,
0001
0110
1001
1001
,
1000
0000
0010
0100
0000
0001
0010
0000
0000
0110
0000
0000
,
0100
0000
1000
0010
0000
0100
0001
0000
0000
0011
0000
0000
,
1000
0000
0001
0100
0000
0000
0001
0000
1000
0100
0000
0000
,
1000
0000
0010
0100
0000
0100
0010
0000
0000
0110
0000
0000
,
0001
0100
0001
0100
0000
0000
0010
1000
0010
1000
0000
0000
,
1000
0100
1000
0100
0000
0000
0010
0001
0010
0001
0000
0000
,
1000
0000
0010
0100
0000
0000
0001
0000
0010
0100
0000
1000
,
0020
0000
0000
0000
0000
0000
0130
0000
0001
0100
0000
0001
,
0010
0100
1000
0010
,
1001
0010
1001
0001
,
0100
0000
0000
0010
0000
1000
0100
0000
0000
0010
0000
0000
,
0020
0032
2003
3020
,
0130
0000
0100
0001
0000
0001
2000
0000
0000
0100
0000
0000
,
3100
0000
0100
1000
0000
1000
0002
0000
0000
0100
0000
0000
,
0103
1001
0100
1001
,
0010
1001
0020
0000
,
0130
0001
1000
0100
,
0010
0010
0001
0001
,
0110
1001
1001
1001
,
0001
0000
1000
0010
0000
0100
0001
0000
1000
0010
0000
0000
,
0100
0000
0100
0001
0000
0001
1000
0000
1000
0100
0000
0000
,
0100
0000
0100
1000
0000
1000
0001
0000
0001
0100
0000
0000
,
0100
0000
0001
1000
0000
0000
0100
0000
1000
0001
0000
0000
,
0100
0000
0001
0010
0000
0100
1000
0000
0000
1001
0000
0000
,
1000
0100
1000
0010
0000
0000
0010
1000
0100
1000
0000
0000
,
0001
0100
0001
0010
0000
0000
0010
0001
0100
0001
0000
0000
,
0010
0000
0010
0100
0000
0000
1000
0000
1000
0001
0000
0000
,
0100
0010
1000
1001
,
0001
0000
0100
0010
0000
1000
0001
0000
0010
0100
0000
0000
,
1000
0000
0010
0100
0000
0001
1000
0000
0100
0010
0000
0000
,
0001
0000
0100
0010
0000
0100
0001
0000
0100
0010
0000
0000
,
1000
0000
0100
0010
0000
0100
1000
0000
0000
1001
0000
0000
,
0001
0100
0010
1000
0000
0000
1000
0010
0100
0001
0000
0000
,
0001
0010
0100
1000
0000
0000
1000
0100
0010
0001
0000
0000
,
0100
1010
0101
1010
,
0002
0000
0000
0000
1003
0010
0100
0000
0001
0010
0100
1000
,
0010
0000
0100
0001
0000
0100
0010
0000
1000
0001
0000
0000
,
1000
0000
0100
0010
0000
0100
1000
0000
0001
0100
0000
0000
,
0010
0000
1000
0100
0000
1000
0001
0000
0010
0100
0000
0000
,
0110
0000
0000
1000
0100
0010
0001
0000
0000
1001
0000
0000
,
0100
0000
0010
1000
0000
0010
0100
0000
0001
1000
0000
0000
,
0001
0000
0010
0100
0000
0010
0001
0000
1000
0100
0000
0000
,
0010
0000
0001
0100
0000
0001
1000
0000
0010
0100
0000
0000
,
0110
0000
0000
0001
0010
0100
1000
0000
0000
0110
0000
0000
,
1001
0000
0001
0010
0000
0010
0100
0000
1000
0010
0000
0010
,
0100
0000
0001
0010
0000
0010
0100
0000
0000
0110
0000
0000
,
1001
0000
1000
0010
0000
0010
0100
0000
0001
0010
0000
0010
,
0100
0000
1000
0010
0000
0010
0100
0000
0000
0000
0000
0000
;

//--------------- dance-single - ----------------
#NOTES:
     dance-single:
     :
     Hard:
     15:
     0,0,0,0,0:
0000
0000
0000
0000
,
0000
0000
0000
0000
0000
0000
0000
0000
0000
0000
0000
0001
,
1000
0010
1000
0001
0100
0001
1000
0100
0010
0001
0000
1000
,
0001
0010
0001
1000
0100
1000
0001
0010
0100
1000
0000
0000
,
0001
0100
0001
1000
0100
1000
0001
0010
0100
1000
0010
0100
,
0001
1000
0001
0100
0010
1000
0001
0000
0000
0110
0000
0000
,
1001
0000
0001
0100
1000
0100
0001
0000
1000
0100
0001
0100
,
1000
0000
0001
0100
1000
0100
0001
0000
0000
0110
0000
0000
,
1001
0000
1000
0100
0001
0100
1000
0000
0001
0100
1000
0100
,
0001
0000
1000
0100
0001
0100
1000
0000
0000
0000
0000
0001
,
0100
0010
0100
0010
1000
0001
0010
0100
1000
0001
0000
1000
,
0100
0010
0100
0010
0001
1000
0010
0100
0001
1000
0000
0000
,
0001
0100
0001
0100
0010
1000
0001
0010
0001
0010
0000
0100
,
1000
0000
1000
0001
0000
0001
1000
0000
1000
0010
0000
0000
,
0100
0001
0100
0001
1000
0010
0100
0001
0100
0001
0000
0010
,
0100
1000
0100
1000
0001
0010
0100
1000
0100
1000
0000
0000
,
0100
1000
0001
0100
0001
1000
0100
1000
0001
0010
0000
0010
,
0001
0000
0001
1000
0100
0010
0001
0000
0000
0110
0000
0000
,
1000
0100
1000
0001
0000
0001
1000
0000
0000
0001
0000
0100
,
0001
0000
0000
1001
0000
1000
0100
0000
0100
1000
0000
0001
,
0000
0000
0000
0100
0000
0010
1000
0000
0001
0010
0000
0100
,
1000
0000
0001
0100
0000
1000
0100
0000
0000
0110
0000
0000
,
0001
0100
0001
1000
0000
1000
0100
0000
0000
0110
0000
0001
,
1000
0000
0000
1010
0000
0000
0101
0000
0001
0010
0000
0100
,
2000
0000
0000
3001
0000
0100
0020
0000
0000
0130
0000
0000
,
0110
0000
0010
1000
0000
1000
0001
0000
0001
0010
0000
0010
,
0100
0000
0100
1000
0001
1000
0001
0000
0100
0001
1000
0001
,
1000
0000
0001
0010
0100
0010
0110
0000
0000
1001
0000
0000
,
1000
0001
1000
0010
0100
0010
1000
0100
0010
0001
0000
0100
,
0001
1000
0001
0010
0100
0010
0001
0010
0100
1000
0000
0000
,
0001
0100
0001
1000
0100
1000
0010
0100
0001
1000
0000
1000
,
0100
0000
0100
0010
0001
1000
0020
0000
0000
0130
0000
0000
,
0100
0001
0010
1000
0010
0001
0100
1000
0100
0001
0000
0001
,
1000
0100
0001
0100
1000
0010
0001
0010
1000
0001
0000
0001
,
0010
0100
1000
0001
0000
1000
0010
0100
0001
1000
0000
0001
,
0010
0000
0000
0110
0000
1000
0001
0000
0001
0010
0100
1000
,
0001
0000
0000
0100
0000
0001
0010
0000
0000
1100
0000
1000
,
0010
0000
0000
0101
0000
0001
0010
0000
0000
0110
0000
1000
,
0001
0000
0000
0101
0000
1000
0001
0000
0000
0110
0000
0100
,
0001
0000
0001
0100
0001
0100
0010
0100
0010
1000
0001
1000
,
0020
0000
0130
0001
1000
0001
2000
0000
3001
0010
0100
0010
,
0200
0000
1300
0001
0100
0001
0200
0000
0301
1000
0000
0001
,
1000
0100
1000
0100
0010
0001
1000
0010
1000
0010
0100
0001
,
1000
0100
1000
0001
0100
0001
0020
0000
0000
0130
0000
1000
,
0001
0000
0001
0020
0000
0130
1000
0000
1000
0020
0000
0130
,
0001
0000
0001
0010
0000
0010
1000
0000
1000
0010
0001
0100
,
0010
0000
0100
0020
0000
1030
0002
0000
0013
0200
0000
1300
,
0001
0000
0010
0001
1000
0100
0020
0000
0000
0031
0000
1000
,
0010
0100
0010
0100
0001
1000
0001
1000
0100
0001
0000
0001
,
0100
0010
0100
0010
0001
1000
0001
1000
0010
0001
0000
0001
,
0010
0100
0010
1000
0001
1000
0001
0010
0100
2000
0000
3001
,
1000
0100
0010
0100
1000
0001
0020
0000
0000
0130
0000
1000
,
0010
0100
0001
0010
1000
0001
0100
1000
0001
1000
0000
0001
,
0010
0100
1000
0010
0001
1000
0100
0001
1000
0001
0000
1000
,
0100
1000
0100
0001
0000
1000
0010
1000
0010
0001
0000
1000
,
0001
0100
0001
1000
0001
0010
0200
0000
0000
0310
0000
0010
,
0001
0100
0001
0100
1000
0100
1000
0001
0010
2000
0000
3010
,
1000
0100
1000
0100
0001
0100
0001
1000
0010
0002
0000
0013
,
0100
1000
0001
0010
0100
0010
0001
1000
0100
0020
0000
0031
,
0100
0010
1000
0001
0100
0010
2000
0000
0000
3001
0000
1000
,
0001
0100
1000
0001
1000
0100
0001
0100
1000
0002
0000
0013
,
1000
0100
0001
1000
0001
0100
1000
0100
0001
2000
0000
3010
,
0001
0100
0010
0001
0010
0100
0001
0010
0100
2000
0000
3001
,
0010
0100
0010
0100
1000
0001
2000
0000
3010
0100
0010
1000
,
0001
0010
0001
1000
0100
1000
0001
0100
0010
1000
0000
0001
,
1000
0010
1000
0001
0100
0001
1000
0010
0100
0001
0000
0000
,
1000
0100
1000
0001
0100
0001
1000
0010
0100
0001
0010
0100
,
1000
0001
1000
0100
0010
0001
1000
0000
0000
0110
0000
0000
,
1000
0010
1000
0001
0100
0001
1000
0100
0010
0001
0000
1000
,
0001
0010
0001
1000
0100
1000
0001
0010
0100
1000
0000
0000
,
0001
0100
0001
1000
0100
1000
0001
0010
0100
1000
0010
0100
,
0001
1000
0001
0100
0010
1000
0001
0000
0000
0110
0000
0000
,
1001
0000
0001
0100
1000
0100
0001
0000
1000
0100
0001
0100
,
1000
0000
0001
0100
1000
0100
0001
0000
0000
0110
0000
0000
,
1001
0000
1000
0100
0001
0100
1000
0000
0001
0100
1000
0100
,
0001
0000
1000
0100
0001
0100
1000
0000
0000
0000
0000
0000
;

//--------------- dance-single - ----------------
#NOTES:
     dance-single:
     :
     Challenge:
     16:
     0,0,0,0,0:
0000
0000
0000
0000
,
0000
0000
0000
0000
0000
0000
0000
0000
0000
0000
0000
0001
,
0100
0100
0100
0001
1000
0010
0100
0100
0100
0001
0000
1000
,
0100
0100
0100
1000
0001
0010
0100
0100
0100
1000
0000
0000
,
0001
0100
0100
1000
0010
0010
0001
0100
0001
1000
0010
1000
,
0100
0100
0100
1000
0100
0010
0001
0000
0000
0110
0000
0000
,
1001
0000
0001
0100
0100
0100
0001
0000
1000
0100
0100
0100
,
1000
0000
0001
0100
0100
0100
0010
0000
0000
1001
0000
0000
,
1001
0000
0001
0100
0100
0100
0001
0000
1000
0100
0100
0100
,
1000
0000
0001
0100
0100
0100
0010
0000
0000
2000
0000
3001
,
0100
0100
0010
0001
1000
0001
0100
0100
1000
0001
0000
1000
,
0100
0100
0010
1000
0001
0010
0100
0100
0001
1000
0000
0000
,
0001
0100
0100
1000
0010
0010
0001
0010
0100
1000
0000
0001
,
0100
0000
0000
0000
0010
0000
1000
0000
0000
0000
0001
1000
0001
0000
0000
0000
1000
0000
0010
0000
0000
0000
0000
0000
,
1000
0100
0100
0001
0010
0100
1000
1000
0100
0001
0000
1000
,
0100
0100
0001
0010
0100
1000
0001
0001
0100
1000
0000
0000
,
0001
0100
0100
1000
0100
0100
0001
1000
0001
0010
0000
0100
,
1000
0000
0001
0010
0100
1000
0010
0000
0000
0110
0000
0000
,
1000
0100
0010
0001
0000
0001
1000
0000
0000
0010
0000
0100
,
0010
0000
0000
0110
0000
1000
0001
0000
0001
1000
0000
0100
,
0000
0000
0000
0010
0000
0001
1000
0000
0001
0100
0000
0010
,
1000
0000
0001
0010
0000
0100
1000
0000
0001
0100
0000
0000
,
0010
1000
0100
0010
0000
0100
1000
0000
0000
0001
0000
0100
,
0010
0000
0000
0100
0000
0000
0001
0000
1000
0100
0000
0100
,
0001
0000
0000
0100
0000
1000
0001
0000
0000
0100
0000
0000
,
0110
0000
0010
1000
0000
1000
0100
0000
0100
0001
0000
0001
,
0100
0000
1000
0010
0100
0001
0101
0000
0001
0010
0100
1000
,
1100
0000
0100
1000
0001
0100
1001
0100
0010
1001
0010
0100
,
1001
0001
0100
1000
0100
0001
0100
0100
0100
0001
0000
1000
,
0001
1000
0100
0001
0100
1000
0100
0100
0100
1000
0000
0001
,
0100
0100
1000
0010
0010
0001
0100
1000
0001
0010
0000
0010
,
1000
0000
1000
0100
0010
0001
1000
0000
0000
0110
0000
0000
,
0001
0100
0100
1000
0010
0010
0001
0010
0100
1000
0000
1000
,
0100
0100
0001
0010
0010
1000
0010
0100
0001
1000
0000
1000
,
0100
0010
0001
1000
0000
0001
0100
0010
1000
0001
0000
0010
,
0100
0000
1000
0001
1000
0001
1000
0000
0010
0100
0010
1000
,
0001
0000
0001
0010
0000
0010
0100
0000
0000
1010
0000
0010
,
0101
0000
0000
0011
0000
0010
1100
0000
0000
1001
0000
1000
,
0110
0000
0000
1001
0000
0001
0110
0000
0001
0100
0000
0100
,
0001
1000
0001
0100
0010
0100
0001
0010
0100
1000
0001
0010
,
0100
0000
0100
1000
0001
0100
0210
0010
0310
1000
0100
0010
,
0021
0001
0031
0010
0100
0010
1002
0100
0103
0110
0000
1000
,
0001
0010
0100
1010
0100
1000
0001
0100
0010
1100
0010
1000
,
0001
0100
0010
1100
0010
1000
0001
0010
0100
1000
0100
0010
,
0110
0000
0001
0101
0000
0100
0001
0010
0100
1100
0000
1000
,
0110
0000
0000
0000
0001
0000
0110
0000
0000
0000
1000
0000
0010
0000
0100
0000
0001
0000
1000
0100
1000
0000
0001
0000
,
0102
0000
0100
2003
0000
0001
3020
0000
1000
0230
0000
0010
,
0302
0000
0013
0100
1000
0100
0010
0100
1000
0001
1000
0001
,
0100
0100
1000
0010
0001
0010
1000
0100
0100
0001
0000
1000
,
0100
0100
0001
0010
1000
0010
0001
0100
0100
1000
0000
1000
,
0001
0100
0100
1000
0100
0001
0100
0100
0001
1000
0000
0001
,
0100
1000
0001
0010
1000
0100
0100
0001
0010
1000
0001
0100
,
1000
0100
0100
0001
1000
0010
0010
0001
0100
1000
0000
1000
,
0100
0100
0010
0100
0100
0001
1000
0100
0010
0001
0000
0001
,
0100
0100
0010
0100
0100
0010
0100
0100
0010
0001
0000
0001
,
0010
0000
0100
0000
0010
0000
1000
0000
0001
0000
0100
1000
0001
0000
0100
0000
0010
0000
0110
0000
0000
0000
0001
0000
,
0100
0100
1000
0001
0001
0100
0010
0010
1000
0001
0000
1000
,
0100
0100
0001
1000
1000
0100
0010
0010
0001
1000
0000
0001
,
1000
1000
0100
0001
0001
0100
1000
1000
0100
0001
0000
1000
,
0001
0001
0100
1000
1000
0100
0001
0001
0100
0110
0000
0001
,
0100
0100
1000
0010
0001
1000
0100
0100
0100
0001
0000
1000
,
0100
0100
0001
0010
1000
0001
0100
0100
0100
1000
0000
0010
,
0100
0010
0100
0100
0010
0100
0010
0010
0100
0110
0000
1000
,
0001
0010
1000
0010
0010
0100
0001
0000
0001
1000
1000
1000
,
0100
0100
0001
1000
0010
0100
0010
0010
0001
1000
0000
0001
,
0100
0100
1000
0001
0010
0100
0010
0010
1000
0001
0000
1000
,
0001
0001
0001
0100
0100
1000
0010
0010
0001
0100
0010
1000
,
0100
0100
0100
1000
0001
0010
0100
0000
0000
0110
0000
0001
,
0100
0100
1000
0001
0010
0100
0010
0010
1000
0001
0000
1000
,
0100
0100
0001
1000
0010
0100
0010
0010
0001
1000
0000
0001
,
1000
1000
1000
0100
0100
0001
0010
0010
1000
0100
0010
0001
,
0100
0100
0100
0001
1000
0010
0100
0000
0000
0110
0000
0000
,
1001
0000
0001
1000
1000
1000
0010
0000
0100
0001
0001
0001
,
0010
0000
0100
1000
1000
1000
0010
0000
0000
0110
0000
0000
,
1001
0000
0001
1000
1000
1000
0010
0000
0100
0001
0001
0001
,
0010
0000
0100
1000
1000
1000
0001
0000
0000
0000
0000
0000
;
