#TITLE:BLIZZARD;
#SUBTITLE:;
#ARTIST:BURNOUT SYNDROMES;
#TITLETRANSLIT:BLIZZARD;
#SUBTITLETRANSLIT:;
#ARTISTTRANSLIT:BURNOUT SYNDROMES;
#GENRE:ANIME;
#CREDIT:;
#MUSIC:BLIZZARD.ogg;
#BANNER:BLIZZARD.png;
#BACKGROUND:BLIZZARD-bg.png;
#CDTITLE:;
#SAMPLESTART:56.242;
#SAMPLELENGTH:13.913;
#SELECTABLE:YES;
#OFFSET:0.246;
#BPMS:0.000=138.000;
#STOPS:;
#BGCHANGES:0.500=BLIZZARD.avi=1.000=0=0=0=StretchNoLoop====,
1.000=BLIZZARD.avi=1.000=0=0=1,
99999.000=-nosongbg-=1.000=0=0=0=StretchNoLoop====
;
#FGCHANGES:;

//--------------- dance-single - ----------------
#NOTES:
     dance-single:
     :
     Medium:
     12:
     0,0,0,0,0:
0000
0000
0000
0000
,
2000
0000
0000
0000
,
3002
0000
0000
0000
,
0203
0000
0000
0000
,
0000
0000
0000
0000
0000
0300
1001
0000
,
1000
1000
0001
0100
0010
1000
0001
0000
,
0001
0001
1000
0100
0010
0001
1000
0000
,
0010
0010
0100
0001
1000
0100
0010
0002
,
0000
0000
1000
0000
0000
1000
0000
0000
1003
0000
0020
0000
0000
0000
0000
0000
,
0130
0000
0001
0000
1000
0010
0000
0100
0000
0010
1000
0000
0001
0010
0000
0100
,
0000
0010
0001
0000
0001
0000
0010
0000
0100
0000
1000
0000
0001
0100
0000
0000
,
0010
0000
0010
0000
1000
0100
0000
0010
0000
0100
1000
0000
0001
0000
0100
0000
,
0001
0001
1000
0000
1000
0010
0100
0000
,
0100
0001
1000
0001
0100
0000
0010
1000
,
0001
1000
0010
0000
0000
0100
0001
0010
,
0100
1000
0001
0000
1000
0100
1000
0000
,
0001
0100
0001
1000
0100
0010
0001
0000
,
0001
0100
1000
0100
0001
0000
1000
0100
,
0001
0100
1000
0000
0000
0010
1000
0100
,
0100
0010
0001
0100
0100
0010
1000
0100
,
0010
0000
1001
0000
0001
0100
0110
0000
,
1000
1000
0001
0001
,
1000
0100
0010
0100
1000
0000
0001
0100
,
0001
0000
1000
0010
1000
0000
0010
0100
,
0001
0000
0101
0000
1010
0000
1000
0100
,
0010
0001
0001
1000
,
1000
0010
0001
0010
1000
0000
0001
0010
,
0100
0000
0100
0000
1000
0000
1000
0001
,
0000
0001
0001
1000
1000
0001
1001
0000
,
0101
0000
0001
0100
0001
0000
0100
0001
0100
0000
0001
0100
0001
0000
1000
0000
,
0001
0000
1000
0100
1000
0000
0100
1000
0100
0000
1000
0100
1000
0000
0001
0000
,
0101
0101
1100
1100
,
0001
1000
1001
0000
1001
0000
1000
0001
,
0100
0010
1000
0001
0010
0100
1000
0100
,
0010
0001
0011
0000
1010
0000
1001
0000
,
0001
0100
0101
0000
1000
0100
1100
0000
,
1000
0100
1000
0000
0001
0000
1000
0000
0001
0100
0000
0001
0100
0000
0001
0100
,
0010
1000
0001
0100
0010
1000
0001
1000
,
0010
0100
1000
0100
0001
0010
0100
1000
,
0000
0001
0100
0001
0000
1000
0100
1000
,
0010
0100
0000
0010
0100
0000
0010
0100
0000
0010
0100
0000
0001
0000
1000
0000
,
0001
0010
0100
1000
0001
0010
0100
1000
,
0001
1000
0001
0000
1000
0000
1000
0010
,
0100
0010
1000
0000
0001
0010
0100
0000
,
1000
0100
0110
0000
1001
0000
1001
0000
,
0001
0100
0001
0100
0001
0100
0001
0000
,
0100
0010
0110
0000
0000
0000
0000
0000
,
0001
0001
1000
0100
0010
0001
1000
0000
,
1000
1000
0001
0100
0010
1000
0001
0001
,
0000
0000
0101
0000
0000
1100
0000
0000
2002
0000
0000
0000
0000
0000
0000
0000
,
0000
0000
0000
0003
3100
0000
0000
0000
;

//--------------- dance-single - ----------------
#NOTES:
     dance-single:
     :
     Hard:
     15:
     0.48194,0.980724,0.399503,0,0.49383,304,268,36,0,0,0,0.48194,0.980724,0.399503,0,0.49383,304,268,36,0,0,0:
0000
0000
0000
0000
,
0002
0000
0000
0000
,
2003
0000
0000
0000
,
3200
0000
0000
0000
,
0000
0000
0000
0000
0000
0300
1001
0000
,
1100
0000
0101
0000
0001
0000
1000
0000
0001
0010
0100
0010
0001
0010
0100
1000
,
1100
0000
1010
0000
1000
0010
0100
0010
1000
0010
0100
0001
0100
0010
1000
0000
,
1010
0000
0000
0000
0000
0000
0101
0000
0000
0000
0000
0000
0001
0000
0000
1000
0000
0000
0001
0000
0000
0100
0000
0000
0010
0000
0000
0100
0000
0000
0001
0000
0010
0000
0100
0000
1000
0000
0000
0010
0000
0000
0100
0000
0000
0010
0000
0000
,
0000
0000
0110
0000
0000
1001
0000
0000
0210
0000
0302
0000
0000
0000
0000
0000
,
0013
0100
1000
0000
0001
0100
0000
0110
0000
0010
1000
0100
0010
0100
0000
1001
,
0000
0010
0001
0000
0100
0000
1000
0000
0100
0000
0001
0000
1000
0100
0010
0000
,
0110
0000
0010
0000
0001
0100
0000
1001
0000
1000
0100
0000
0010
0001
1000
0100
,
1000
0000
1100
0000
0011
0000
0001
0010
0100
0000
1000
0010
0100
0002
0000
0000
,
0103
0001
0100
0001
1000
0100
1000
0100
,
0001
0100
0001
0100
1000
0010
0100
0001
,
0100
1000
0100
0001
0100
1000
0100
0001
,
0010
0000
0100
0000
1000
0000
0001
0010
0100
0010
0001
1000
0100
0000
0000
0000
,
0110
0010
0001
0100
1001
0000
1000
1100
,
0001
0100
0110
0000
0100
0101
0001
0100
,
1010
1000
0010
0100
1001
0100
0010
0100
,
1001
0000
0010
0000
0110
0000
0000
1000
0010
1000
0010
0000
0100
0000
0001
0000
,
1000
1000
0001
0001
,
0100
0000
0001
0000
0010
0000
0100
0000
1000
0000
0000
0010
0100
0000
0001
0000
,
1000
0000
0000
0000
0000
0000
0000
0000
0000
0001
0000
0000
0010
0000
0000
0000
0000
0000
0001
0000
0000
0000
0000
0000
1000
0000
0000
0000
0000
0000
0010
0000
0000
0100
0000
0000
0001
0000
0000
0000
0000
0000
0010
0000
0100
0000
0010
0000
,
0100
0000
0000
0000
1001
0000
0100
0000
0110
0000
0000
1000
0001
0000
0100
0010
,
0100
0001
0010
0100
1000
0100
0010
0001
1000
0000
0000
0001
0010
0000
0100
0000
,
1000
0000
0001
0100
0001
0000
0010
0000
1000
0000
0000
0010
0001
0000
0100
0000
,
0010
0000
0000
0000
0010
0000
0000
0000
0100
0000
0000
0100
0001
0000
1000
0000
,
0000
0000
0011
0000
0011
0000
1100
0000
1100
0000
0001
0100
0110
0000
0000
0000
,
1001
0000
0001
0100
0001
0000
0001
0100
0001
0000
0001
0100
0001
0000
0011
0000
,
1100
0000
1000
0100
1000
0010
1000
0100
1000
0010
1000
0100
1000
0010
0100
0001
,
0010
0000
0100
1000
0010
0000
0110
0000
1001
0000
0001
0010
0100
0000
0100
1000
,
1001
1001
1001
0000
1001
0000
1000
0100
,
0110
0010
0011
0001
1000
0010
0110
0100
,
0001
1000
1010
1000
0100
1000
1010
1000
,
0001
0100
0101
0001
0010
0100
1100
1000
,
1000
0010
0100
0000
0100
0000
0001
0000
1000
0100
0000
0010
0001
0000
1000
0010
,
0100
0010
1001
1000
0010
0100
0101
0001
,
1000
0010
1010
0010
0100
0001
0011
0001
,
0100
0000
0001
0000
0011
0000
0001
0000
0100
0000
0001
0000
0001
0100
0010
0000
,
0010
0100
0000
0100
0001
0000
1000
0100
0000
0100
0010
0000
0110
0000
0001
1000
,
0001
0010
0100
1000
0001
0100
0010
1000
,
0010
0100
0001
1000
0001
0010
1000
0010
,
0001
0010
0100
1000
0010
0100
0001
0001
,
1000
0000
1000
0000
0110
0000
0110
0000
1000
0010
0000
0000
0100
0001
0010
0000
,
1100
0000
1100
1000
1001
0001
0011
0000
,
0110
0110
0110
0000
0000
0000
0000
0000
,
0101
0000
1100
0000
0001
0000
1000
0000
0001
0010
0100
0010
0001
0010
0100
1000
,
1100
0000
0101
0000
0001
1000
0010
1000
0001
0100
0001
0100
0010
0100
0010
1000
,
0001
0000
0011
0000
0000
1001
0000
0000
2100
0000
0000
0000
0000
0000
0000
0000
,
0000
0000
0000
0000
0000
0000
3010
0100
0010
0000
0000
0000
0000
0000
0000
0000
;

//--------------- dance-single - ----------------
#NOTES:
     dance-single:
     :
     Challenge:
     17:
     0,0,0,0,0:
0000
0000
0000
0000
,
1001
1000
0100
1000
0001
0100
0010
1000
,
1010
0010
0100
0001
1000
0001
0010
0100
,
1100
1000
0001
0100
0001
1000
0100
1000
,
0001
0100
0001
1000
0010
0100
1001
0000
,
1100
0000
0000
0000
0000
0000
1001
0000
0000
0000
0000
0000
0001
0000
0000
0010
0000
0000
0100
0000
0000
0010
0000
0000
0001
0000
0000
0010
0000
0000
0100
0000
0000
1000
0000
0000
0100
0000
0000
0010
0000
0000
0001
0000
0010
0000
0100
0000
,
1000
0000
0000
0000
0000
0000
1001
0000
0000
0000
0000
0000
1000
0000
0000
0010
0000
0000
0100
0000
0000
0010
0000
0000
1000
0000
0000
0010
0000
0000
0100
0000
0000
0001
0000
0000
0100
0000
0000
0010
0000
0000
1000
0000
0010
0000
0100
0000
,
0001
0000
0000
0000
0000
0000
1001
0000
0000
0000
0000
0000
0001
0000
0000
0100
0000
0000
0010
0000
0000
0100
0000
0000
0001
0000
0000
1000
0000
0000
0001
0000
0010
0000
0100
0000
1000
0000
0000
0001
0000
0000
0100
0000
0000
0010
0000
0000
,
0000
0000
0110
0000
0010
1000
0000
0010
0001
0000
0020
0000
0000
0000
0000
0000
,
1030
0100
0010
0000
0001
1000
0000
0110
0000
0100
0001
0100
0010
1000
0000
1010
,
0000
0010
0100
0000
0100
0001
0010
0100
1000
0100
0010
0100
1000
0010
0100
0000
,
0110
0000
1001
0000
1000
0100
0000
0011
0000
0001
1000
0000
1000
0010
0100
0010
,
1000
0000
1010
0000
0101
0000
0001
0010
0100
0010
1000
0010
0001
2000
0000
0000
,
3010
0000
0100
0001
0010
0000
0100
1000
0100
0010
0100
1000
0001
0000
1000
0000
,
0010
0100
0001
0000
1000
0100
0010
0000
0001
0100
0010
0100
0001
0100
0010
0000
,
1000
0000
0100
0010
0100
0000
0001
0000
1000
0000
0010
0100
0010
0000
0001
0000
,
0100
0010
0100
0000
1000
0000
0001
0010
0100
0001
1000
0100
0010
0000
0000
0000
,
0110
0000
0010
0001
0010
0001
0100
0000
1001
0000
0100
0000
1001
0000
1000
0010
,
1000
0010
0100
0000
0110
0000
0100
0000
0001
0000
1000
0001
1000
0000
0100
0010
,
0001
0000
0001
0010
0100
0000
0100
1000
0010
0000
0010
1000
0100
0000
0100
0010
,
1001
0000
0000
0000
0000
0000
0101
0000
0000
0000
0000
0000
1010
0000
0000
0000
0000
0000
0000
0000
0000
1000
0000
0000
0010
0000
0100
0000
0001
0000
1000
0000
0000
0010
0000
0000
0100
0000
0000
0001
0000
0000
0010
0000
0000
0100
0000
0000
,
2000
0100
0100
0010
0010
3001
0110
1100
,
0012
0000
0010
0000
0100
0000
0100
0000
1003
0000
0000
1000
0010
0000
0100
0001
,
0010
0000
0000
0000
0000
0000
0000
0000
0000
0100
0000
0000
1000
0000
0000
0000
0000
0000
0001
0000
0000
0100
0000
0000
1000
0000
0000
0000
0000
0000
1000
0000
0000
0100
0000
0000
0001
0000
0000
0000
0000
0000
1000
0000
0100
0000
1000
0000
,
0100
0000
0010
0000
1001
0000
0110
0000
1001
0000
0000
1000
0001
0000
0100
0010
,
0100
0001
0010
0100
1000
0100
0010
0001
1000
0000
0000
0001
0010
0000
0100
1000
,
0100
1000
0001
0100
0001
0100
1000
0100
0001
0000
0000
1000
0100
0000
0001
0000
,
0100
0000
1000
0100
0010
0000
0010
0001
0100
0000
0000
0100
0001
0000
1000
0000
,
0100
0000
0000
1100
0000
0000
0101
0000
0000
0011
0000
0000
1100
0000
0000
1000
0100
1000
0001
0000
0000
0000
0000
0000
,
1001
0000
0000
0001
0010
0100
1000
0000
0000
0001
0010
0100
1000
0000
0000
0001
0010
0100
1000
0000
0000
0101
0000
0000
,
1010
0000
0000
0000
0000
0000
1000
0000
0010
0000
0100
0000
0001
0000
0000
1000
0000
0000
0001
0000
0010
0000
0100
0000
1000
0000
0000
0001
0000
0000
1000
0000
0010
0000
0100
0000
0001
0000
0000
1000
0000
0000
0100
0000
0010
0000
0001
0000
,
1000
0000
0000
0001
0100
0001
0100
0000
0000
0011
0000
0000
1100
0000
0000
1000
0100
1000
0100
0000
0000
1000
0001
1000
,
0001
1001
1001
0000
1002
0000
2003
3200
,
0310
0001
1000
0010
0100
0001
0010
0100
1000
0001
1000
0100
0010
0001
1000
0001
,
0100
0010
1010
1000
1100
0100
0110
0010
,
0001
0100
0010
1000
0001
0010
0100
0010
0001
1000
0100
0010
0100
1000
1001
0000
,
0100
0000
0000
0010
0000
0000
0100
0000
0000
0000
0000
0000
0110
0000
0000
0000
0000
0000
1001
0000
0000
0000
0000
0000
1000
0000
0000
0100
0000
0000
0000
0000
0000
0001
0000
0000
0100
0000
0000
0000
0000
0000
1000
0000
0100
0000
1000
0000
,
0100
0010
0001
1000
0100
0010
0100
1000
0001
0100
0010
1000
0001
1000
0010
0100
,
0001
0100
0101
0001
0011
0010
0110
0100
,
1000
0100
1000
0000
0011
0000
0001
0100
0001
0000
1010
0000
0010
0100
0001
0000
,
0001
0010
0000
0010
1000
0000
1000
0001
0000
0001
0100
0000
0110
0000
0001
1000
,
0010
0100
1000
0100
0010
1000
0100
0001
0100
0010
0001
1000
0100
1000
0001
0010
,
0110
0100
0011
0100
1010
0100
0011
0100
,
1000
0100
0001
0100
0010
0001
0100
1000
0100
0010
1000
0001
0100
0001
1000
0010
,
0110
0000
0000
0000
0000
0000
0100
0000
0000
0000
0000
0000
1001
0000
0000
0000
0000
0000
1001
0000
0000
0000
0000
0000
1000
0000
0000
0010
0000
0000
0000
0000
0000
0000
0000
0000
0100
0000
0001
0000
0100
0000
0010
0000
0000
0000
0000
0000
,
2001
0000
0000
0000
3001
0000
1000
0100
1000
0010
0001
0010
1010
0000
0000
0000
,
0110
0110
0110
0000
0000
0000
0000
0000
,
0101
0000
0000
0000
0000
0000
1001
0000
0000
0000
0000
0000
1000
0000
0000
0010
0000
0000
0100
0000
0000
0010
0000
0000
1000
0000
0000
0010
0000
0000
0100
0000
0000
0001
0000
0000
0100
0000
0000
0010
0000
0000
1000
0000
0010
0000
0100
0000
,
0001
0000
0000
0000
0000
0000
1001
0000
0000
0000
0000
0000
0001
0000
0000
0010
0000
0000
0100
0000
0000
0010
0000
0000
0001
0000
0100
0000
0001
0000
0100
0000
0010
0000
0100
0000
0010
0000
0100
0000
1000
0000
0100
0000
1000
0000
0100
0000
,
0001
0000
0011
0000
0001
0100
0000
1000
0200
0000
0000
0000
0000
0000
0000
0000
,
0000
0000
0000
0000
0000
0000
0000
0000
0000
1300
0100
0001
0010
0000
0000
0000
0000
0000
0000
0000
0000
0000
0000
0000
;
