#TITLE:Attitude;
#SUBTITLE:;
#ARTIST:Mrs. GREEN APPLE;
#TITLETRANSLIT:Attitude;
#SUBTITLETRANSLIT:;
#ARTISTTRANSLIT:Mrs. GREEN APPLE;
#GENRE:POP;
#CREDIT:;
#MUSIC:Attitude.ogg;
#BANNER:Attitude.png;
#BACKGROUND:Attitude-bg.png;
#CDTITLE:;
#SAMPLESTART:70.302;
#SAMPLELENGTH:12.000;
#SELECTABLE:YES;
#OFFSET:-0.025;
#BPMS:0.000=140.000
,185.000=70.000
,186.500=140.000
,188.500=70.000
;
#STOPS:34.000=0.071
,34.167=0.071
,34.333=0.071
,34.500=0.071
,34.667=0.071
,34.833=0.071
,57.000=0.214
,57.250=0.214
,128.000=0.214
,128.500=0.214
,165.000=0.214
,165.500=0.214
,172.000=0.214
,172.500=0.214
,173.000=0.214
,173.500=0.214
;
#BGCHANGES:2.000=Attitude.avi=1.000=0=0=0=StretchNoLoop====,
99999.000=-nosongbg-=1.000=0=0=0=StretchNoLoop====
;
#FGCHANGES:;

//--------------- dance-single - ----------------
#NOTES:
     dance-single:
     :
     Hard:
     12:
     0,0,0,0,0:
0000
0000
0000
0000
,
0000
0000
0000
0000
,
0000
0000
0000
0000
,
0000
0000
0000
0000
,
0000
0000
0000
0000
,
1001
0000
0001
1000
0100
0000
0011
0000
,
0100
1000
0001
0000
0100
0001
1000
0000
,
0010
0100
0010
0100
0001
1000
0001
1000
,
0002
0000
0000
0203
0000
0000
0320
0000
0000
2030
0000
0000
3001
1000
0001
1000
0001
1000
0001
0000
0000
0100
0000
0000
,
0001
0100
0010
1000
0010
1000
0001
0010
,
0001
0010
0100
1000
0100
1000
0001
0100
,
0010
0100
0001
0010
0100
1000
0002
0000
,
0103
0010
0200
0000
1300
0100
0001
0010
,
0100
1000
0001
0100
0010
1000
0010
0010
,
0100
0000
0100
0000
1001
0110
1001
0000
0001
0000
0010
0000
0100
0000
1000
0000
,
0001
0010
0100
1000
0001
0100
1000
0100
,
0001
0000
0010
0000
0200
0000
0000
0000
1300
0000
0000
0010
0000
0000
1000
0000
,
0001
0000
0000
0010
0000
0000
0100
0000
1000
0000
0000
0001
0000
0000
1000
0000
,
0001
0000
0000
0100
0000
0000
0010
0000
1000
0000
0000
0010
0000
0000
1000
0000
,
0001
0000
0000
0010
0000
0000
0100
0000
1000
0000
0001
0000
0010
0000
0000
0000
,
0100
0000
1000
0000
0001
0000
0000
0000
1000
0000
0000
0010
0000
0100
0001
0000
,
0001
0000
0000
0010
0000
0100
1000
0000
1000
0000
0000
0001
0000
0100
1000
0000
,
0100
0000
0000
0001
0000
0010
1000
0000
0010
0000
0001
0100
0000
0010
1000
0000
,
0100
0000
0010
0001
0000
1000
0100
0000
0010
0000
0100
0000
0001
0000
1000
0000
,
0010
0001
1001
0000
1010
0000
1100
0000
,
0100
0001
0010
0100
1000
0000
0110
0000
,
0100
0001
0100
0001
0101
0000
0011
0000
,
0010
1000
0100
0010
0001
0000
0110
0000
,
0020
0000
0000
0000
0000
1030
0100
0010
,
0100
1000
0001
1000
0001
0100
0010
0100
,
0001
0010
1100
0101
,
1100
0000
0101
0000
1000
0001
1000
0001
,
1001
1001
2000
3010
0200
0301
0020
0130
,
2000
3001
0200
0310
2000
3001
0020
0130
,
2000
0000
3001
0000
0200
0000
1000
0300
0002
0000
0013
0000
2000
0000
3100
0000
,
0020
0031
2000
3100
0001
2000
3020
0031
,
0100
0020
2030
0000
3010
0200
0302
0203
,
0320
1030
0200
0301
0100
2000
3002
0103
,
0020
0032
0023
0130
2000
3002
0023
0230
,
2300
3200
0302
1003
0200
0302
0203
0000
,
0310
0001
2002
3003
0001
0100
0002
0000
,
0203
0000
0010
0010
0310
1000
0100
0010
,
2002
3003
1000
0100
2000
0000
3020
0000
,
0100
0100
0100
0100
0230
0000
0301
1000
,
0002
0000
0013
0100
2000
0000
3100
0010
,
0002
0000
0203
0000
0310
0100
0010
1000
,
0002
0000
0023
0230
0000
1300
0001
2000
,
0000
0000
3001
0100
0002
0000
1003
0001
2000
0000
3001
0100
0001
0100
0020
0000
,
0000
0000
1030
0100
1000
0001
0020
0000
0230
0000
2300
0000
0000
0000
3002
0000
,
0000
0000
0103
0010
0200
0000
1300
0100
0002
0000
1003
0100
1000
0100
2000
0000
,
0000
0000
0000
3001
0100
0001
1000
0100
1000
0010
0100
0001
1000
0001
1000
0002
0000
0000
0000
0000
0000
0003
0000
0000
;

//--------------- dance-single - ----------------
#NOTES:
     dance-single:
     :
     Challenge:
     16:
     0.526814,0.581604,0,0.040193,0.070338,367,367,0,4,0,0,0.526814,0.581604,0,0.040193,0.070338,367,367,0,4,0,0:
0000
0000
0000
0000
,
0000
0000
0000
0000
,
0000
0000
0000
0000
,
0000
0000
0000
0000
,
0000
0000
0000
0000
,
1001
0000
0000
0000
1000
0000
0001
0000
0100
0000
0010
0000
1010
0000
0100
0001
,
0100
0000
0010
0000
1000
0000
0001
0000
0010
0001
1000
0000
0001
0010
0100
1000
,
0010
0000
1000
0000
0001
0000
0100
0000
0010
1000
0100
1000
0010
1000
0100
1000
,
2100
0000
0000
3000
0000
0000
0210
0000
0000
0300
0000
0000
0021
0000
0000
0030
0000
0000
1002
0000
0000
0000
0000
0000
1003
0000
0100
0000
1000
0000
0001
0000
0100
0000
0001
0000
1000
0000
0000
0000
0000
0000
0001
0000
0000
0100
0000
0000
,
0001
0000
0100
0000
0010
1000
0000
1000
0001
0000
0010
0000
0100
1000
0100
1000
,
0001
0000
0100
0000
0001
0100
0000
0100
0010
0000
1000
0000
0001
0000
0100
0010
,
0100
0000
0010
0000
1000
0100
0000
0100
0010
0000
0002
0000
1003
0010
1000
0010
,
0001
0000
0010
0000
1000
0100
1000
0100
0001
0000
0100
0000
1000
0000
0001
0100
,
0001
0000
1000
0000
0001
0010
0000
0001
1000
0000
0100
0000
0010
0001
0010
0100
,
1000
0001
1000
0000
1010
0101
1010
0000
1000
0010
0100
0001
1000
0000
0100
0000
,
1000
0001
0010
0100
1000
0000
0001
0000
0100
0010
0100
0000
0001
1000
0001
0000
,
1000
0100
0001
0100
1000
0000
0010
0000
1000
0000
0001
0100
0000
0001
1000
0000
,
0010
0000
1000
0100
0000
1000
0001
0000
0010
0000
0100
1000
0000
0100
0010
0000
,
0001
0000
1000
0010
0000
0100
0010
0000
1000
0000
0100
0001
0000
0100
0010
0000
,
0001
0000
0100
1000
0000
0100
0010
0000
1000
0000
0001
0010
0000
0100
1000
0000
,
0001
0000
1000
0010
0000
0100
0001
0000
1000
0000
0001
0010
0100
0000
1000
0000
,
0001
0100
0010
0100
1000
0000
0100
0000
0001
0000
0010
0100
1000
0000
0001
0000
,
1000
0100
0010
0100
0001
0000
0100
0000
1000
0000
0010
0100
0010
0000
0001
0000
,
1000
0100
0010
0100
0001
0000
0010
0000
0100
0000
0001
0100
1000
0000
0001
0000
,
0010
0000
0000
0001
0000
0000
1000
0000
0100
0000
0010
0000
0001
0000
0000
0000
0000
0000
0100
0000
0000
0000
0000
0000
1010
0000
0000
0000
0000
0000
0010
0000
0000
1000
0000
0000
0100
0000
0000
0000
0000
0000
0000
0000
0000
0010
0000
0000
,
0001
0000
1000
0001
0100
0000
0000
0100
0010
0000
1000
0001
0100
0000
0010
0000
,
0100
0001
0010
0000
0100
1000
0010
0000
0110
0000
0100
0001
1000
0000
0000
1000
,
0100
0000
0010
0100
1000
0000
0000
1000
0010
0000
0100
0001
0010
0000
0100
0000
,
0010
0001
0100
0000
0010
1000
0010
1000
0100
0000
0010
0000
0100
0000
1000
0010
,
0100
0000
1000
0100
0010
0000
1000
0100
0010
0000
1000
0000
0010
0000
0001
0100
,
0010
0000
1000
0000
0010
0000
0100
0001
0011
0000
0100
0000
1100
0000
1000
0000
,
1010
0001
0101
1000
0110
0110
0110
0110
,
1001
0000
1001
0000
1001
0000
1000
0100
0010
0100
1000
0100
0001
0100
1000
0010
,
0100
0000
0001
0000
1000
0000
0001
0100
0010
0100
0001
0100
1000
0100
0001
0010
,
0100
0000
1000
0000
0010
1000
0100
0010
0100
0010
1000
0000
0010
0001
0100
0010
,
0100
0010
0001
0000
0010
1000
0100
0000
0010
0001
0100
0000
0001
0010
0100
1000
,
0001
0010
0100
1000
0001
0000
1000
0100
0010
0000
0100
0010
0001
0010
0100
1000
,
0001
0000
1000
0001
0100
0000
0001
0100
0010
0000
0100
0010
1000
0010
0100
0001
,
1000
0000
0100
0000
0001
0100
1000
0010
0001
0000
1000
0000
0001
0010
1000
0100
,
0001
0000
1000
0000
0010
0001
0100
0010
0001
0010
0100
1000
0001
0010
1000
0100
,
0010
0001
1000
0000
2002
0000
3003
0000
0110
0000
0110
0000
1010
0000
0100
0000
,
0101
0010
1001
0110
1001
1000
0010
0100
,
2002
3003
0110
0110
0011
0100
1100
0010
,
1001
0000
0110
0000
1001
0000
0110
0000
1000
0100
0010
0100
1000
0000
0001
0000
,
1000
0010
0100
0010
1000
0000
0001
0000
1000
0010
1000
0000
0100
0010
0100
0000
,
0001
0100
0001
0000
0100
1000
0100
0010
0001
0000
1000
0010
0001
0010
1000
0100
,
0001
0100
1000
0001
0200
0000
2300
0000
0000
0000
3100
0000
0001
0000
0020
0000
,
0000
0000
0000
0000
0130
0000
1000
0000
0200
0000
0000
0310
0001
0000
1000
0000
0002
0000
0000
0000
0103
0000
0001
0000
1000
0000
0001
0000
0020
0000
0000
0000
,
0000
0000
0130
1000
0010
0001
0020
0000
2030
0000
3200
0000
0000
0000
0320
0000
,
0000
0000
0000
0000
0130
0000
1000
0000
0002
0000
0000
0103
1000
0000
0100
0000
0002
0000
0000
0000
0013
0000
0100
0000
0010
0000
0001
0000
2000
0000
0000
0000
,
0000
0000
0000
3010
1000
0100
0001
0100
0010
1000
0010
0001
0100
1000
0100
0020
0000
0000
0000
0000
0000
1030
0000
0000
;
