#TITLE:熱くなれ (TAG Remix);
#SUBTITLE:;
#ARTIST:大黒摩季;
#TITLETRANSLIT:Atsukunare(TAG Remix);
#SUBTITLETRANSLIT:;
#ARTISTTRANSLIT:ohguro maki;
#GENRE:POP;
#CREDIT:;
#MUSIC:Atsukunare(TAG Remix).ogg;
#BANNER:Atsukunare(TAG Remix).png;
#BACKGROUND:Atsukunare(TAG Remix)-bg.png;
#CDTITLE:;
#SAMPLESTART:76.818;
#SAMPLELENGTH:6.400;
#SELECTABLE:YES;
#OFFSET:-0.018;
#BPMS:0.000=150.000;
#STOPS:;
#BGCHANGES:2.000=Atsukunare(TAG Remix).avi=1.000=0=0=0=StretchNoLoop====,
99999.000=-nosongbg-=1.000=0=0=0=StretchNoLoop====
;
#FGCHANGES:;

//--------------- dance-single - ----------------
#NOTES:
     dance-single:
     :
     Medium:
     12:
     0,0,0,0,0:
0000
0000
0000
0000
,
0001
0100
0001
1000
0100
1000
0001
0100
,
0001
0000
0000
0010
0000
0010
0100
0000
,
1000
0010
1000
0001
0010
0001
1000
0010
,
1000
1100
0011
0101
,
1001
0000
0000
0001
0000
0000
0010
0000
0000
0010
0000
0000
0100
0000
1000
0000
,
1010
0000
0000
0010
0000
0000
0100
0000
0000
0000
0001
0000
1000
0000
0000
0000
,
0110
0000
0000
0001
0000
0000
0001
0000
0000
0000
1000
0000
0100
0000
0000
0000
,
0010
0001
1000
0200
0000
0000
0000
0000
,
0020
0000
0000
0330
,
0011
0000
0000
0000
1100
0000
0000
0000
1000
0000
0000
0010
0000
0000
0010
0000
,
0100
0001
1000
0100
0000
1001
0000
0100
,
0010
0000
0000
0000
0110
0000
0000
0000
0001
0000
0000
1000
0000
0000
1000
0000
,
0010
0100
0001
0010
1000
0010
0001
0100
,
0010
0000
0010
0000
1000
0100
0010
0100
,
1000
0000
1000
0000
0001
0100
1000
0100
,
0010
0000
0100
0001
1000
0000
0100
0010
,
0100
0000
1000
0000
0001
0100
0010
0100
,
0001
0000
0010
0000
0100
1000
0001
1000
,
0100
0000
0010
0000
0001
0100
1000
0001
,
0010
0100
0000
0100
0001
0010
0000
0010
,
0100
1000
0000
1000
0001
0100
0000
0100
,
0010
0000
1010
0000
1000
0001
0010
0100
,
1000
0000
0001
0100
0001
0000
0101
0000
,
1000
0000
0001
0100
0010
1000
0010
0100
,
0001
0000
1000
0100
1000
0000
1001
0000
,
0001
0010
0100
0010
1000
0010
0001
0100
,
0010
0000
0000
0000
,
1001
0000
0000
1000
0000
0000
0010
0000
0000
0010
0000
0000
0100
0000
0000
0000
,
0101
0000
0000
0001
0000
0000
1000
0000
0000
0000
1000
0000
0100
0000
0000
0000
,
0011
0000
0000
0001
0000
0000
1000
0000
0000
0000
1000
0000
0010
0000
0000
0000
,
0100
0001
1000
0200
0000
0000
0000
0000
,
0310
0001
0100
1000
0100
0001
0010
0000
,
0100
1000
0010
0100
0001
1000
0100
0000
,
0010
0001
1000
0100
0001
0100
1000
0000
,
0010
0100
0010
1000
0100
0010
0001
0000
,
0100
1000
0100
0010
1000
0100
0010
0000
,
0001
0010
0100
0001
0100
1000
0010
0000
,
0110
0000
0100
0001
0101
0000
0001
1000
,
1100
0000
1000
0100
0110
0000
0010
0001
,
1001
1100
1001
0101
,
1001
0000
1010
0000
1001
0000
0001
0010
,
0011
0110
1100
0110
,
0101
0000
0110
0000
1010
0000
1000
0100
,
0110
0001
1000
0010
0000
0100
0001
0010
,
0000
0100
1000
0001
0000
0100
0010
0100
,
1000
0000
0100
0000
0010
0000
0001
0000
0010
0000
0100
0000
0001
0000
1000
0100
,
2000
0000
3000
1001
,
0011
0001
1000
0010
0000
0100
0001
0010
,
1000
0001
0100
0110
0000
0100
1000
0000
,
0101
1000
0010
1000
0000
1100
0001
0010
,
0001
0100
0010
1010
0000
0100
0110
0000
,
0110
0001
1000
0001
0000
0010
0100
1000
,
0110
0000
0001
1001
0000
0110
1000
0000
,
0001
0100
1000
0100
0000
0010
1000
0100
,
0010
1000
0010
0001
0000
1000
0100
1000
,
0020
0000
0000
0000
1000
0000
0000
0000
0100
0000
0000
0000
0031
0000
0010
1000
,
0002
0000
0000
0003
,
1000
0100
1000
0001
0100
0001
1000
0100
,
1000
0000
0000
0100
0000
0100
0010
0000
,
0001
0010
0001
1000
0010
1000
0001
0010
,
0001
0100
0010
1000
,
1001
0000
0000
0000
;

//--------------- dance-single - ----------------
#NOTES:
     dance-single:
     :
     Hard:
     14:
     0,0,0,0,0:
0000
0000
0000
0000
,
0001
0100
0001
0100
0001
0000
1000
0100
1000
0100
1000
0000
0010
0100
0010
0100
,
0010
0000
0000
0110
0000
1000
0001
0000
,
1000
0100
1000
0100
1000
0000
0001
0100
0001
0100
0001
0000
0010
0100
0010
0100
,
0010
1100
0011
0101
,
1010
0000
0010
0100
0010
0000
1000
0000
0000
0001
0000
0000
0010
0000
0100
0000
,
1100
0000
1000
0001
1000
0000
0010
0000
0000
0100
0001
0000
0100
0010
0000
0000
,
0110
0000
0000
0001
0010
0000
0100
0000
0000
1000
0001
0000
0100
0000
0000
0000
,
0020
0230
0302
2003
0000
0000
0000
0000
,
0002
0000
0000
3000
,
1003
0000
0001
0100
0001
0000
0010
0000
0100
0000
0000
1100
0000
1000
0010
0000
,
0100
0000
0001
0010
0001
0000
0110
0000
0000
0000
1001
0000
0000
0000
0001
0010
,
0001
0000
0010
0100
0010
0000
0100
0000
1000
0000
0000
0110
0000
0001
1000
0000
,
1010
0000
0010
0100
0000
0100
0001
0000
0020
0000
0230
0000
2300
0000
3002
0000
,
0103
0001
0100
0010
0100
0001
0010
0100
,
1100
0000
1000
0010
0000
1000
0001
0000
0001
0100
0000
0001
1000
0000
0100
0000
,
0010
0100
1000
0010
0100
0010
1000
0001
,
0101
0000
0001
0010
0000
0001
1000
0000
1000
0100
0000
1000
0001
0000
0100
0000
,
1001
0010
1000
0100
0001
0100
1000
1000
,
0001
0000
0100
0010
0000
0100
1000
0000
0100
0010
0000
0100
0001
0000
1000
0000
,
1100
1000
0100
0001
0101
0001
0100
1000
,
1010
1000
0010
0001
0011
0001
0010
1000
,
0100
0000
0010
0001
0010
0000
0100
0000
1000
0000
0001
0100
0001
0000
1000
0000
,
0010
1010
0000
1100
0000
0101
0001
0010
,
0100
0000
1000
0100
1000
0000
0001
0000
0100
0000
0010
1000
0010
0000
0100
0000
,
0001
0011
0000
0101
0000
1100
1000
0010
,
0100
0000
0001
1000
0100
0000
0010
0000
0100
0000
1000
0000
0001
0100
0001
0100
,
0010
0000
0000
0000
,
1001
0000
0000
1000
0010
0000
0110
0000
0000
0100
0000
0000
0001
0000
1000
0000
,
1100
0000
0000
0001
0100
0000
0110
0000
0000
0010
1000
0000
1000
0001
0000
0000
,
0011
0000
0000
0010
0100
0000
1100
0000
0000
1000
0010
0000
0110
0000
0000
0000
,
0200
0000
0302
0000
2003
0000
3200
0000
0000
0000
0000
0000
1300
0001
1000
0001
,
1000
0010
1010
1000
0010
0100
0101
0001
,
0010
0000
0100
1000
0000
0100
1000
0000
0001
0100
0000
0001
0100
0000
0010
0000
,
1000
0001
0011
0010
0100
1000
1010
0010
,
0100
0000
0001
0010
0000
0001
0010
0000
0100
1000
0000
0100
1000
0000
0010
0000
,
0100
0001
0101
0100
0010
1000
1100
0010
,
0001
0000
1000
0010
0000
0100
0001
0000
1000
0100
0000
0010
0001
0000
0100
0000
,
0101
0001
0100
1000
1100
1000
0100
0001
,
0011
0001
0010
1000
1010
1000
0010
0001
,
1001
0000
1100
0000
1001
0100
0010
0100
,
1001
0000
0000
0000
0101
0000
0000
0000
0110
0000
1000
0000
0001
0000
0100
0010
,
0100
0000
1001
0000
0110
0001
1000
0100
,
1001
0000
0000
0000
1100
0000
0000
0000
0101
0000
0001
0000
1000
0000
0010
0100
,
0010
1000
0001
0011
0000
1000
0100
1100
,
0000
0000
0001
0000
0100
0000
0101
0000
0000
0000
0010
0000
1010
0000
1000
0100
,
1000
0000
0010
0100
0010
0000
0100
0001
0100
0000
0001
0010
0001
0010
0100
2000
,
0002
0000
3003
1001
,
1001
0000
0001
0100
0010
0000
0110
0000
0000
0000
0100
0000
0001
0000
0010
0100
,
1000
0000
0001
0000
0100
0000
0110
0000
0000
0000
0100
0000
0001
1000
0000
0000
,
1100
0000
0100
0010
0001
0000
1000
0000
1010
0000
0010
0100
0001
0000
1000
0000
,
1001
0000
0001
0010
0100
0000
1000
0000
0001
0100
0010
0000
1010
0000
0000
0000
,
0110
0000
0100
0001
1000
0000
1100
0000
0000
0100
0010
0000
0001
0000
1000
0000
,
0110
0000
0000
0000
0001
0000
1001
0000
0000
0000
0110
0000
0010
1000
0000
0000
,
0100
0000
0001
0000
0100
1000
0100
1000
0010
0000
0100
0000
0001
0010
0001
0010
,
0100
0000
1000
0000
0010
0000
0010
0000
0100
0000
0001
1000
0001
0000
0010
0100
,
0010
0000
0001
0000
1000
0010
1000
0000
0001
0100
0001
0000
1000
0100
0010
0002
,
2000
0000
0000
3003
,
0001
0100
0001
0100
0010
0000
1000
0100
1000
0100
0010
0000
0001
0100
0001
0100
,
0010
0000
0000
1000
0000
0001
0100
0000
,
0010
1000
0010
1000
0100
0000
0010
0001
0010
0001
0100
0000
0010
0000
1000
0000
,
0001
0010
0100
1000
,
1001
0000
0000
0000
;

//--------------- dance-single - ----------------
#NOTES:
     dance-single:
     :
     Challenge:
     16:
     1.011002,1.106155,0.773119,0.069382,1.065517,714,636,78,7,0,0,1.011002,1.106155,0.773119,0.069382,1.065517,714,636,78,7,0,0:
0000
0000
0000
0000
,
0001
0100
0001
0100
0010
0000
1000
0100
1000
0100
0010
0000
0001
1000
0001
1000
,
0010
0000
0000
0110
0000
1000
0001
0000
,
1000
0000
0000
0010
0000
0000
1000
0000
0000
0010
0000
0000
0100
0000
0000
0000
0000
0000
0001
0000
0000
0010
0000
0000
0001
0000
0000
0010
0000
0000
0100
0000
0000
0000
0000
0000
1000
0000
0000
0100
0000
0000
0010
0000
0001
0000
1000
0000
,
0010
0110
1010
0101
,
1001
0000
0001
0010
0100
0000
1100
0000
0000
1000
0010
0000
0100
0001
1000
0000
,
0011
0000
0010
0100
1000
0000
1010
0000
0000
0010
0100
0000
0001
1000
0100
0000
,
0110
0000
0010
0001
1000
0000
0010
0000
0000
0100
1000
0000
0100
0001
0010
0000
,
0100
0000
0000
1000
0000
0000
0010
0000
0000
0001
0000
0000
1000
0000
0000
0100
0000
0000
0002
0000
0000
0000
0000
0000
0000
0000
0000
0000
0000
0000
0000
0000
0000
0000
0000
0000
0000
0000
0000
0000
0000
0000
1003
0000
0100
0000
0010
0000
,
0002
0000
0000
0000
,
0103
0000
0010
1000
0100
0000
0100
1000
0001
0000
0001
0100
0000
0001
0010
0000
,
0100
0000
0000
0000
0000
0000
0010
0000
0000
0001
0000
0000
1000
0000
0000
0000
0000
0000
1010
0000
0000
0000
0000
0000
0100
0000
0000
0000
0000
0000
0001
0000
0000
0010
0000
0000
0100
0000
0000
0000
0000
0000
1000
0000
0100
0000
0010
0000
,
0001
0000
0010
0001
0100
0000
0100
0001
1000
0000
1000
0010
0000
1000
0100
0000
,
0110
0000
0010
0001
1000
0100
0010
0000
0010
0001
1000
0010
0100
0010
1000
0100
,
0010
0000
0001
0100
0000
0100
0010
0000
1000
0100
0000
0100
0001
0000
0001
0100
,
1000
0000
0001
0010
0100
0010
0001
0000
1000
0010
0100
0010
1000
0000
0010
0000
,
0001
0000
1000
0100
0000
0100
0010
0000
1000
0100
0000
0100
0010
0000
0001
0000
,
1001
0000
1000
0010
0100
0010
1000
0000
0001
0010
0100
0010
0001
0000
0001
0010
,
1000
0000
0001
0100
0000
0100
0010
0000
0001
0100
0000
0100
0010
0000
1000
0000
,
0010
0000
0100
0001
0000
0001
0010
0000
0100
1000
0000
1000
0010
0000
0100
0000
,
0201
1000
0010
0301
0012
0100
1000
0013
,
0120
0001
1000
0130
2010
0100
0001
3010
,
0001
0010
0100
1000
0001
0100
0010
0100
0001
1000
0100
0010
0001
1000
0010
0100
,
0001
0010
0001
0010
0100
0010
0100
1000
0010
0100
0010
0100
0001
0100
0001
0100
,
0001
0010
0100
1000
0010
0100
0010
1000
0100
0010
0001
0100
0010
0100
0001
0010
,
0100
1000
0100
1000
0010
1000
0010
0100
0001
0100
0001
0010
0100
0010
0100
1000
,
0001
0000
0001
0100
0000
0100
0010
0000
1010
0000
0101
0000
0001
0010
0100
1000
,
0001
0000
0000
0000
,
0001
0000
1000
0010
0100
0000
0101
0000
0000
0001
0010
0000
0100
0000
0010
0001
,
1000
0000
0010
0100
0001
0000
1010
0000
0000
0100
0001
0000
1000
0100
0010
0000
,
0011
0000
0100
1000
0010
0000
0100
0000
0000
1000
0100
0000
0010
0100
0001
0000
,
0010
0100
0001
1000
0010
0001
0100
0000
0000
0000
0000
0000
0010
1000
0010
1000
,
0001
0000
0010
0000
0110
0000
0100
1000
0010
1000
0100
0000
0011
0000
0010
0100
,
1000
0000
0010
0000
0101
0000
0001
0010
0000
1000
0010
0000
0110
0000
0010
0001
,
1000
0000
0010
0000
0110
0000
0100
0001
0100
1000
0100
0000
0110
0000
0010
1000
,
0100
0000
0010
0000
0011
0000
0001
0100
0000
0010
0100
0000
1001
0000
0100
0000
,
0110
0000
0010
1000
0001
0000
0010
0000
0100
1000
0010
1000
0100
0000
0010
0000
,
0001
0000
1000
0010
0100
0000
0001
0000
0010
0100
1000
0010
0100
0000
0001
0000
,
1100
0000
0001
0010
0100
0000
1010
0000
0101
0000
1000
0010
0100
0000
0011
0000
,
1100
0000
0001
0010
0100
0000
1010
0000
0101
0000
1000
0010
0100
0000
0110
0000
,
1001
0010
1100
0010
1010
0100
0101
0010
,
1001
0000
0010
0000
1100
0000
0010
0000
0101
0000
1000
0000
0110
0000
0100
0001
,
0011
0100
1100
0010
0101
1000
0011
0100
,
1001
0000
0010
0000
0110
0000
1000
0000
1001
0000
0100
0000
0110
0000
0001
1000
,
1001
0101
1010
0110
0101
0011
1100
0110
,
1001
0000
0011
0000
1010
0000
1100
0000
0101
0000
0110
0000
1001
0000
0001
0010
,
0100
0000
0000
1000
0000
0000
0100
0000
0000
0001
0000
0000
0100
0000
0000
1000
0000
0000
0100
0000
0000
0010
0000
0000
0001
0000
0000
0010
0000
0000
1000
0000
0000
0010
0000
0000
0001
0000
0010
0000
0100
0000
1000
0000
0100
0000
0010
0000
,
0001
0100
0010
0100
0010
0100
0010
0100
0010
0100
0010
0100
1001
0000
0000
0000
,
1001
0000
0001
0100
0010
0000
0110
0000
0000
0100
0001
0000
1000
0000
0100
0001
,
0100
0000
1000
0010
0100
0001
1000
0000
0011
0000
1100
0000
0001
0100
0000
0010
,
0100
0000
0001
0010
0000
0010
1000
0001
0100
0000
1000
0010
0000
0010
0001
1000
,
0100
0000
0100
0001
0010
0100
1000
0000
0010
0000
0100
0001
1000
0001
0100
0001
,
0010
0000
0100
1000
0100
0000
0110
0000
0000
0001
0010
0000
0100
0000
1000
0010
,
0200
0000
1000
0000
0301
0000
1001
0000
1000
0001
0010
0000
0100
1000
0000
0001
,
0100
0000
0010
0000
1010
0000
1000
0001
0010
0000
0100
0000
0110
0000
0010
0001
,
1000
0000
1000
0010
0000
0010
0100
0001
0010
0000
0010
1000
0000
0001
0100
1000
,
0010
0000
0000
0000
0100
0000
0010
0000
0100
0000
0000
0000
0001
0000
0000
0000
1000
0000
0100
0010
0100
0000
1000
0000
0001
0000
0100
0000
0010
0000
0000
0000
,
1001
0000
0000
0000
0000
0000
0000
0000
0000
0000
0000
0000
0000
0000
0000
0000
0000
0000
0001
0010
0100
1000
0001
0010
,
0100
1000
0100
1000
0001
0000
0100
0001
0100
0001
1000
0000
0100
0010
0100
0010
,
0001
0000
0000
0110
0000
0001
1000
0000
,
0010
0000
0000
1000
0000
0000
0010
0000
0000
1000
0000
0000
0100
0000
0000
0000
0000
0000
0010
0000
0000
0001
0000
0000
0010
0000
0000
0001
0000
0000
0100
0000
0000
0000
0000
0000
0010
0000
0000
1000
0000
0000
0100
0000
0010
0000
0001
0000
,
1000
0010
0100
0001
,
1001
0000
0000
0000
;
