#TITLE:アタシのドレス;
#SUBTITLE:;
#ARTIST:ねぐせ。;
#TITLETRANSLIT:Atashi no Dress;
#SUBTITLETRANSLIT:;
#ARTISTTRANSLIT:neguse.;
#GENRE:ANIME;
#CREDIT:;
#MUSIC:Atashi no Dress.ogg;
#BANNER:Atashi no Dress.png;
#BACKGROUND:Atashi no Dress-bg.png;
#CDTITLE:;
#SAMPLESTART:52.835;
#SAMPLELENGTH:11.925;
#SELECTABLE:YES;
#OFFSET:2.320;
#BPMS:0.000=161.000;
#STOPS:;
#LASTBEATHINT:3.486597;
#BGCHANGES:6.000=Atashi no Dress.avi=1.000=0=0=0=StretchNoLoop====,
99999.000=-nosongbg-=1.000=0=0=0=StretchNoLoop====
;
#FGCHANGES:;

//--------------- dance-single - ----------------
#NOTES:
     dance-single:
     :
     Medium:
     12:
     0.641602,0.637365,0.465756,0.243967,0.016634,405,363,42,22,0,0,0.641602,0.637365,0.465756,0.243967,0.016634,405,363,42,22,0,0:
0000
0000
0000
0000
,
0000
0000
0000
0000
,
0001
0010
0100
1000
0001
0010
0100
1000
,
0001
0100
0010
2000
0000
3010
0100
0001
,
2000
0000
0000
3010
0200
0000
0000
0301
,
0010
0100
1000
0001
1000
0010
0100
0001
,
1000
0100
0000
0000
0001
0100
0000
0000
,
1000
0100
0000
0010
0000
0100
1000
0001
,
0101
0000
0011
0000
1100
0000
1000
0010
,
0000
0100
0010
0100
0000
0001
0010
0100
,
1100
0000
1010
0000
0101
0000
0001
0010
,
0000
0100
1000
0010
0000
0100
0001
1000
,
1100
0000
0011
0000
0101
0000
0001
0100
,
0000
0010
0100
0010
0000
1000
0010
0100
,
0101
0000
1010
0000
1100
0000
1000
0010
,
0000
0110
0000
0110
0000
0100
0010
0100
,
1001
0000
0001
0010
0100
1000
0000
1000
,
0001
1000
0000
0020
0000
0130
0001
0100
,
0001
0000
0100
0001
1000
0000
1000
0001
,
0000
0001
0000
0020
0000
0130
1000
0100
,
1000
0000
1000
0010
0100
0001
0010
1000
,
0010
0001
1000
0020
0000
1030
0001
1000
,
0001
0000
1000
0100
0010
0001
1000
0010
,
0001
0010
1000
0002
0000
0013
0100
0010
,
0100
0000
1000
0001
0010
0100
0010
0001
,
1000
0001
0010
0200
0000
1000
1000
1300
,
0100
1000
0001
1000
0010
0100
0010
1000
,
0001
1000
0010
0200
0000
0001
0001
0301
,
0100
0010
0100
0001
0010
0100
1000
0010
,
1000
0001
0100
0020
0000
0100
0100
0130
,
0010
1000
0001
0010
0100
1000
0001
0101
,
0000
1001
0000
1100
0000
2000
3020
0230
,
0302
0003
1010
0000
0101
0000
1010
0000
,
0011
1100
0011
1001
,
0001
0001
0000
1000
1000
0000
0010
0010
,
0000
0100
0010
0100
0001
1000
0001
1000
,
0000
1000
0100
0010
0001
1000
0001
0000
,
0101
0000
1001
0000
1010
0000
1000
0010
,
0001
0000
0010
0100
0001
0000
1000
0100
,
0120
0000
1000
0000
0031
0000
0100
0001
,
1000
0000
0000
0000
0010
0000
1000
0000
0001
0000
0000
0000
1000
0000
0000
0100
,
0010
0000
0000
0010
0001
0000
0000
0001
0200
0000
0000
0000
1300
0000
0100
0000
,
0001
0010
1000
0002
0000
0103
0000
0100
,
1000
0010
0100
1000
0100
0010
0001
0020
,
0000
1030
0100
0001
0100
1000
0001
0000
,
1100
0000
1001
0000
0011
0000
0001
0100
,
1000
0000
0100
0001
1000
0000
0001
0100
,
0120
0000
1000
0000
0031
0000
0010
1000
,
0001
1000
0100
0002
0000
0103
0000
1000
,
1010
0010
0100
0001
0011
0010
0100
1000
,
1001
0001
0100
0020
0000
0130
0001
1000
,
0001
0000
0010
0100
1000
0000
0001
0100
,
0000
0010
1000
0001
0020
0000
0130
0000
,
1000
0010
0001
0010
0100
0001
0010
1000
,
0010
0001
1000
1020
0000
0130
0001
1000
,
0001
0000
0001
0010
0100
0000
1000
0001
,
0010
0100
1000
0001
1000
0010
0100
0001
,
1000
0100
0011
0000
1100
0000
1000
0010
,
0000
0100
0001
1000
0000
0001
0010
0100
,
1000
0001
1010
0000
0101
0000
0100
0010
,
0000
1000
0001
1000
1001
0000
0000
0000
;

//--------------- dance-single - ----------------
#NOTES:
     dance-single:
     :
     Hard:
     15:
     0,0,0,0,0:
0000
0000
0000
0000
,
0000
0000
0000
0000
,
0101
0000
1000
0100
1100
0000
0001
0100
,
0110
0000
0000
0000
1000
0000
0001
0000
0000
0000
0001
0010
0100
1000
0001
0010
,
0100
0000
1000
0001
1000
0001
1000
0010
,
0110
0000
0000
0000
,
0001
0100
0000
0000
1000
0100
0000
0000
,
0001
0000
0100
0000
0000
0000
0001
1000
0001
0000
0010
0000
0100
0000
1000
0000
,
0001
0100
0101
0000
1010
0000
0101
0001
,
0010
0100
1000
0001
0000
1000
0010
0100
,
0001
1000
1100
0000
0011
0000
1100
1000
,
0010
0000
0100
0000
0001
0000
0010
0000
0000
0000
0010
0000
0001
0000
1000
0001
,
0100
0000
0010
0000
0110
0000
0100
0000
0001
0000
1000
0100
1000
0000
0001
0000
,
1000
0000
0001
0100
0001
0000
0010
0100
0010
0000
0100
1000
0100
0000
1000
0000
,
0001
0000
0100
0000
0101
0000
0001
0000
1000
0100
0010
0001
1000
0000
1100
0000
,
0000
0101
0000
0110
0000
0010
0100
0010
,
1001
0000
0001
0010
0100
1000
0000
1000
,
0001
0100
0000
0101
0000
0001
0100
0010
,
1001
0000
1000
0010
0100
0000
0001
0010
,
0000
1100
0000
0011
0000
1000
0001
1000
,
0110
0000
1001
0001
0010
0100
1000
0010
,
0100
0001
1000
1100
0000
1000
0100
0010
,
1001
0000
1001
0010
0100
0010
1000
0001
,
0010
0100
1000
1100
0000
0001
0010
0100
,
1001
0000
0000
0000
1001
0000
0001
0100
0001
0000
1000
0100
1000
0000
0001
0100
,
0010
0000
1000
0001
0010
0000
0100
1000
0001
0000
0100
0000
0010
0000
1000
0000
,
1001
0000
0001
0010
0001
0000
1000
0010
1000
0000
0001
0010
0100
0000
0010
0001
,
1000
0000
0010
0100
0001
0000
1000
0100
0010
0000
0001
0000
1000
0000
0010
0000
,
0110
0000
0100
0001
0100
0000
0010
1000
0010
0000
0100
0001
1000
0000
0010
0100
,
0001
0000
0010
0100
1000
0000
0001
1000
0010
0000
0100
0000
0001
0000
0010
0000
,
1100
0000
1000
0010
0100
0000
0010
1000
0001
0000
0010
0100
1000
0000
0001
0100
,
0010
0000
1000
0001
0010
0000
0110
0000
0000
0000
0002
0000
0023
0000
0230
0000
,
2300
3001
0101
0100
0010
1000
1100
0100
,
0010
0001
1001
1000
0010
0100
0110
0010
,
1001
0000
1000
0100
1000
0000
1001
0000
0001
0100
0001
0000
1001
0000
0110
0000
,
0000
0010
0100
0010
0100
0010
0100
0010
,
0000
1000
0100
0010
0001
1000
0001
0000
,
0101
0000
0000
0000
1001
0000
0000
0000
1010
0000
0000
0000
0001
0000
1000
0010
,
0100
0000
0001
0000
1000
0000
0001
0010
0100
0000
1000
0000
0001
0000
0000
0000
,
0201
0000
0000
0300
0210
0000
0000
0300
1200
0000
0000
0000
0310
0000
0100
0001
,
1000
0000
0100
0000
0010
0000
0100
1000
0001
0000
0100
0001
1000
0000
0100
0000
,
1100
0000
1000
0010
0100
0000
0100
0001
0020
0000
0000
0000
1030
0000
0010
0000
,
0001
0000
0100
0000
1000
0000
0100
0001
0000
0000
1001
0000
0000
0000
0001
0010
,
0100
0000
0010
0000
0001
0000
1000
0010
0100
0000
0010
0000
0001
0010
0200
0000
,
0000
0000
0301
0000
1000
0000
0001
0000
1000
0000
0100
0010
0100
0000
1000
0000
,
1100
0000
0000
0000
1001
0000
0000
0000
0011
0000
0000
0000
0001
0000
1000
0010
,
0100
0000
0001
0010
0100
0000
1000
0000
0001
0000
1000
0100
1000
0001
0100
0001
,
1000
0000
0001
0010
0100
0000
0100
1000
0020
0000
0000
0000
0031
0000
0010
1000
,
0100
0000
0001
0000
0100
0000
1000
0001
0000
0000
0110
0000
0000
0000
0001
0000
,
0101
0010
1100
0010
,
1001
0000
0001
0000
0010
0000
0100
0000
0000
0000
1000
0001
0010
0100
1000
0001
,
0100
0000
0100
0001
0001
1000
0100
0110
,
0000
0000
0001
0000
0010
0000
0100
0000
1000
0001
1000
0001
1000
0001
1000
0001
,
1000
0100
1100
0000
0001
0100
0101
0000
,
1000
0010
0100
0120
0000
1030
0001
0010
,
0011
0000
0001
1000
1010
0000
0010
0100
,
0010
0000
0000
0000
,
0100
0000
0001
0000
0101
0000
0000
0000
1001
0000
0001
0100
0001
0000
1000
0000
,
0001
0000
1000
0100
1000
0000
0010
0100
0010
0000
0100
0001
0100
0000
0001
0000
,
1001
0000
1000
0100
1000
0000
0010
0000
0110
0000
0000
0000
0110
0000
0100
0001
,
1000
0100
0010
0100
1001
0000
0000
0000
;

//--------------- dance-single - ----------------
#NOTES:
     dance-single:
     :
     Challenge:
     17:
     1.023395,1.174093,0.876065,0.19961,0.881609,646,567,79,18,0,0,1.023395,1.174093,0.876065,0.19961,0.881609,646,567,79,18,0,0:
0000
0000
0000
0000
,
0000
0000
0000
0000
,
0102
0000
1003
0100
2100
0000
3001
0100
,
0120
0000
0000
0000
0000
0000
0000
0000
0000
0000
0000
0000
1030
0000
0000
0000
0000
0000
0001
0000
0000
0010
0000
0000
0100
0000
0000
1000
0000
0000
0001
0000
0100
0000
0001
0000
0100
0000
0000
0010
0000
0000
1000
0000
0000
0001
0000
0000
,
0010
0000
0010
0100
1000
0001
0100
0010
,
0110
0000
0000
0000
,
0001
0001
0000
0000
1000
1000
0000
0000
,
0100
0000
0100
0000
0000
0000
1000
0001
1000
0000
0010
0000
0100
0000
0001
0000
,
0010
0100
1000
0001
0100
1000
0100
0001
,
1000
0000
0100
0000
0001
0000
0100
0000
1000
0000
0001
0000
0100
0000
0010
1000
,
0001
0010
0100
1000
0010
0001
0010
1000
,
0001
0000
0010
0000
1000
0000
0010
0000
0001
0000
0100
0000
0010
0000
1000
0001
,
0010
0000
0100
0000
1100
0000
1000
0001
0100
0001
1000
0100
0010
0001
1000
0100
,
1000
0001
0100
0010
1000
0001
0010
0001
1000
0010
0100
0001
0010
0100
1000
0001
,
0100
0010
0100
0001
1000
0010
0100
0001
1000
0100
0010
0001
0100
0000
0110
0000
,
0000
1001
0000
1001
0000
0110
0110
0110
,
1001
0000
0001
0000
0000
0001
1000
0000
,
0000
0000
1000
0000
0001
0101
1100
0101
,
1001
0000
1000
0000
0000
1000
0001
0000
,
0000
0000
0001
0000
1000
1100
0101
1100
,
1001
0000
1001
0001
0010
0010
1100
1000
,
0001
0100
0110
0010
1000
1100
0101
1100
,
1001
0000
1001
1000
0010
0010
0101
0001
,
0010
0100
1100
1000
0001
0101
1100
0101
,
1001
0000
0000
0000
1001
0000
0001
1000
0010
1000
0001
0100
0010
0100
0001
1000
,
0001
0010
0001
1000
0100
0010
0100
1000
0001
0000
0011
0000
0110
0000
1100
0000
,
1000
0001
0010
0001
1000
0100
0010
0100
1000
0001
1000
0010
1000
0001
0100
0010
,
0100
0001
1000
0001
0010
0100
0010
0001
1000
0000
1010
0000
0110
0000
0101
0000
,
0001
0100
0010
0100
0001
0100
1000
0100
0001
1000
0100
0010
0100
1000
0100
0001
,
0100
1000
0001
0010
0100
0010
0001
1000
0001
0000
0101
0000
0110
0000
1010
0000
,
1000
0100
0010
0100
1000
0010
0001
0010
1000
0001
0010
0100
0010
0001
0100
1000
,
0100
0001
1000
0001
0100
0000
0110
0000
0000
0000
2000
0000
3020
0000
0230
0000
,
0302
0000
0000
1003
0000
0000
0010
0000
0000
0100
0001
0100
0001
0000
0000
1000
0100
1000
0100
0000
0000
1000
0100
0010
,
0001
0000
0000
1000
0010
1000
0010
0000
0000
0100
0001
0100
0001
0000
0000
1000
0010
0100
0001
0000
0000
1000
0000
0000
,
1001
0000
0000
0001
0010
0100
1000
0000
0000
0110
0000
0000
1000
0010
0100
0001
0000
0000
0110
0000
0000
1001
0000
0000
,
0000
0011
0011
1100
1100
1001
1001
0100
,
0000
0001
1000
0001
1000
0100
0010
0000
,
0011
0000
0100
0000
1010
0000
0100
0000
1001
0000
1000
0000
0001
0000
1000
0010
,
0100
0000
0010
1000
0001
0000
1000
0100
0001
1000
0010
0001
1000
0000
0000
0000
,
1001
0000
0001
0100
0020
0000
1030
0100
0020
0000
0031
0000
1000
0000
0001
0100
,
1000
0000
0100
0001
0010
1000
0010
0100
1000
0001
0010
0100
1000
0000
0001
0020
,
0100
0000
0130
0020
1000
0000
1030
0020
0001
0000
0031
0100
1000
0000
0100
0000
,
0001
0000
1000
0000
0001
0000
1000
0100
0000
0100
1000
0000
0010
0000
0100
0001
,
1000
0000
1100
0000
0011
0000
0001
0010
0100
0000
1000
0001
1000
0001
0200
0000
,
0000
0000
0310
0000
1000
0000
0001
0000
1000
0000
0010
0100
0001
0000
0010
0000
,
1100
0000
0010
0000
0101
0000
0010
0000
1001
0000
1000
0000
0001
0000
0010
0100
,
1000
0000
0001
0010
0100
0000
0001
0100
0010
0001
1000
0001
0100
1000
0100
0001
,
1000
0000
0001
0010
0200
0000
1300
0010
0200
0000
0310
0000
1000
0000
0001
0010
,
0100
0000
1000
0000
0001
0000
0100
0010
0000
0010
0100
0000
0001
0000
1000
0000
,
1100
0010
0101
0010
,
1001
0000
0000
0000
0000
0000
1000
0000
0000
0000
0000
0000
0010
0000
0000
0000
0000
0000
0100
0000
0000
0000
0000
0000
0000
0000
0000
0000
0000
0000
0001
0000
0010
0000
0100
0000
1000
0000
0100
0000
1000
0000
0001
0000
0000
0100
0000
0000
,
0010
0000
0000
0000
0010
0000
1000
0001
1000
0000
0100
0000
0010
0000
0110
0000
,
0000
0000
0001
0000
0010
0000
0100
0000
1000
0001
0100
0010
0100
0010
1000
0100
,
0010
0100
2100
0000
3001
0100
0102
0000
,
1003
0000
0000
0010
0000
0000
0100
0000
0000
0120
0000
0000
0000
0000
0000
1030
0000
0000
0001
0000
0000
0010
0100
1000
,
0001
0000
1000
0000
1100
0000
0001
0000
0101
0000
0100
0001
1000
0000
0001
0000
,
0010
0000
0000
0000
,
0011
0000
0000
0000
0000
0000
1100
0000
0000
0000
0000
0000
0001
0000
0000
0000
0000
0000
1000
0000
0100
0000
0010
0000
0001
0000
0000
1000
0000
0000
0010
0000
0000
0100
0000
0000
0010
0000
0000
1000
0000
0000
0100
0000
0000
0010
0000
0000
,
0100
1000
0001
0010
0100
1000
0001
0100
0010
0100
0001
1000
0100
0010
0001
1000
,
0001
0000
0100
0000
0010
0000
1000
0000
0000
0001
0000
0000
0010
0000
0000
0100
0000
0000
0010
0000
0000
0001
0000
0000
1000
0000
0000
0100
0000
0000
0010
0000
0000
0001
0000
0000
1000
0000
0000
0000
0000
0000
0001
0000
0100
0000
0001
0000
,
0100
0110
0110
0110
1001
0000
0000
0000
;
