#TITLE:明日の私に幸あれ;
#SUBTITLE:;
#ARTIST:ナナヲアカリ;
#TITLETRANSLIT:Ashita No Watashi Ni Sachi Are;
#SUBTITLETRANSLIT:;
#ARTISTTRANSLIT:Nanawo Akari;
#GENRE:POP;
#CREDIT:;
#MUSIC:Ashita No Watashi Ni Sachi Are.ogg;
#BANNER:Ashita No Watashi Ni Sachi Are.png;
#BACKGROUND:Ashita No Watashi Ni Sachi Are-bg.png;
#CDTITLE:;
#SAMPLESTART:59.108;
#SAMPLELENGTH:14.545;
#SELECTABLE:YES;
#OFFSET:-0.017;
#BPMS:0.000=132.000;
#STOPS:;
#BGCHANGES:2.500=Ashita No Watashi Ni Sachi Are.avi=1.000=0=0=0=StretchNoLoop====,
99999.000=-nosongbg-=1.000=0=0=0=StretchNoLoop====
;
#FGCHANGES:;

//--------------- dance-single - ----------------
#NOTES:
     dance-single:
     :
     Hard:
     12:
     0.570918,0.538602,0.129264,0.312389,0.452425,371,359,12,29,0,0,0.570918,0.538602,0.129264,0.312389,0.452425,371,359,12,29,0,0:
0000
0000
0000
0000
,
0000
0000
0000
0000
,
0001
0100
0001
0000
1000
0100
1000
0001
,
0020
0100
0130
0011
0000
0000
0001
0000
,
1000
0100
1000
0000
0001
0100
0001
1000
,
0020
0100
0130
1010
0000
0000
0001
0100
,
0010
0000
1000
0000
0100
0000
0010
0000
0001
0000
1000
0000
0001
0100
0000
0001
,
1000
0100
0100
1001
0000
0000
1000
0010
,
0100
0000
0001
1000
0000
0100
0000
1000
0010
0000
0100
0000
0001
1000
0000
0001
,
1000
0010
0100
0001
0120
0000
2030
0000
,
3001
0000
0100
0000
0001
0000
0100
0000
0001
0000
0000
1000
0000
0001
0000
0100
,
0001
0000
0010
0000
0100
0000
0000
1000
0000
0001
0100
0000
0001
0020
0000
0000
,
0130
0000
1000
0000
0100
0000
1000
0000
0100
0000
0000
0010
0000
0001
0000
1000
,
0010
0000
0100
0000
0001
0000
0000
1000
0000
0100
0000
1000
0001
0000
0100
0000
,
0010
0000
1000
0000
0002
0000
0000
0013
0000
0100
0000
1000
0001
0000
0100
0000
,
0001
0000
1000
0000
0020
0000
0000
0130
0000
0001
0000
1000
0100
0000
1000
0000
,
0001
0000
0100
0000
0020
0000
0000
0130
0000
0001
0000
1000
0100
0000
0010
0000
,
0100
0000
1000
0000
0002
0000
0000
0103
0000
0001
0000
1000
0010
0000
0100
0000
,
0001
0000
0010
0000
2000
0000
0000
3010
0000
0010
0000
0001
1000
0000
0010
0000
,
1000
0000
0010
0000
0002
0000
0000
0013
0000
0010
0000
1000
0001
0000
0010
0000
,
0001
0000
0010
0000
0200
0000
0000
2300
0000
0000
3100
0000
0010
0000
0001
0000
,
1000
0000
0001
0000
0100
0000
0000
0110
0000
0010
0000
1000
0001
0000
1000
0000
,
0001
0010
1000
0010
0001
0010
1000
0010
,
0001
0100
1000
0100
0001
0100
1000
0100
,
0002
0023
0230
2300
,
3001
0100
0000
0010
1000
0001
0100
0001
,
1000
0010
0001
0010
1000
0010
0001
0010
,
1000
0100
0001
0100
1000
0100
0001
0100
,
2000
3020
0230
0302
,
0023
0000
0230
0000
1300
0100
0010
0100
,
1000
0000
1000
0000
0001
0100
0000
0010
0000
0100
0001
0000
0010
0000
0100
0000
,
1000
0001
1000
0000
0001
1000
0001
0000
0200
0000
0000
0000
0300
0000
0000
0000
,
0110
0000
0000
0000
1000
0001
1000
0010
,
0100
0001
0000
1000
0100
1000
0000
0010
0000
0000
0100
0000
0001
0000
0010
0000
,
0100
1000
0000
0001
0100
0001
0000
0010
0000
0000
0100
0000
1000
0000
0001
0000
,
0100
0010
0000
0100
0001
1000
0000
0100
0000
0000
0010
0000
0001
0000
0100
0000
,
1000
0100
0001
2000
0000
3001
0010
0100
,
1000
0010
0000
0100
0001
1000
0000
0100
0000
0000
0010
0000
0001
0000
1000
0000
,
0001
0000
0100
0010
0200
0000
0000
0301
1000
0000
0000
0000
1000
0000
0100
0000
,
0001
1000
0010
0001
1000
0010
0001
1000
,
0100
0001
1000
0001
0200
0000
0310
0100
,
0002
1003
2000
3001
,
0110
0000
1001
0000
0110
0000
0001
1000
,
0100
0000
0100
1000
0000
0010
0000
1000
0001
0000
0100
0000
0010
0100
0000
0001
,
1000
0100
0100
0011
0000
0000
0001
1000
,
0010
0000
0100
0001
0000
0010
0000
0001
1000
0000
0010
0000
0100
0010
0000
1000
,
0001
0100
0100
1010
0000
0000
1000
0100
,
0010
0000
0001
0100
0000
0010
0000
0100
0001
0000
0010
0000
0100
1000
0000
0001
,
1000
0010
0010
1001
0000
0000
0001
0100
,
0010
0000
1000
0010
0000
0100
0000
0001
1000
0000
0100
0000
0010
0001
0000
1000
,
0010
0000
0000
0000
;

//--------------- dance-single - ----------------
#NOTES:
     dance-single:
     :
     Challenge:
     16:
     0.835602,0.969483,0.312389,0.387793,1.093361,543,514,29,36,0,5,0.835602,0.969483,0.312389,0.387793,1.093361,543,514,29,36,0,5:
0000
0000
0000
0000
,
0000
0000
0000
0000
,
0101
0000
0001
0010
0000
0110
0000
0100
1000
0000
1100
0000
0100
1000
0000
1000
,
0001
0100
0100
0110
0000
0000
1010
0101
,
1100
0000
1000
0010
0000
0110
0000
0100
0001
0000
0101
0000
0100
0001
0000
0001
,
1000
0000
0100
0000
0100
0000
0110
0000
0000
0000
0000
0000
0001
0010
0100
1000
,
1100
0000
1000
0010
0000
0110
0000
0100
0001
0000
1001
0000
1000
0010
0000
0010
,
0100
0000
0110
0000
0110
0000
1001
0001
0000
0010
0000
0010
0100
1000
0001
0100
,
0101
0000
1100
1100
0000
1010
0000
0101
0101
0000
0110
0000
1001
1001
0000
0011
,
1100
0000
0000
0000
0000
0000
1000
0000
0000
0001
0000
0000
1000
0000
0000
0001
0000
0000
1000
0000
0000
0100
0000
0000
0010
0000
0000
0001
0000
0000
0000
0000
0000
0001
0000
0000
1000
0000
0000
0000
0000
0000
1000
0000
0100
0000
0020
0000
,
0001
0000
0100
0000
0001
0000
0100
0000
0031
1000
0000
2001
0000
3010
0000
0020
,
1000
0000
0100
0000
1030
0001
0000
0101
0000
0100
0001
0010
0100
1000
0000
0002
,
0100
0000
1000
0000
0100
0000
1000
0000
0103
0010
0000
0110
0000
1001
0000
2000
,
0100
0000
0001
0000
3100
0010
0000
0110
0000
1000
0000
0001
0010
0000
0100
0000
,
1100
0000
1000
0001
1000
0000
0000
1000
0010
0100
0000
0010
1000
0100
0010
0001
,
1000
0000
0001
0100
0010
0000
0000
0110
0000
0001
1000
0100
0010
0100
1000
0000
,
0010
0000
0100
0001
1000
0000
0100
0010
0000
0100
1000
0001
0100
0010
0100
1000
,
0100
0000
0010
1000
0001
0000
0010
0100
0000
1000
0000
0001
0010
0100
1000
0000
,
1100
0000
0100
1000
0001
0000
0001
0010
0000
0110
0000
1000
0010
0000
0100
0000
,
0101
0000
0001
0100
1000
0000
0100
0010
0000
0100
0001
1000
0001
0010
1000
0000
,
0010
0000
0100
1000
0001
0000
0200
1000
0000
0000
0310
0000
0001
0010
0100
0000
,
1000
0000
0001
1000
0100
0000
1000
0001
0000
1001
0000
1000
0010
0000
0100
0001
,
0010
1000
0000
0010
0100
0000
1000
0010
0000
0100
1000
0100
0010
0000
0110
0000
,
0100
0001
0000
0001
0010
0000
0010
0100
0000
0100
1000
0000
1000
0001
0100
0010
,
2000
0000
0000
3001
0020
0000
0000
0130
2000
0000
0000
3001
0200
0000
0000
0310
,
1000
0001
0000
0000
0010
0000
0100
1000
0010
0000
0100
0001
0010
0000
0100
0000
,
1000
0010
0000
0100
0010
0000
1000
0100
0000
0010
0100
0000
1000
0001
0100
0000
,
0001
0010
0000
0100
0010
0000
0001
0100
0000
0010
0100
0000
0010
1000
0100
0010
,
0002
0000
0000
1003
0020
0000
0000
0130
0002
0000
0000
0013
0200
0000
0000
1300
,
0020
0000
0000
0130
0001
0000
0010
0100
0010
0000
0001
0000
1000
0100
0000
1000
,
1010
0000
0110
0000
0101
0001
0010
0100
1000
0010
0100
0010
1000
0001
1000
0100
,
0001
0000
0000
0100
0000
0000
1000
0000
0000
0010
0000
0000
0001
0000
0000
0010
0000
0000
1000
0000
0000
0100
0000
0000
0010
0000
0000
0000
0000
0000
0001
0000
0010
0000
0100
0000
1000
0000
0001
0000
0010
0000
0100
0000
1000
0000
0001
0000
,
0010
0100
1000
0000
1100
0000
0100
1000
0001
0100
1000
0100
0010
0000
1000
0100
,
1100
2001
0000
3002
0023
0230
0000
2300
0000
3001
0100
0010
0100
0001
1000
0100
,
1100
0201
0000
0302
0203
0320
0000
2030
0000
3100
1000
0010
0100
0001
1000
0001
,
0011
0120
0000
0032
2003
3020
0000
0230
0301
0010
0100
1000
0010
0000
0010
0100
,
0102
1000
0023
0130
0001
0200
0310
2000
3002
0023
0230
2300
3002
0013
0100
1000
,
0101
0210
0000
0320
2030
3002
0000
0023
0000
0130
1000
0001
0100
0000
0100
1000
,
0100
0001
0010
0100
2100
0000
3001
0100
0201
0302
2003
3020
0130
0001
0010
0100
,
1000
0010
0001
0010
1000
0100
0010
0000
0100
1000
0010
0000
0001
0010
0100
0010
,
1000
0100
0010
0000
0100
0000
1000
0001
0100
0010
0000
0100
0001
0010
0100
1000
,
1100
0000
0000
0000
0000
0000
0000
0000
1001
0000
0000
0001
0010
0000
1100
0000
,
1001
0000
0001
0100
0010
0000
0100
0001
1000
0000
0001
0010
0100
0010
0001
0010
,
0110
0000
0100
1000
0000
1001
0000
0001
0100
0000
0110
0000
0010
1000
0000
1000
,
0001
0000
0010
0000
0010
0000
0110
0000
0100
1000
0010
1000
0100
0010
0001
0100
,
0101
0000
0001
1000
0000
1001
0000
0001
0010
0000
0110
0000
1000
0001
0000
0001
,
0100
0000
0010
0000
0010
0000
0110
0000
1000
0100
0010
0100
1000
0100
0001
0100
,
1100
0000
1000
0010
0000
0110
0000
0100
0001
0000
1001
0000
1000
0010
0000
0010
,
0100
0000
0001
0000
0001
0000
1001
0100
0000
0010
0000
0100
0001
0010
0100
1000
,
1100
0000
0101
0101
0000
1010
0000
0011
0011
0000
1100
0000
1001
1001
0000
1010
,
0101
0000
0000
0000
;
