#TITLE:朝(夜);
#SUBTITLE:;
#ARTIST:ポプテピピック;
#TITLETRANSLIT:Asa(Yoru);
#SUBTITLETRANSLIT:;
#ARTISTTRANSLIT:pop team epic;
#GENRE:ANIME;
#CREDIT:;
#MUSIC:Asa(Yoru).ogg;
#BANNER:Asa(Yoru).png;
#BACKGROUND:Asa(Yoru)-bg.png;
#CDTITLE:;
#SAMPLESTART:0.000;
#SAMPLELENGTH:11.000;
#SELECTABLE:YES;
#OFFSET:0.278;
#BPMS:0.000=216.000;
#STOPS:;
#BGCHANGES:;
#FGCHANGES:;

//--------------- dance-single - ----------------
#NOTES:
     dance-single:
     :
     Beginner:
     12:
     0,0,0,0,0:
0000
0000
0000
0000
,
0001
1000
0001
1000
,
0001
1000
0001
1000
,
0001
1000
0001
1000
,
0001
0000
1000
0000
0010
0100
0001
1000
,
0010
0100
0001
1000
0100
0010
0001
0100
,
0001
0100
0001
0010
0100
1000
0010
0100
,
0001
0010
0001
0100
0010
1000
0100
0010
,
0100
1000
0010
0100
0010
1000
0001
0010
,
0002
0000
0003
0000
;

//--------------- dance-single - ----------------
#NOTES:
     dance-single:
     :
     Easy:
     16:
     0,0,0,0,0:
0000
0000
0000
0000
,
0001
1000
0001
1000
,
0001
1000
0001
1000
,
0001
1000
0001
1000
,
0001
0000
0000
0000
1000
0000
0000
0000
0001
1000
0001
1000
0001
1000
0001
1000
,
0001
1000
0001
1000
0001
1000
0001
1000
0001
1000
0001
1000
0001
1000
0001
1000
,
0001
1000
0001
1000
0001
1000
0001
1000
0001
1000
0001
1000
0001
1000
0001
1000
,
0001
1000
0001
1000
0001
1000
0001
1000
0001
1000
0001
1000
0001
1000
0001
1000
,
0001
1000
0001
1000
0001
1000
0001
1000
0001
1000
0001
1000
0001
1000
0001
1000
,
0002
0000
0003
0000
;

//--------------- dance-single - ----------------
#NOTES:
     dance-single:
     :
     Medium:
     17:
     0,0,0,0,0:
0000
0000
0000
0000
,
0001
0100
0001
0100
,
0010
1000
0010
1000
,
0010
0100
0010
0100
,
0001
0000
0000
0000
0100
0000
0000
0000
0001
0100
0001
0100
0001
0100
0001
0100
,
0010
0100
0010
0100
0010
0100
0010
0100
0010
1000
0010
1000
0010
1000
0010
1000
,
0001
1000
0001
1000
0001
1000
0001
1000
0001
0100
0001
0100
0001
0100
0001
0100
,
0001
0010
0001
0010
0100
1000
0100
1000
0001
0100
0001
0100
0010
1000
0010
1000
,
0001
0010
0100
1000
0001
0010
0100
1000
0010
0100
0001
1000
0010
0100
0010
1000
,
0002
0000
0003
0000
;

//--------------- dance-single - ----------------
#NOTES:
     dance-single:
     :
     Hard:
     18:
     0,0,0,0,0:
0000
0000
0000
0000
,
0001
0100
0001
0100
,
0010
1000
0010
1000
,
0001
0100
0001
0010
,
0001
0010
0001
0010
0100
1000
0001
1000
0010
0100
0001
1000
0010
0100
0010
0100
,
0001
0100
0010
1000
0100
0010
0001
0010
0001
0010
0100
1000
0001
0100
0001
0010
,
0001
1000
0100
1000
0010
0100
0010
1000
0010
0100
0001
0010
0001
0100
0010
0100
,
0010
1000
0010
1000
0001
0010
0001
0010
0100
1000
0010
1000
0010
1000
0001
0100
,
0001
0100
0010
0100
0010
1000
0100
0010
0100
0010
0001
1000
0010
0100
0001
0100
,
0002
0000
0003
0000
;

//--------------- dance-single - ----------------
#NOTES:
     dance-single:
     :
     Challenge:
     19:
     0,0,0,0,0:
0000
0000
0000
0000
,
0001
0010
0001
0100
0010
1000
0100
1000
,
0010
0100
0010
0100
0001
1000
0100
0010
,
0100
1000
0010
0100
0001
0010
0100
1000
,
0001
0010
0100
1000
0100
0001
0100
1000
0100
0010
1000
0010
0001
0010
0100
1000
,
0100
0010
0001
0010
1000
0010
0001
0100
0010
1000
0100
0010
0001
0100
1000
0100
,
0001
1000
0100
0001
0100
1000
0010
0100
0001
0100
0010
1000
0100
0010
0001
0010
,
0100
1000
0001
1000
0100
0010
0001
0100
0010
1000
0100
0001
0100
1000
0001
0100
,
1000
0100
0001
0010
1000
0010
0001
1000
0010
0001
0010
1000
0010
0100
0010
1000
,
0002
0000
0003
0000
;
