#TITLE:青空のラプソディ;
#SUBTITLE:;
#ARTIST:fhana;
#TITLETRANSLIT:Aozora no Rhapsody;
#SUBTITLETRANSLIT:;
#ARTISTTRANSLIT:fhana;
#GENRE:ANIME;
#CREDIT:;
#MUSIC:aozora no rhapsody.ogg;
#BANNER:aozora no rhapsody.png;
#BACKGROUND:aozora no rhapsody-bg.png;
#CDTITLE:;
#SAMPLESTART:50.703;
#SAMPLELENGTH:14.352;
#SELECTABLE:YES;
#OFFSET:0.690;
#BPMS:0.000=135.000;
#STOPS:;
#BGCHANGES:1.625=aozora no rhapsody.avi=1.000=0=0=0=StretchNoLoop====,
99999.000=-nosongbg-=1.000=0=0=0=StretchNoLoop====
;
#FGCHANGES:;

//--------------- dance-single - ----------------
#NOTES:
     dance-single:
     :
     Hard:
     12:
     0.616138,0.635927,0.377778,0.157408,0.540433,411,375,36,15,0,0,0.616138,0.635927,0.377778,0.157408,0.540433,411,375,36,15,0,0:
0000
0000
0000
0000
,
1001
0000
0000
0000
1001
0000
0000
0000
1000
0000
0001
0000
0100
0000
0001
1000
,
0000
0000
0100
0000
0000
0100
0000
0000
0010
0000
0001
0000
0011
0000
0000
0000
,
0011
0000
0000
0000
1100
0000
0000
0000
0001
0000
1000
0000
0001
0000
0100
0010
,
0000
0000
1000
0000
0000
1000
0000
0000
1000
0000
0100
0000
0010
0000
0010
0000
,
1001
0000
0000
0000
0110
0000
0000
0000
1000
0000
0001
0000
0010
0000
0100
1000
,
0000
0000
0001
0000
0000
0001
0000
0000
1000
0000
0010
0000
0100
0000
0000
0000
,
0110
0000
1001
0000
0001
0100
1000
0100
,
0001
0010
0000
0001
0010
0000
0100
1000
0000
0100
1000
0000
0100
0000
0010
0000
,
0001
0100
0000
1000
0100
0000
0001
0010
0000
1000
0010
0000
0001
0000
0100
0000
,
1001
0000
0000
0000
0001
0000
0100
0001
0000
1000
0010
0000
1000
0000
0001
0100
,
0001
0000
0100
0000
0010
1000
0000
0010
0000
0100
0000
0002
0000
0000
0000
0000
,
0023
0000
0000
0000
0130
0000
1000
0100
0000
0010
0001
0000
0100
0000
0010
1000
,
0010
0000
0010
1000
0000
0010
0000
1000
0000
0001
0100
0000
0010
0000
1000
0000
,
0002
0000
0000
0000
1003
0100
1000
0100
0000
0010
0001
0000
0010
0000
0100
1000
,
0100
0000
1001
0000
0100
0010
0000
0001
0000
1000
0000
0001
0000
0000
1001
0000
,
1001
0000
0000
0000
0010
0100
0010
0100
0000
0100
0002
0000
0000
0000
1003
0100
,
1000
0000
0001
0100
0000
0100
0000
0010
0000
0010
1000
0000
0010
0000
0100
0001
,
1000
0000
1000
0100
0000
0001
0000
0100
0000
0000
1100
0000
1100
0000
1001
0000
,
1000
0001
0100
1000
0100
0001
0100
0001
,
1000
0020
0000
2030
0000
0000
3100
0000
,
0010
0001
0100
1000
0100
0001
0010
0001
,
0020
0000
0000
0230
0000
0000
2300
0000
0000
0000
0000
0000
3010
0000
0100
0000
,
0001
1000
0001
1000
0100
0010
0100
0010
,
0001
0000
0000
0001
0000
0000
0100
0000
0000
0000
0100
0000
0010
0000
1000
0000
,
1001
0000
1000
0100
1000
0000
0100
1000
0100
0000
0010
0000
0001
0000
0100
0000
,
0010
1000
0000
1000
0100
0000
0100
0010
0000
0010
0001
0000
0100
0000
0010
0000
,
0010
1000
0000
1000
0001
0000
0001
0100
0000
0100
0010
0000
0010
0000
1000
0000
,
0001
0000
0010
0100
0000
0100
0010
0000
0001
0010
0100
0000
0010
0100
0010
0100
,
1000
0000
0000
0001
0000
0000
0100
0000
1000
0000
0000
0100
0000
0000
0001
0000
,
0010
0000
0000
0100
0000
0000
0010
0000
0001
0000
0000
0000
1000
0000
0001
0100
,
0001
0000
0000
0100
0000
0000
0100
0000
0001
0000
0000
0001
0000
0000
1000
0000
,
0020
0000
0000
0000
0230
0000
0000
0000
0302
0000
0000
0000
0023
0000
0130
1000
,
0100
0000
0000
0100
0000
0000
0001
0000
0100
0000
0000
0100
0000
0000
1000
0000
,
0001
0000
0000
0100
0000
0000
1000
0000
0100
0000
0001
0000
0010
0000
0100
1000
,
0001
0000
0000
1001
0000
0000
0010
0000
0110
0000
0000
1100
0000
0000
1000
0100
,
0010
0000
0010
0001
0000
0001
0100
0000
0100
0010
0000
0010
1000
0010
1000
0010
,
1000
0000
0000
0001
0000
0000
0100
0000
0010
0000
0000
0001
0000
0000
0010
0000
,
1000
0000
0000
0100
0000
0000
0001
0000
0100
0000
0000
0000
1000
0000
0100
0010
,
0100
0000
0000
1000
0000
0000
0001
0000
0100
0000
0000
0001
0000
0000
1000
0000
,
0100
0000
1100
0000
1100
0000
1000
0100
,
0001
0000
0000
0110
0000
0000
0011
0000
0011
0000
0001
0010
0000
0000
0100
0000
,
1100
0000
1000
0100
0000
0000
0010
0000
0001
0000
0100
0000
1000
0000
0100
0000
,
0010
0000
0110
0000
0100
0001
0100
0001
0000
0001
0010
0000
0100
0000
1000
0000
,
0100
0000
1100
0000
0100
1000
0100
1000
0000
1000
0010
0000
0100
0000
0001
0000
,
1000
0000
1001
0000
0001
1000
0001
1000
0000
0000
0100
0000
0010
0000
0100
0000
,
0010
0110
1100
1100
,
0101
0000
0101
0000
1010
0000
0100
0100
,
1001
0001
0010
0100
1000
0001
0010
0100
,
1000
0000
0001
0000
0100
0000
1000
0000
0100
0000
0001
0000
0010
0200
0000
0000
,
0000
0020
0330
0000
;

//--------------- dance-single - ----------------
#NOTES:
     dance-single:
     :
     Challenge:
     14:
     0.772047,0.741915,0.461729,0.052469,0.808026,515,471,44,5,0,0,0.772047,0.741915,0.461729,0.052469,0.808026,515,471,44,5,0,0:
0000
0000
0000
0000
,
0011
0000
0000
0000
0011
0000
0000
0000
0001
0000
0100
0000
0010
0000
1000
0001
,
0000
0000
0001
0010
0000
0001
0100
0000
0001
0010
0100
1000
1100
0000
0000
0000
,
1100
0000
0000
0000
1010
0000
0000
0000
0100
0000
0001
0000
0010
0000
0100
1000
,
0000
0000
1000
0010
0000
1000
0100
0000
1000
0010
0100
0001
0101
0000
0101
0000
,
1001
0000
0000
0000
0110
0000
0000
0000
1000
0000
0001
0000
0010
0000
0100
1000
,
0000
0000
1000
0001
0000
0001
1000
0000
1000
0100
0010
0001
0100
0010
0000
0000
,
0110
0000
0000
0000
1001
0000
0000
0000
0001
0000
0100
0000
0010
1000
0100
0000
,
0100
0001
0000
0001
0100
0000
0100
1000
0000
1000
0010
0000
0100
0000
0001
0000
,
0001
0100
0001
1000
0100
1000
0001
0010
0001
1000
0010
1000
0001
0000
0001
0000
,
1001
0000
0100
0000
0001
0010
0001
0100
0000
0100
0001
0000
1000
0000
0010
0100
,
0010
0000
0100
0000
0001
0010
0000
0011
0000
1001
0000
1000
0100
1000
0010
0100
,
0010
0000
0001
0000
0010
1000
0100
0010
0000
0010
0001
0000
1000
0000
0001
0100
,
0010
0000
0010
1000
0000
0001
0000
1000
0000
0001
0100
0000
0001
0010
0001
0010
,
0100
0000
1100
0000
1000
0100
0010
0001
0000
0001
0010
0000
0100
0000
1000
0010
,
0100
0000
0010
0000
0100
0001
0000
1000
0000
0001
0000
1000
0000
0000
1001
0000
,
0100
0000
1001
0000
0010
0001
0100
1000
0000
1000
0100
0000
0110
0000
0010
1000
,
0100
0000
0010
0001
0000
0100
0000
0010
0000
1000
0001
0000
0010
0000
0100
1000
,
0001
0000
0001
0010
0000
0001
0000
1000
0000
0000
0011
0000
1100
0000
1001
0000
,
1000
0000
0001
0000
0100
0010
0100
0000
1000
0000
0100
0010
0100
0000
0001
0000
,
1000
0000
0010
0000
0100
0001
0100
0000
0010
0000
1000
0010
1000
0000
0001
0000
,
0010
0000
1000
0000
0010
0100
0010
0000
0001
0000
0010
0100
0010
0000
0001
0000
,
0010
0000
0100
1000
0100
0000
0010
0000
0001
0100
0001
0000
0010
0001
0010
0100
,
1000
0010
0100
0001
1000
0010
0100
0001
,
0010
1000
0001
0100
1000
0001
0011
0011
,
1001
0000
1000
0010
0100
0000
0001
0010
0100
0000
0001
0000
0100
1000
0010
0100
,
0001
0010
0000
0010
1000
0000
1000
0001
0000
0001
0100
0000
0100
1000
0010
0000
,
0010
0100
0000
0100
0001
0000
0001
1000
0000
1000
0010
0000
0010
0100
1000
0100
,
0010
0000
0010
1000
0000
1000
0001
0000
0001
0010
0100
1000
0001
0010
0100
1000
,
0001
0000
0000
0001
0100
0000
0010
0000
1000
0000
0000
1000
0100
0000
0010
0000
,
0001
0000
0000
0001
0100
0000
0010
0000
1000
0000
0000
1000
0100
0000
0010
0001
,
0100
0000
0000
0100
1000
0000
0100
0000
0001
0000
0000
0001
0010
0000
1000
0000
,
0020
0000
0000
0000
0032
0000
0000
0000
2003
0000
0000
0000
3001
0100
0010
1000
,
0001
0000
0000
0001
0010
0000
0100
0000
1000
0000
0000
1000
0010
0000
0100
0000
,
0001
0000
0000
0001
0010
0000
0100
0000
1000
0000
0000
1000
0010
0000
0100
0001
,
0010
0000
0000
0110
0000
0000
0100
0000
1001
0000
0000
0011
0000
0000
0001
1000
,
0100
0000
0010
0001
0000
0001
0100
0000
0010
1000
0000
1000
0010
0100
0001
1000
,
0010
0000
0010
1000
0100
0000
0010
0000
0100
0000
0010
0001
0100
0000
0010
0000
,
1000
0000
0100
0010
0001
0000
0100
0000
0010
0000
0100
0010
1000
0000
0100
0010
,
0001
0000
0100
0000
1000
0000
0001
0010
0100
0000
0001
0000
0010
0000
1000
0010
,
0100
0000
0001
0000
1000
0000
0010
0000
0001
0000
0100
0000
1000
0000
0100
0001
,
0100
0000
0000
0101
0000
0000
0010
0000
1010
0000
1000
0010
0000
0000
0100
0000
,
0101
0000
0001
0010
0000
0000
0001
0000
0010
0000
0100
0000
1000
0100
1000
0100
,
0010
0000
0110
0000
0001
0100
0001
0100
0000
0100
0010
0000
0010
1000
0100
0010
,
0001
0000
0011
0000
0010
0001
0010
0100
0000
0100
1000
0000
1000
0010
0100
0001
,
0010
0000
0110
0000
1000
0001
1000
0001
0000
0001
1000
0000
1000
0010
0100
0010
,
1000
0000
0000
0000
1010
0000
0000
0000
1000
0000
0010
0000
0100
0000
0001
0100
,
1010
0000
0011
0000
1010
0000
0110
0110
,
1001
0000
0001
0000
0110
0000
0100
0000
1001
0000
0001
0000
0011
0000
0100
1000
,
0000
0000
0001
0000
0110
0000
0100
0000
1000
0010
0100
0001
0010
0200
0000
0000
,
0000
2000
3300
0000
;
