#TITLE:アオとキラメキ;
#SUBTITLE:;
#ARTIST:スピラ・スピカ;
#TITLETRANSLIT:Ao to Kirameki;
#SUBTITLETRANSLIT:;
#ARTISTTRANSLIT:spira spica;
#GENRE:ANIME;
#CREDIT:;
#MUSIC:Ao to Kirameki.ogg;
#BANNER:Ao to Kirameki.png;
#BACKGROUND:Ao to Kirameki-bg.png;
#CDTITLE:;
#SAMPLESTART:45.651;
#SAMPLELENGTH:11.098;
#SELECTABLE:YES;
#OFFSET:1.863;
#BPMS:0.000=173.000;
#STOPS:;
#LASTBEATHINT:2.428785;
#BGCHANGES:5.750=Ao to Kirameki.avi=1.000=0=0=0=StretchNoLoop====,
99999.000=-nosongbg-=1.000=0=0=0=StretchNoLoop====
;
#FGCHANGES:;

//--------------- dance-single - ----------------
#NOTES:
     dance-single:
     :
     Medium:
     12:
     0.647868,0.648659,0.354822,0.709645,0,409,377,32,64,0,0,0.647868,0.648659,0.354822,0.709645,0,409,377,32,64,0,0:
0000
0000
0000
0000
,
0000
0000
0000
0000
,
1010
0000
0101
0000
0001
0010
0000
0100
,
0000
1000
0100
0010
0001
0000
1000
0020
,
0000
0230
0302
2003
3002
0000
1003
0020
,
0000
0230
0302
2003
3020
0000
0130
0000
,
0001
0100
1000
0100
0001
0010
0001
1000
,
0100
0001
0100
1000
0010
0100
0110
0000
,
0001
1000
0100
1000
0000
0001
0100
0001
,
0000
1000
0010
1000
0000
0001
0010
0001
,
0000
0100
0010
0100
0000
0001
1000
0001
,
0010
0100
0010
0001
2000
0001
3001
0000
,
1000
0001
0100
0001
0000
1000
0100
1000
,
0000
0001
0010
0001
0000
1000
0010
1000
,
0100
0100
0002
0000
0013
0010
2000
0000
,
3100
0100
0002
0000
0013
0010
2000
0000
,
3002
0100
0103
0000
0100
0000
0100
0001
,
1000
0000
0100
0010
0000
0001
1000
0010
,
0000
0100
0001
1000
0001
0000
0001
0010
,
0100
0000
1000
0001
0000
0100
0000
0010
,
1000
0100
0010
0001
0000
1000
0100
1000
,
0001
0010
0000
0010
0100
1000
0001
0100
,
0000
0101
0000
1010
0000
1000
0010
0100
,
0001
0000
0001
0010
0000
0100
1000
1001
,
0000
1000
0010
1000
0100
0010
0001
1000
,
0020
0230
0302
0023
,
0130
1000
0001
1000
0020
0000
0230
0000
,
0302
0000
2003
0000
3200
0302
0000
0103
,
1000
0001
0000
1000
0010
0100
0001
1000
,
0010
0001
0000
1000
0100
0001
0000
1001
,
0000
1000
0001
1000
0001
1000
0001
0020
,
0100
0230
0000
2300
3020
0230
0302
1003
,
0100
0010
0001
0100
1000
0100
0001
0010
,
1000
0010
0001
0000
0011
0000
1002
0100
,
0103
0010
0000
1000
0100
1000
0001
0100
,
1000
0100
0001
1000
0010
1000
0001
0010
,
1000
0020
0000
0032
0023
0230
2300
3001
,
1000
0002
0000
2003
3020
0230
0302
1000
,
1003
0010
0000
0100
0001
0000
0001
0010
,
0100
1000
0000
0001
1000
0001
0000
0100
,
0000
0010
1000
0001
0010
0000
0001
1000
,
0010
0000
1000
0100
0010
0001
0000
2001
,
0100
3100
0010
0001
0100
0001
1000
0100
,
0001
0100
1000
0001
0010
0001
1000
0010
,
0001
0020
0000
2030
3020
0230
0302
1003
,
0001
2000
0000
3020
0230
0302
2003
0010
,
3010
0100
0001
1000
0001
0000
1000
0001
,
1000
0010
0000
0100
0001
0010
1000
0010
,
0001
1000
0020
0100
0000
1000
0032
1000
,
0000
0010
0203
0320
0032
2003
0000
0010
,
3010
0000
1010
0000
1001
0000
0100
0001
,
0000
1001
0000
0000
0001
1000
0001
0000
,
1100
0000
0011
0000
1001
0000
0100
1000
,
0000
1001
0000
0000
1000
0001
0100
0000
,
0101
0000
1010
0000
1001
0000
0001
0010
,
0000
1100
0000
0000
1000
0010
0100
0000
,
1001
0000
0001
0100
1000
0100
0010
1000
,
0100
0010
0000
0001
1000
0000
0110
0000
,
1001
0000
0001
1000
0100
1000
0000
0001
,
0100
0001
0000
1000
0010
1000
0000
0001
,
0010
0001
0100
0100
2000
0000
3010
0010
,
0002
0000
0103
0100
2000
0000
3010
0010
,
0002
0000
1003
0100
0020
0000
0000
0000
,
0000
0000
0000
0000
,
0000
0000
0000
0000
,
0030
0000
0000
0000
;

//--------------- dance-single - ----------------
#NOTES:
     dance-single:
     :
     Hard:
     15:
     0.852207,0.864879,0.698556,0.92032,0.343734,538,475,63,83,0,0,0.852207,0.864879,0.698556,0.92032,0.343734,538,475,63,83,0,0:
0000
0000
0000
0000
,
0000
0000
0000
0000
,
0011
0000
1100
0000
1000
0010
0000
0100
,
0000
0001
1000
0001
0010
0000
0100
2000
,
0000
3020
0230
0302
2003
0000
3020
0230
,
0000
0302
0023
0230
2300
0000
3001
0000
,
1000
0000
0001
0010
0001
0000
1000
0000
0001
0010
0001
0000
1000
0000
0001
0000
,
1000
0100
1000
0000
0001
0000
1000
0000
0001
0010
0100
0000
1001
0000
0000
0000
,
0021
0130
0100
0001
1020
0130
0100
1000
,
0021
0130
0100
0001
1020
0130
0100
1000
,
0021
0130
0100
0001
1020
0130
0100
1000
,
0100
0100
0001
0100
0200
1000
1300
0000
,
2010
3100
0100
0001
0012
0103
0100
1000
,
2010
3100
0100
0001
0012
0103
0100
1000
,
0010
0010
0102
0000
0013
0010
2100
0000
,
3010
0010
0102
0000
0013
0010
2100
0000
,
3002
0000
0100
0000
0103
0000
0000
0000
0001
0000
0000
0000
0010
0000
0001
1000
,
0001
0000
0010
0000
0100
0000
1000
0001
1000
0000
0010
0000
0100
0000
0001
1000
,
0001
0000
0010
0000
0100
0000
1000
0000
0001
0100
0001
1000
0001
0010
0100
1000
,
0001
0000
1000
0000
0001
0000
0100
0010
0100
0000
0001
0000
1000
0000
0100
0010
,
0100
0000
1000
0000
0001
0000
0100
0000
0010
1000
0001
0010
0100
0010
0001
1000
,
0010
0000
0100
0001
1000
0000
0100
0000
0001
0000
0100
0010
0100
0000
1000
0000
,
0001
0000
1000
0010
0100
0000
1000
0000
0100
0010
1000
0001
0010
0100
1000
0001
,
0010
0000
0000
0000
0000
0100
1000
0001
,
0000
0100
0010
0100
1000
0100
0001
0010
,
0200
2300
3020
0230
,
0301
1000
0200
2300
3002
0000
0023
0000
,
0230
0000
2300
0000
3002
0203
0000
0301
,
1000
0000
0000
0000
0001
0000
1000
0100
0010
0000
0100
0000
1000
0000
0100
0010
,
0001
0000
0010
0000
0100
0000
1000
0001
0100
0000
0010
0000
1000
0000
0001
0100
,
0010
0000
1000
0000
0001
0000
0100
0000
0010
1000
0001
0010
0100
0000
1000
0001
,
1000
0010
0200
0000
0000
0000
0302
0000
2003
0000
3200
0000
0320
0000
0032
0000
,
2003
3020
2030
0001
0010
0100
3002
1000
,
0010
0100
1003
0000
0110
0000
1002
0100
,
0103
0000
0010
0000
1000
0000
0001
0100
0001
0000
1000
0000
0010
0000
0100
0001
,
0100
0000
0001
0000
0010
0000
0100
1000
0100
0000
1000
0000
0001
0000
1000
0100
,
1000
0000
0020
0000
0100
0000
0100
0031
0020
0000
0100
1030
0020
0000
0100
0031
,
0020
0000
0230
0000
0010
0000
0010
0301
0200
0000
0010
1300
0200
0000
0010
0301
,
0200
0310
1000
0001
0101
0000
0001
1000
,
1100
0000
1000
0001
0011
0000
0001
1000
,
1010
0000
0000
0000
0001
0000
0100
1000
0100
0000
0010
0000
1000
0000
0100
0001
,
0100
0010
0001
1000
0010
0110
0000
1002
,
0100
0000
0103
0000
0001
0000
1000
0100
1000
0000
0001
0000
0010
0000
0100
1000
,
0100
0000
1000
0000
0010
0000
0100
0001
0100
0000
0010
0000
1000
0000
0001
0100
,
0002
0000
0023
0000
0100
0000
0100
1030
0020
0000
0100
0031
0020
0000
0100
1030
,
0020
0000
0230
0000
0010
0000
0310
1000
0200
0000
0010
0301
0200
0000
0010
1300
,
0200
1300
0100
0010
0011
0000
0001
0100
,
1010
0000
1000
0010
0101
0000
0001
0010
,
1100
0000
2000
0100
0010
0000
3002
0100
,
0010
0000
2003
3020
0230
0302
0000
1000
,
1003
0000
0011
0000
1100
0000
0011
1100
,
0000
1001
0100
0000
0110
0110
1001
0000
,
1001
0000
1010
0000
0101
0000
1010
0101
,
0000
1001
0100
0000
0110
0110
1001
0000
,
0110
0000
0011
0000
1100
0000
1010
0101
,
0000
1001
0100
0000
1001
1001
0110
0000
,
1001
0000
0000
0000
0001
0000
0010
0100
0010
0000
1000
0000
0001
0000
0100
0010
,
0100
1000
0001
0000
0110
0000
1001
0000
,
1001
0000
0021
0130
0100
0001
1020
0130
,
0100
1000
0021
0130
0100
0001
1020
0130
,
0100
0000
1000
0000
0001
0000
1000
0010
0200
0000
1000
0000
0310
0000
0001
0010
,
0200
0000
0001
0000
0310
0000
1000
0010
0200
0000
1000
0000
0310
0000
0001
0010
,
0200
0000
0000
0000
1300
0001
0010
0100
2000
0000
0000
0000
0000
0000
0000
0000
,
0000
0000
0000
0000
,
0000
0000
0000
0000
,
3000
0000
0000
0000
;

//--------------- dance-single - ----------------
#NOTES:
     dance-single:
     :
     Challenge:
     17:
     1.099315,1.189209,0.79835,0.975761,0.942497,694,622,72,88,0,0,1.099315,1.189209,0.79835,0.975761,0.942497,694,622,72,88,0,0:
0000
0000
0000
0000
,
0000
0000
0000
0000
,
0011
0000
1100
0000
1000
0010
0000
0100
,
0000
0001
0010
1000
0010
0001
1000
0020
,
0000
0230
0302
2003
3002
0010
0023
0230
,
0000
2300
3020
0230
0302
0013
0100
1000
,
0001
0010
0100
1000
0001
0000
1000
0010
0100
0001
1000
0000
0001
0010
0100
0000
,
1000
0100
0010
0000
0001
0000
1000
0000
0001
0010
0100
1000
1001
0000
0000
0000
,
0011
0000
1000
0100
0010
0000
0001
0000
1100
0000
0001
0100
0010
0000
1000
0000
,
0011
0000
1000
0100
0010
0000
0001
0000
1100
0000
0001
0100
0010
0000
1000
0000
,
0011
0000
1000
0100
0010
0000
0001
0000
1100
0000
0001
0100
0010
0000
1000
0000
,
0001
0010
0100
1000
0001
1000
0100
0010
0001
2000
0010
0000
3010
0000
0000
0000
,
0101
0000
1000
0100
0010
0000
0001
0000
1010
0000
0001
0100
0010
0000
1000
0000
,
0101
0000
1000
0100
0010
0000
0001
0000
1010
0000
0001
0100
0010
0000
1000
0000
,
0001
0001
1020
0000
1030
1000
0021
0000
,
0130
1000
0001
0100
2000
0000
0100
0000
3100
0001
1000
0100
0002
0000
0000
0000
,
0103
0000
0110
0000
0110
0000
0000
0001
1000
0000
1001
0000
0001
0010
0100
1000
,
0001
1000
0010
1000
0100
0010
0001
1000
0001
0010
0100
1000
0001
1000
0010
0100
,
0001
0100
0010
0100
0001
1000
0100
0010
0100
1000
0100
0010
0001
0010
0100
1000
,
0010
0100
0001
1000
0001
0100
0010
1000
0001
0010
0100
1000
0001
1000
0100
0010
,
0001
1000
0010
0100
0001
1000
0001
0100
0010
1000
0001
1000
0100
0010
0001
1000
,
0010
0100
1000
0100
0010
0100
1000
0100
0001
0010
0100
0001
0100
0010
0100
0001
,
0100
1000
0010
0100
0001
1000
0010
0100
1000
0100
0001
0010
0100
1000
0001
0010
,
2000
0000
0000
0000
0000
0000
0000
0000
0000
0000
3010
0001
1000
0000
1001
0000
,
0000
0000
1000
0000
0001
0100
0010
1000
0001
0000
0010
0000
0100
0000
1000
0000
,
0020
0100
2030
0001
3020
0100
2030
0001
,
3010
0000
0000
1000
0000
0000
0001
0000
0000
1000
0100
0010
0002
0000
0000
1000
0000
0000
0203
0000
0000
0010
0000
0000
,
0301
1000
0100
1000
0002
0000
0100
0000
2003
0000
3020
0000
0130
0001
1000
0100
,
0010
0000
0000
0000
1001
0000
0001
0100
0001
0100
1000
0000
0100
0001
0100
0001
,
0010
0000
0011
0000
1100
0000
0001
0000
1000
0100
1000
0100
0001
0000
0100
1000
,
0100
1000
0010
0000
1010
0000
0101
0000
0001
0010
0001
0010
1000
0000
0010
0001
,
0010
0001
0200
0000
0010
0000
0320
0000
2030
0000
3200
0000
0320
0000
0031
1000
,
0100
0000
1000
0000
0010
0000
1000
0000
0001
0000
0000
1000
0010
0000
0000
1000
0001
0000
0000
1000
0010
0000
0000
0100
0001
0000
0000
0010
0100
0000
0000
0010
,
0001
0000
0000
0010
0100
0000
0000
1000
0001
0000
0000
0000
0000
0000
0000
0000
0011
0000
0000
0000
0000
0000
0000
0000
2001
0000
0000
0000
0100
0000
0000
0000
,
3100
0000
0010
0000
0100
0000
1000
0001
0100
0000
1000
0000
0100
0000
0001
1000
,
0100
0000
0001
0000
0100
0000
1000
0001
0100
0000
1000
0000
0100
0000
0001
1000
,
0020
0000
2030
3100
2000
3010
0200
0301
0020
0130
0020
0031
0200
0310
0200
0301
,
2000
0000
3002
0013
0002
0103
0020
1030
0200
0310
0200
1300
0020
0130
0020
1030
,
0100
0010
0001
0010
1100
0001
0010
0100
,
1100
0001
1000
0010
0101
1000
0010
0100
,
0101
0000
1000
0000
0001
0000
0010
0100
0010
0000
0001
1000
0001
0000
0100
0010
,
0100
0000
0001
1000
1100
0000
0101
0000
1100
0000
0101
0000
0000
0000
1002
0000
,
0100
0000
0103
0000
0010
0000
1000
0001
0010
0000
1000
0000
0010
0000
0001
1000
,
0010
0000
0001
0000
0010
0000
1000
0001
0010
0000
1000
0000
0010
0000
0001
1000
,
0020
0000
2030
3100
2000
3010
0200
0301
0020
0130
0020
0031
0200
0310
0200
0301
,
2000
0000
3002
0013
0002
0103
0020
1030
0200
0310
0200
1300
0020
0130
0020
1030
,
0001
0010
0100
1000
0110
0001
0010
0100
,
1001
0010
1000
0001
0110
1000
0001
0010
,
1001
0100
2000
0010
0001
0100
3002
0100
,
1000
0000
0013
0001
2000
0000
3020
0000
0230
0000
0301
0000
0020
0000
0100
0000
,
0130
0000
1200
0310
2100
3001
1100
0012
,
1003
0021
0130
0000
1100
0011
1100
0010
,
1001
0000
0102
1003
0201
0310
0101
2010
,
3001
1020
0130
0000
0101
1010
0101
0010
,
1001
0000
0102
1003
0021
0130
0011
2100
,
3001
1020
0130
0000
0011
1100
0011
0100
,
1001
0000
0000
0000
0001
0100
1000
0100
0010
0000
1000
0000
0001
0010
1000
0010
,
0100
0000
1000
0000
0001
0000
0100
0010
0100
0000
0001
0000
1001
0000
0000
0000
,
1001
0000
0000
0000
0011
0000
1000
0100
0010
0000
0001
0000
1010
0000
0001
0010
,
0100
0000
1000
0000
0101
0000
1000
0010
0100
0000
0001
0000
1100
0000
0001
0100
,
0010
0000
1000
0000
0010
1000
0001
0010
0200
0000
0000
0000
0310
0001
1000
0010
,
0200
0000
0000
0000
0310
1000
0001
0010
0200
0000
0000
0000
0310
0001
1000
0010
,
0200
0000
1000
0000
1300
0100
0001
0010
0200
0000
0000
0000
0000
0000
0000
0000
,
0000
0000
0000
0000
,
0000
0000
0000
0000
,
0300
0000
0000
0000
;
