#TITLE:アニマル;
#SUBTITLE:;
#ARTIST:DECO*27 feat. 初音ミク;
#TITLETRANSLIT:Animal;
#SUBTITLETRANSLIT:;
#ARTISTTRANSLIT:DECO*27 feat. Hatsune Miku;
#GENRE:POP;
#CREDIT:;
#MUSIC:Animal.ogg;
#BANNER:Animal.png;
#BACKGROUND:Animal-bg.png;
#CDTITLE:;
#SAMPLESTART:41.512;
#SAMPLELENGTH:15.319;
#SELECTABLE:YES;
#OFFSET:-0.023;
#BPMS:0.000=188.000
,123.000=94.000
,127.000=188.000
,159.000=94.000
,159.500=188.000
,162.000=376.000
,163.500=188.000
,186.000=94.000
,211.000=188.000
,226.000=376.000
,229.000=188.000
,258.000=94.000
,258.500=188.000
,261.000=376.000
,262.500=188.000
,316.500=376.000
,320.000=94.000
,320.500=188.000
;
#STOPS:31.500=0.160
,32.000=0.160
,162.000=0.240
,162.500=0.240
,163.000=0.240
,184.500=0.160
,185.000=0.160
,202.750=1.277
,222.500=0.160
,223.000=0.160
,226.000=0.080
,226.500=0.080
,227.000=0.080
,227.500=0.080
,228.000=0.080
,228.500=0.080
,261.000=0.240
,261.500=0.240
,262.000=0.240
,316.500=0.080
,317.000=0.080
,317.500=0.080
,318.000=0.080
,318.500=0.080
,319.000=0.080
,319.500=0.080
;
#DISPLAYBPM:94.000:188.000;
#BGCHANGES:0.000=Animal.avi=1.000=0=0=0=StretchNoLoop====,
99999.000=-nosongbg-=1.000=0=0=0=StretchNoLoop====
;
#FGCHANGES:;

//--------------- dance-single - ----------------
#NOTES:
     dance-single:
     :
     Medium:
     12:
     0,0,0,0,0:
0000
0000
0000
0000
,
1000
0000
1000
0000
0001
0100
0000
0010
,
0000
0010
0000
1000
0001
0000
0001
1000
,
0000
0100
0000
0100
0001
0000
0100
1000
,
0000
1001
0000
0001
0100
0010
1000
0001
,
0011
0000
0101
0000
0001
1000
1001
0000
,
1010
0000
1100
0000
1000
0010
0110
0000
,
0100
0000
0000
0000
0000
0000
0000
0000
0000
0000
0000
0000
0000
0000
0000
0000
0000
0000
0000
0000
0000
0000
0000
0000
0001
0000
0000
0000
0000
0000
0000
0000
0000
0000
0000
0000
0000
0000
0000
0000
0000
0000
0000
0000
0000
0000
0000
0000
0100
0000
0000
0000
0000
0000
0000
0000
0000
0000
0000
0000
0000
0000
0000
0000
0000
0000
0000
0000
0000
0000
0000
0000
0001
0000
0000
0000
0000
0000
0000
0000
0000
0000
0000
0000
0000
0000
0000
0000
0000
0000
0000
0000
0000
0000
0000
0000
1000
0000
0000
0000
0000
0000
0000
0000
0000
0000
0000
0000
0000
0000
0000
0000
0000
0000
0000
0000
0000
0000
0000
0000
0100
0000
0000
0000
0000
0000
0000
0000
0000
0000
0000
0000
0000
0000
0000
0000
0000
0000
0000
0000
0000
0000
0000
0000
1000
0000
0000
0000
0000
0000
0000
0000
0000
0000
0000
0000
0000
0000
0000
0000
0000
0000
0000
0000
0000
0000
0000
0000
0002
0003
0000
0000
0000
0000
0000
0000
0000
0000
0000
0000
0000
0000
0000
0000
0000
0000
0000
0000
0000
0000
0000
0000
,
2000
3000
0000
0000
0000
0000
0000
0000
0000
0000
0000
0000
0000
0000
0000
0000
0000
0000
0000
0000
0000
0000
0000
0000
0001
0000
0000
0000
0000
0000
0000
0000
0000
0000
0000
0000
0000
0000
0000
0000
0000
0000
0000
0000
0000
0000
0000
0000
1000
0000
0000
0000
0000
0000
0000
0000
0000
0000
0000
0000
0000
0000
0000
0000
0000
0000
0000
0000
0000
0000
0000
0000
0000
0000
0000
0000
0000
0000
0000
0000
0000
0000
0000
0000
0000
0000
0000
0000
0000
0000
0000
0000
0000
0000
0000
0000
1001
0000
0000
0000
0000
0000
0000
0000
0000
0000
0000
0000
0000
0000
0000
0000
0000
0000
0000
0000
0000
0000
0000
0000
0000
0000
0000
0000
0000
0000
0000
0000
0000
0000
0000
0000
0000
0000
0000
0000
0000
0000
0000
0000
0000
0000
0000
0000
0001
0000
0000
0000
0000
0000
0000
0000
0000
0000
0000
0000
0000
0000
0000
0000
0000
0000
0000
0000
0000
0000
0000
0000
0000
0000
0000
0000
0000
0000
0000
0000
0000
0000
0000
0000
0000
0000
0000
0000
0000
0000
0000
0000
0000
0000
0000
0000
,
0001
0000
1000
0100
0010
0001
0000
1000
,
0000
0010
0000
0100
0001
0010
0000
1100
,
0000
1100
0000
0011
0000
0011
0000
0001
,
0100
1000
0100
0001
0100
0010
1010
0000
,
1010
0000
1000
0100
0010
0000
0011
0000
,
0011
0000
0001
0100
0010
0000
1010
0000
,
0101
0000
0100
0001
0010
1000
0000
0001
,
0100
1000
0010
0000
0110
0000
0001
0000
,
0001
0100
0010
0000
0010
1000
0000
1000
,
0100
0001
0100
0000
0110
0000
0011
0000
,
0001
1000
0100
0000
0010
0001
0000
1001
,
0000
1000
0010
0000
0010
0100
0010
0000
,
0010
1000
0001
0000
0001
0010
0000
0010
,
0100
1000
0002
0000
0103
0000
1010
0000
,
1010
0000
0101
0000
0101
0000
0001
1000
,
0010
0000
0100
0001
0020
0000
0230
0000
,
1000
2300
0000
0001
3001
0000
0210
0000
,
0010
0320
0000
1000
1030
0000
0001
0100
,
0010
0000
0010
0100
0001
0011
0000
1010
,
0000
1000
0100
0000
1002
0000
0023
0000
,
0100
0230
0000
1000
1300
0000
1002
0000
,
0100
0103
0000
0010
1000
0001
0020
0000
,
0200
0000
0330
0110
,
1100
0000
0001
1000
0000
0011
0000
0011
,
0000
0010
0001
0100
1000
0001
0000
0010
,
1000
0100
0010
0001
1000
0100
0000
0011
,
0000
0001
1000
0001
0010
0100
1000
0000
,
1001
0000
1000
0010
0000
0110
0000
1001
,
0000
1000
0100
0001
0100
1000
0000
0001
,
0100
0000
0100
1000
0100
0001
0000
0011
,
0000
0001
1000
0000
1001
0000
2000
3010
,
0000
0000
0000
0000
0000
0000
0000
0000
0000
0000
0000
0000
0000
0000
0000
0000
0000
0000
0000
0000
0000
0000
0000
0000
0100
0000
0000
0000
0000
0000
0000
0000
0000
0000
0000
0000
0000
0000
0000
0000
0000
0000
0000
0000
0000
0000
0000
0000
0000
0000
0000
0000
0000
0000
0000
0000
0000
0000
0000
0000
0000
0000
0000
0000
0000
0000
0000
0000
0000
0000
0000
0000
0001
0000
0000
0000
0000
0000
0000
0000
0000
0000
0000
0000
0000
0000
0000
0000
0000
0000
0000
0000
0000
0000
0000
0000
0200
0300
0000
0000
0000
0000
0000
0000
0000
0000
0000
0000
0000
0000
0000
0000
0000
0000
0000
0000
0000
0000
0000
0000
0020
0030
0000
0000
0000
0000
0000
0000
0000
0000
0000
0000
0000
0000
0000
0000
0000
0000
0000
0000
0000
0000
0000
0000
2002
3003
0000
0000
0000
0000
0000
0000
0000
0000
0000
0000
0000
0000
0000
0000
0000
0000
0000
0000
0000
0000
0000
0000
1000
0000
0000
0000
0000
0000
0000
0000
0000
0000
0000
0000
0000
0000
0000
0000
0000
0000
0000
0000
0000
0000
0000
0000
,
0001
0000
0001
0010
0100
0000
0100
1000
,
0001
0000
0001
1000
0001
1000
0001
0000
,
1001
0000
1000
0100
0010
0000
0001
0100
,
0010
0000
1010
0000
0101
0000
0001
0010
,
0100
1000
0000
1001
0000
0001
0010
0100
,
1000
0000
0000
0000
0000
0000
0000
0000
0000
0000
0000
0000
0000
0000
0000
0000
0000
0000
0000
0000
0000
0000
0000
0000
0002
0003
0000
0000
0000
0000
0000
0000
0000
0000
0000
0000
0000
0000
0000
0000
0000
0000
0000
0000
0000
0000
0000
0000
2000
3000
0000
0000
0000
0000
0000
0000
0000
0000
0000
0000
0000
0000
0000
0000
0000
0000
0000
0000
0000
0000
0000
0000
0010
0000
0000
0000
0000
0000
0000
0000
0000
0000
0000
0000
0000
0000
0000
0000
0000
0000
0000
0000
0000
0000
0000
0000
0100
0000
0000
0000
0000
0000
0000
0000
0000
0000
0000
0000
0000
0000
0000
0000
0000
0000
0000
0000
0000
0000
0000
0000
0000
0000
0000
0000
0000
0000
0000
0000
0000
0000
0000
0000
0000
0000
0000
0000
0000
0000
0000
0000
0000
0000
0000
0000
0020
0000
0000
0000
0000
0000
0000
0000
0000
0000
0000
0000
0000
0000
0000
0000
0000
0000
0000
0000
0000
0000
0000
0000
0000
0000
0000
0000
0000
0000
0000
0000
0000
0000
0000
0000
0000
0000
0000
0000
0000
0000
0000
0000
0000
0000
0000
0000
,
1030
0000
0001
0000
0000
0001
0010
0000
0100
0000
1000
0000
0001
0000
0000
1000
,
0010
0000
0100
0000
0000
0100
0001
0000
1000
0010
0100
0001
0010
0000
0000
0010
,
0100
0000
1000
0000
0000
1000
0100
0000
0010
0000
0100
0000
1000
0000
0000
0001
,
0100
0000
0010
0000
1000
0100
1000
0100
0010
0001
0010
0002
1003
0000
1000
0000
,
0010
0100
0000
0001
0000
0001
0000
0010
0100
0000
1001
0000
0000
1000
0010
0000
,
0100
0000
0010
1000
0000
0001
0000
0001
0010
0000
0100
0000
1001
0000
0000
0000
,
1100
0000
1001
0000
0001
0100
1010
0000
,
1001
0000
0110
0000
0010
1000
0001
0010
,
1000
0000
0000
0000
0000
0000
0000
0000
0000
0000
0000
0000
0000
0000
0000
0000
0000
0000
0000
0000
0000
0000
0000
0000
0010
0000
0000
0000
0000
0000
0000
0000
0000
0000
0000
0000
0000
0000
0000
0000
0000
0000
0000
0000
0000
0000
0000
0000
0001
0000
0000
0000
0000
0000
0000
0000
0000
0000
0000
0000
0000
0000
0000
0000
0000
0000
0000
0000
0000
0000
0000
0000
0100
0000
0000
0000
0000
0000
0000
0000
0000
0000
0000
0000
0000
0000
0000
0000
0000
0000
0000
0000
0000
0000
0000
0000
1000
0000
0000
0000
0000
0000
0000
0000
0000
0000
0000
0000
0000
0000
0000
0000
0000
0000
0000
0000
0000
0000
0000
0000
0200
0300
0000
0000
0000
0000
0000
0000
0000
0000
0000
0000
0000
0000
0000
0000
0000
0000
0000
0000
0000
0000
0000
0000
0002
0003
0000
0000
0000
0000
0000
0000
0000
0000
0000
0000
0000
0000
0000
0000
0000
0000
0000
0000
0000
0000
0000
0000
1000
0000
0000
0000
0000
0000
0000
0000
0000
0000
0000
0000
0000
0000
0000
0000
0000
0000
0000
0000
0000
0000
0000
0000
,
0001
0000
1001
0000
0001
0100
1000
0100
,
0001
1000
0000
1001
0000
1000
1000
0000
,
0001
0010
0100
1000
0000
0001
0100
0000
,
0110
0000
1000
0001
0000
0011
0000
1000
,
0100
0011
1100
0011
,
0001
1000
0000
1010
0000
0100
0001
0010
,
1000
0000
0001
0100
0000
0100
1000
0010
,
0100
0001
1000
1010
0000
0101
0000
0001
,
1000
0000
0001
0000
2000
3100
0000
0010
,
0001
0000
0000
0000
0000
0000
0000
0000
0000
0000
0000
0000
0000
0000
0000
0000
0000
0000
0000
0000
0000
0000
0000
0000
0100
0000
0000
0000
0000
0000
0000
0000
0000
0000
0000
0000
0000
0000
0000
0000
0000
0000
0000
0000
0000
0000
0000
0000
0002
0003
0000
0000
0000
0000
0000
0000
0000
0000
0000
0000
0000
0000
0000
0000
0000
0000
0000
0000
0000
0000
0000
0000
2000
3000
0000
0000
0000
0000
0000
0000
0000
0000
0000
0000
0000
0000
0000
0000
0000
0000
0000
0000
0000
0000
0000
0000
2002
3003
0000
0000
0000
0000
0000
0000
0000
0000
0000
0000
0000
0000
0000
0000
0000
0000
0000
0000
0000
0000
0000
0000
0010
0000
0000
0000
0000
0000
0000
0000
0000
0000
0000
0000
0000
0000
0000
0000
0000
0000
0000
0000
0000
0000
0000
0000
0010
0000
0000
0000
0000
0000
0000
0000
0000
0000
0000
0000
0000
0000
0000
0000
0000
0000
0000
0000
0000
0000
0000
0000
0000
0000
0000
0000
0000
0000
0000
0000
0000
0000
0000
0000
0000
0000
0000
0000
0000
0000
0000
0000
0000
0000
0000
0000
,
0100
0001
0010
0000
0100
1000
0010
0000
,
0100
0001
0010
0100
1000
0000
1001
0000
,
0001
0100
1000
0100
0001
1000
0000
1001
,
0000
1000
0100
0001
0100
1000
0001
0100
,
0000
0010
0100
0010
0100
0010
1000
1001
,
0000
1001
0100
0010
0200
0000
0310
0000
,
1010
0000
1100
0000
0101
0000
0001
1000
,
0000
0100
1000
0010
0000
0100
0001
0010
,
0011
0000
0101
0000
1100
0000
1000
0001
,
0000
0100
0001
0010
0000
0100
1000
0010
,
0101
0000
0011
0000
1010
0000
1000
0001
,
0000
0010
0001
0100
0000
0010
1000
0100
,
1100
0000
1010
0000
0011
0000
0001
1000
,
0000
0001
1000
0001
1000
0001
1000
0001
,
0010
0110
0000
1001
0000
0001
1000
0000
,
1000
0100
0001
0000
0001
0100
1000
1001
,
0000
0101
0000
1010
0000
0001
1000
0000
,
0001
0100
1000
0000
1000
0100
0001
1000
,
0100
0001
0100
1000
0010
0100
0001
0000
,
0001
0010
1000
0000
0001
0100
1000
0001
,
0100
0010
0001
1000
0100
0001
0011
0000
,
1100
0000
1000
0001
0000
0000
0000
0000
;

//--------------- dance-single - ----------------
#NOTES:
     dance-single:
     :
     Hard:
     15:
     0,0,0,0,0:
0000
0000
0000
0000
,
0001
0100
0001
1000
0010
0100
0000
0010
,
0000
0110
0000
0100
0010
1000
0001
1000
,
0000
0100
0001
0100
1000
0010
0100
0110
,
0000
0110
0000
0010
0110
0100
0001
0010
,
1001
0100
0010
0100
1001
0010
0100
0001
,
0110
0001
1000
0001
0110
1000
0001
1000
,
0010
0000
0000
0000
0000
0000
0000
0000
0000
0000
0000
0000
0000
0000
0000
0000
0000
0000
0000
0000
0000
0000
0000
0000
0100
0000
0000
0000
0000
0000
0000
0000
0000
0000
0000
0000
0000
0000
0000
0000
0000
0000
0000
0000
0000
0000
0000
0000
0010
0000
0000
0000
0000
0000
0000
0000
0000
0000
0000
0000
0000
0000
0000
0000
0000
0000
0000
0000
0000
0000
0000
0000
0100
0000
0000
0000
0000
0000
0000
0000
0000
0000
0000
0000
0000
0000
0000
0000
0000
0000
0000
0000
0000
0000
0000
0000
0001
0000
0000
0000
0000
0000
0000
0000
0000
0000
0000
0000
0000
0000
0000
0000
0000
0000
0000
0000
0000
0000
0000
0000
1000
0000
0000
0000
0000
0000
0000
0000
0000
0000
0000
0000
0000
0000
0000
0000
0000
0000
0000
0000
0000
0000
0000
0000
0001
0000
0000
0000
0000
0000
0000
0000
0000
0000
0000
0000
0000
0000
0000
0000
0000
0000
0000
0000
0000
0000
0000
0000
0022
0033
0000
0000
0000
0000
0000
0000
0000
0000
0000
0000
0000
0000
0000
0000
0000
0000
0000
0000
0000
0000
0000
0000
,
2200
3300
0000
0000
0000
0000
0000
0000
0000
0000
0000
0000
0000
0000
0000
0000
0000
0000
0000
0000
0000
0000
0000
0000
1000
0000
0000
0000
0000
0000
0000
0000
0000
0000
0000
0000
0000
0000
0000
0000
0000
0000
0000
0000
0000
0000
0000
0000
0001
0000
0000
0000
0000
0000
0000
0000
0000
0000
0000
0000
0000
0000
0000
0000
0000
0000
0000
0000
0000
0000
0000
0000
0000
0000
0000
0000
0000
0000
0000
0000
0000
0000
0000
0000
0000
0000
0000
0000
0000
0000
0000
0000
0000
0000
0000
0000
1001
0000
0000
0000
0000
0000
0000
0000
0000
0000
0000
0000
0000
0000
0000
0000
0000
0000
0000
0000
0000
0000
0000
0000
0000
0000
0000
0000
0000
0000
0000
0000
0000
0000
0000
0000
0000
0000
0000
0000
0000
0000
0000
0000
0000
0000
0000
0000
0010
0000
0000
0000
0000
0000
0000
0000
0000
0000
0000
0000
0000
0000
0000
0000
0000
0000
0000
0000
0000
0000
0000
0000
0100
0000
0000
0000
0000
0000
0000
0000
0000
0000
0000
0000
0000
0000
0000
0000
0000
0000
0000
0000
0000
0000
0000
0000
,
0101
0001
0010
0100
1000
1100
0000
1000
,
0100
0001
1000
0010
0001
0100
0000
0101
,
0001
0000
0100
0000
0001
0000
1000
0000
0100
0000
0010
0000
0001
0000
1000
0100
,
1000
0000
0010
0000
0100
0001
0000
0001
0010
0000
0100
1000
0001
0000
0100
0000
,
1010
0100
0001
0010
1100
0001
1000
0100
,
0011
0001
1000
0010
0101
0001
1000
0010
,
0100
0000
1000
0000
0100
0000
0010
0000
0001
0000
0010
0000
1000
0000
0100
0010
,
0100
0000
0001
0000
0100
0000
1000
0010
0000
0010
0100
0001
1000
0000
0000
0000
,
1000
0100
0010
0000
0010
0011
0000
0001
,
1000
0001
0100
0000
0110
0000
1001
0000
,
0001
0001
0100
0000
0010
1010
0000
0110
,
0000
1000
0001
0000
0000
0001
0010
0100
,
0010
0001
0011
0000
0100
1100
0000
0110
,
0001
1000
0020
0000
0130
0000
0101
0000
,
0001
0000
0010
0000
0100
0000
0000
0000
0100
0000
0010
0000
0001
0000
1000
0010
,
1000
0000
0001
0000
0100
0010
0100
0010
2000
0000
0000
0000
3010
0000
0010
0000
,
1000
1000
0000
0001
0101
0100
0001
0100
,
0101
1001
0000
1000
1100
1000
0100
0010
,
0011
0001
0100
0010
1000
0110
0000
1010
,
0000
0101
0010
0100
1002
0000
0013
0100
,
1100
0000
1000
0000
0000
0000
0001
0000
0101
0000
0100
0000
1000
0000
0100
0001
,
0010
0000
0100
0000
1000
0100
1000
0100
0010
0000
0001
0000
2000
0000
0000
3001
,
0100
0001
0100
0001
0000
0000
0000
0000
0000
0000
0000
0000
0001
0000
0100
0000
,
1000
0000
0100
0000
0001
0000
1000
0100
1000
0000
0011
0000
0000
0000
0011
0000
,
0001
0000
0010
0000
1000
0000
0010
0100
0010
0000
1001
0000
0000
0000
1010
0000
,
1000
1000
0001
0001
0100
1010
0000
0101
,
0000
0000
0001
0000
1000
0000
0010
0100
0010
0000
0100
0001
0100
0000
0001
1000
,
0001
0000
1000
0100
1000
0000
1001
0000
0000
0000
1001
0000
0000
0000
0001
0100
,
0001
0000
1000
0100
1000
0000
0001
0100
0001
0000
0110
0000
0000
0000
0001
0000
,
1000
0100
0010
0001
1000
0110
0000
0101
,
0000
0000
0001
0000
1000
0000
0001
0100
0001
0100
0010
1000
0002
0000
0013
0000
,
0100
0000
0000
0000
0000
0000
0000
0000
0000
0000
0000
0000
0000
0000
0000
0000
0000
0000
0000
0000
0000
0000
0000
0000
1000
0000
0000
0000
0000
0000
0000
0000
0000
0000
0000
0000
0000
0000
0000
0000
0000
0000
0000
0000
0000
0000
0000
0000
0001
0000
0000
0000
0000
0000
0000
0000
0000
0000
0000
0000
0000
0000
0000
0000
0000
0000
0000
0000
0000
0000
0000
0000
0100
0000
0000
0000
0000
0000
0000
0000
0000
0000
0000
0000
0000
0000
0000
0000
0000
0000
0000
0000
0000
0000
0000
0000
2200
3300
0000
0000
0000
0000
0000
0000
0000
0000
0000
0000
0000
0000
0000
0000
0000
0000
0000
0000
0000
0000
0000
0000
0202
0303
0000
0000
0000
0000
0000
0000
0000
0000
0000
0000
0000
0000
0000
0000
0000
0000
0000
0000
0000
0000
0000
0000
2002
3003
0000
0000
0000
0000
0000
0000
0000
0000
0000
0000
0000
0000
0000
0000
0000
0000
0000
0000
0000
0000
0000
0000
1000
0000
0000
0000
0000
0000
0000
0000
0000
0000
0000
0000
0000
0000
0000
0000
0000
0000
0000
0000
0000
0000
0000
0000
,
0001
0000
0100
0000
0001
0000
1000
0100
1000
0000
0001
0000
1000
0000
0001
0100
,
0001
0000
1000
0000
0001
0000
1000
0100
1000
0000
0001
0100
0001
0000
0100
0000
,
1000
0000
0100
0000
0001
0000
0010
0100
0010
0000
0001
0000
1000
0000
0010
0100
,
0010
0000
0001
0000
1000
0000
0100
0010
0100
0000
0001
0000
1000
0000
0100
0010
,
0100
0000
1000
0000
0001
0000
1000
0010
1000
0000
0010
0100
0010
0000
0100
0001
,
0100
0000
0000
0000
0000
0000
0000
0000
0000
0000
0000
0000
0001
0000
0000
0000
0000
0000
0000
0000
0000
0000
0000
0000
2000
3000
0000
0000
0000
0000
0000
0000
0000
0000
0000
0000
0000
0000
0000
0000
0000
0000
0000
0000
0000
0000
0000
0000
0002
0003
0000
0000
0000
0000
0000
0000
0000
0000
0000
0000
0000
0000
0000
0000
0000
0000
0000
0000
0000
0000
0000
0000
1000
0000
0000
0000
0000
0000
0000
0000
0000
0000
0000
0000
0000
0000
0000
0000
0000
0000
0000
0000
0000
0000
0000
0000
0010
0000
0000
0000
0000
0000
0000
0000
0000
0000
0000
0000
0000
0000
0000
0000
0000
0000
0000
0000
0000
0000
0000
0000
0000
0000
0000
0000
0000
0000
0000
0000
0000
0000
0000
0000
0000
0000
0000
0000
0000
0000
0000
0000
0000
0000
0000
0000
2000
0000
0000
0000
0000
0000
0000
0000
0000
0000
0000
0000
0000
0000
0000
0000
0000
0000
0000
0000
0000
0000
0000
0000
0000
0000
0000
0000
0000
0000
0000
0000
0000
0000
0000
0000
0000
0000
0000
0000
0000
0000
0000
0000
0000
0000
0000
0000
,
3001
0000
0010
0000
0000
0100
1000
0100
1000
0001
0010
0100
1000
0000
0000
1000
,
0001
0000
0101
0000
0000
0100
0001
0100
0001
1000
0010
0100
0001
0000
0000
0001
,
0020
0000
0130
0000
0000
1000
0100
0010
0001
0010
0100
1000
0001
0000
0000
0001
,
1000
0000
1010
0000
0010
0010
0100
0100
0001
0001
1000
0200
1300
0001
1000
0001
,
1000
0010
0000
0100
0000
0100
0000
0010
1000
0100
0001
0100
0000
0010
0001
1000
,
0010
0100
0001
1000
0000
1000
0000
1000
0100
0010
0001
0100
1000
0000
0100
0000
,
0001
0100
1000
0100
0001
0001
1000
0100
,
0001
0100
1000
0100
0001
0001
0100
1000
,
0001
0000
0000
0000
0000
0000
0000
0000
0000
0000
0000
0000
0000
0000
0000
0000
0000
0000
0000
0000
0000
0000
0000
0000
0100
0000
0000
0000
0000
0000
0000
0000
0000
0000
0000
0000
0000
0000
0000
0000
0000
0000
0000
0000
0000
0000
0000
0000
0010
0000
0000
0000
0000
0000
0000
0000
0000
0000
0000
0000
0000
0000
0000
0000
0000
0000
0000
0000
0000
0000
0000
0000
0100
0000
0000
0000
0000
0000
0000
0000
0000
0000
0000
0000
0000
0000
0000
0000
0000
0000
0000
0000
0000
0000
0000
0000
0010
0000
0000
0000
0000
0000
0000
0000
0000
0000
0000
0000
0000
0000
0000
0000
0000
0000
0000
0000
0000
0000
0000
0000
0220
0330
0000
0000
0000
0000
0000
0000
0000
0000
0000
0000
0000
0000
0000
0000
0000
0000
0000
0000
0000
0000
0000
0000
0220
0330
0000
0000
0000
0000
0000
0000
0000
0000
0000
0000
0000
0000
0000
0000
0000
0000
0000
0000
0000
0000
0000
0000
1000
0000
0000
0000
0000
0000
0000
0000
0000
0000
0000
0000
0000
0000
0000
0000
0000
0000
0000
0000
0000
0000
0000
0000
,
0001
1000
0100
0010
0001
0100
1000
0100
,
0001
1000
0000
1001
0000
1000
1000
0100
,
0010
0000
0001
1000
0001
0000
0010
0000
0100
0000
1000
0010
1000
0000
0010
0000
,
0100
0000
0001
0010
0001
0000
1100
0000
0000
0000
0011
0000
0001
0000
1000
0000
,
0010
0000
0100
0001
0100
0000
0001
0000
1000
0000
0100
1000
0100
0000
1000
0000
,
0001
0000
0010
0001
0010
0000
0001
0000
1000
0000
0010
1000
0010
0000
0100
0001
,
0100
0000
0010
1000
0010
0000
0110
0000
0000
0000
0100
0000
0001
0000
0010
0000
,
1000
0000
0001
0000
0100
0000
0110
0000
0000
0000
1000
0000
0001
0100
0001
0100
,
0010
0000
1000
0100
1000
0100
0010
0001
2000
0000
3010
0000
0100
0000
0001
0000
,
1000
0000
0000
0000
0000
0000
0000
0000
0000
0000
0000
0000
0000
0000
0000
0000
0000
0000
0000
0000
0000
0000
0000
0000
0010
0000
0000
0000
0000
0000
0000
0000
0000
0000
0000
0000
0000
0000
0000
0000
0000
0000
0000
0000
0000
0000
0000
0000
2020
3030
0000
0000
0000
0000
0000
0000
0000
0000
0000
0000
0000
0000
0000
0000
0000
0000
0000
0000
0000
0000
0000
0000
0202
0303
0000
0000
0000
0000
0000
0000
0000
0000
0000
0000
0000
0000
0000
0000
0000
0000
0000
0000
0000
0000
0000
0000
2002
3003
0000
0000
0000
0000
0000
0000
0000
0000
0000
0000
0000
0000
0000
0000
0000
0000
0000
0000
0000
0000
0000
0000
0010
0000
0000
0000
0000
0000
0000
0000
0000
0000
0000
0000
0000
0000
0000
0000
0000
0000
0000
0000
0000
0000
0000
0000
0010
0000
0000
0000
0000
0000
0000
0000
0000
0000
0000
0000
0000
0000
0000
0000
0000
0000
0000
0000
0000
0000
0000
0000
0100
0000
0000
0000
0000
0000
0000
0000
0000
0000
0000
0000
0000
0000
0000
0000
0000
0000
0000
0000
0000
0000
0000
0000
,
0001
0000
1000
0100
1000
0000
0010
0000
0000
0000
0010
0000
0100
0000
0001
0000
,
0010
0000
0100
1000
0001
0000
0100
0000
1010
0000
1000
0000
0100
0000
0001
0000
,
0100
0000
1000
0001
1000
0000
0010
0000
0100
0000
0001
1000
0001
0000
0010
0000
,
0100
0000
1000
0001
1000
0000
0010
0100
0010
0000
0100
0001
1000
0000
0100
0000
,
0010
0000
0001
0010
0001
0000
0010
0100
0010
0000
0001
1000
0001
0000
0011
0000
,
0000
0010
0100
1000
1001
0000
0110
0000
,
0011
0000
1100
0000
0110
0000
0101
2001
,
0000
0001
0100
3002
0000
1000
0100
1003
,
1010
0000
0101
0000
0011
0000
1100
1002
,
0000
1000
0010
2003
0000
0001
0010
3001
,
0101
0000
1010
0000
1100
0000
0101
0120
,
0000
0100
1000
0230
0000
0001
0010
0301
,
1010
0000
0110
0000
0101
0000
0011
1001
,
0000
1001
1001
1001
1001
1001
1001
1001
,
0010
0110
0000
0101
0000
0011
1001
0000
,
0101
1100
1010
0000
1100
0101
0011
1001
,
0000
0011
0000
1100
0000
1010
0011
0000
,
1010
1100
0101
0000
0011
0101
1100
1000
,
0100
0010
0100
1000
0001
0100
0001
2000
,
0100
0001
3010
0020
0001
0100
1030
0001
,
0010
1000
0001
0100
1000
0001
0011
0000
,
1100
0000
0100
1001
0000
0000
0000
0000
;

//--------------- dance-single - ----------------
#NOTES:
     dance-single:
     :
     Challenge:
     18:
     1.143047,1.347111,1.122716,0.774832,0.909242,1012,870,142,98,0,0,1.143047,1.347111,1.122716,0.774832,0.909242,1012,870,142,98,0,0:
0000
0000
0000
0000
,
0001
0100
0001
0100
0010
2000
0000
0001
,
0000
3001
0010
0100
0010
0001
1000
0010
,
0000
0110
0100
0001
0001
1000
0100
0110
,
0000
0110
0010
0001
0100
0001
0010
0100
,
1001
0000
1000
0100
0010
0000
0100
0000
1100
0000
1000
0100
0010
0000
0100
0000
,
1001
0000
0001
0100
0010
0000
0100
0000
0101
0000
0001
0100
0010
0000
0100
0000
,
0101
0000
0000
0000
0000
0000
0000
0000
0000
0000
0000
0000
0000
0000
0000
0000
0000
0000
0000
0000
0000
0000
0000
0000
1001
0000
0000
0000
0000
0000
0000
0000
0000
0000
0000
0000
0000
0000
0000
0000
0000
0000
0000
0000
0000
0000
0000
0000
1100
0000
0000
0000
0000
0000
0000
0000
0000
0000
0000
0000
0000
0000
0000
0000
0000
0000
0000
0000
0000
0000
0000
0000
1001
0000
0000
0000
0000
0000
0000
0000
0000
0000
0000
0000
0000
0000
0000
0000
0000
0000
0000
0000
0000
0000
0000
0000
0101
0000
0000
0000
0000
0000
0000
0000
0000
0000
0000
0000
0000
0000
0000
0000
0000
0000
0000
0000
0000
0000
0000
0000
0100
0000
0000
0000
0000
0000
0000
0000
0000
0000
0000
0000
0010
0000
0000
0000
0000
0000
0000
0000
0000
0000
0000
0000
0100
0000
0000
0000
0000
0000
0000
0000
0000
0000
0000
0000
0010
0000
0000
0000
0000
0000
0000
0000
0000
0000
0000
0000
2020
3030
0000
0000
0000
0000
0000
0000
0000
0000
0000
0000
0000
0000
0000
0000
0000
0000
0000
0000
0000
0000
0000
0000
,
0202
0303
0000
0000
0000
0000
0000
0000
0000
0000
0000
0000
0000
0000
0000
0000
0000
0000
0000
0000
0000
0000
0000
0000
0110
0000
0000
0000
0000
0000
0000
0000
0000
0000
0000
0000
0000
0000
0000
0000
0000
0000
0000
0000
0000
0000
0000
0000
0110
0000
0000
0000
0000
0000
0000
0000
0000
0000
0000
0000
0000
0000
0000
0000
0000
0000
0000
0000
0000
0000
0000
0000
0100
0000
0000
0000
0000
0000
0000
0000
0000
0000
0000
0000
0010
0000
0000
0000
0000
0000
0000
0000
0000
0000
0000
0000
1001
0000
0000
0000
0000
0000
0000
0000
0000
0000
0000
0000
0000
0000
0000
0000
0000
0000
0000
0000
0000
0000
0000
0000
0000
0000
0000
0000
0000
0000
0000
0000
0000
0000
0000
0000
0000
0000
0000
0000
0000
0000
0000
0000
0000
0000
0000
0000
0010
0000
0000
0000
0000
0000
0000
0000
0000
0000
0000
0000
0000
0000
0000
0000
0000
0000
0000
0000
0000
0000
0000
0000
1000
0000
0000
0000
0000
0000
0000
0000
0000
0000
0000
0000
0100
0000
0000
0000
0000
0000
0000
0000
0000
0000
0000
0000
,
0010
0000
0100
0000
1000
0000
0001
0100
0010
0000
0100
0000
0001
0000
1000
0100
,
1000
0000
0001
0100
0001
0000
1000
0100
1000
0001
0100
0001
1000
0000
0001
0010
,
0100
0000
0010
0000
0001
0000
1000
0010
0100
0000
0010
0000
1000
0000
0001
0010
,
0001
0000
0000
0000
0000
0000
1000
0000
0000
0010
0000
0000
1000
0000
0000
0010
0000
0000
0000
0000
0000
0100
0000
0000
0001
0000
0000
0000
0000
0000
0001
0000
0010
0000
0100
0000
1000
0000
0000
0000
0000
0000
0100
0000
0000
1000
0000
0000
,
0001
0000
0100
0000
0010
0000
0100
0001
1000
0000
0100
0000
0010
0000
0100
1000
,
0010
0000
0100
0001
0010
0000
0100
1000
0010
0100
0001
0010
1000
0000
0010
0001
,
0100
0000
1000
0000
0100
0000
0010
1000
0100
0000
0001
0000
0100
0000
0010
0001
,
0100
0000
0010
0000
0110
0000
1000
0001
0000
0001
0010
0100
0110
0000
0000
0000
,
0001
0010
0100
0000
0100
1100
0000
1000
,
0010
0001
0020
0000
0130
0000
0110
0000
,
0100
0000
0010
1000
0001
0000
0000
0000
0001
0000
0011
0000
0000
0000
1100
0000
,
0000
0001
1000
0000
0010
0100
0101
0001
,
0100
0001
0101
0000
1000
1001
0000
1100
,
1000
0000
0100
0000
0011
0000
0000
0000
0101
0000
0000
0000
1010
0000
0000
1000
,
0100
0000
0010
0000
0110
0000
0000
0001
0100
0000
0010
0000
1000
0001
1000
0001
,
0100
0010
0100
0001
1000
0001
1000
0100
0010
0001
1000
0001
0010
0000
0100
1000
,
0010
0100
0010
0000
0100
0001
1000
0000
0011
0000
0001
0000
1100
0000
1100
0000
,
0100
0000
1000
0100
1000
0100
0010
0000
0011
0000
0001
0100
1000
0000
0100
0000
,
0110
0000
0010
0100
0010
0001
0010
1000
0001
0000
0011
0000
1000
0100
1000
0000
,
0011
0000
1000
0100
0010
0100
1000
0000
1001
0000
0001
0000
0100
0000
0010
0100
,
0001
0000
1000
0100
1000
0100
0001
0000
0100
0000
0010
0000
0110
0000
0100
1000
,
0001
0000
0101
0000
0100
0001
0010
0100
1000
0000
0010
0000
0200
0000
0300
0010
,
0100
0010
0100
0010
0000
0000
0000
0000
0000
0100
0001
1000
0120
0000
0130
0001
,
0010
0000
0100
0000
1100
0000
1000
0010
0001
0000
0010
0000
0110
0000
0100
0001
,
1000
0000
0010
1000
0001
0000
0010
0100
0010
0001
0100
0010
1000
0000
1000
0000
,
1010
0000
0010
0000
0100
0000
0100
0000
0001
0000
1001
0000
0000
0000
0001
0010
,
0100
0000
0010
0000
0110
0000
0100
1000
0010
0000
0001
0000
1000
0000
0100
0001
,
0010
0000
1000
0000
0010
0000
0100
1000
0010
0000
0001
0000
1000
0000
0100
0010
,
0100
0000
0010
1000
0010
0000
0100
0001
0100
1000
0100
0010
0001
0000
0010
0000
,
1010
0000
1000
0000
0100
0000
0010
0000
0010
0000
0011
0000
0001
1000
0001
0000
,
1010
0000
0100
0000
1001
0000
1000
0100
0010
0001
0100
1000
0200
0000
0310
0000
,
0100
0000
0000
0000
0000
0000
0000
0000
0000
0000
0000
0000
0000
0000
0000
0000
0000
0000
0000
0000
0000
0000
0000
0000
0001
0000
0000
0000
0000
0000
0000
0000
0000
0000
0000
0000
0000
0000
0000
0000
0000
0000
0000
0000
0000
0000
0000
0000
1000
0000
0000
0000
0000
0000
0000
0000
0000
0000
0000
0000
0000
0000
0000
0000
0000
0000
0000
0000
0000
0000
0000
0000
0010
0000
0000
0000
0000
0000
0000
0000
0000
0000
0000
0000
0000
0000
0000
0000
0000
0000
0000
0000
0000
0000
0000
0000
0220
0330
0000
0000
0000
0000
0000
0000
0000
0000
0000
0000
0000
0000
0000
0000
0000
0000
0000
0000
0000
0000
0000
0000
2002
3003
0000
0000
0000
0000
0000
0000
0000
0000
0000
0000
0000
0000
0000
0000
0000
0000
0000
0000
0000
0000
0000
0000
0220
0330
0000
0000
0000
0000
0000
0000
0000
0000
0000
0000
0000
0000
0000
0000
0000
0000
0000
0000
0000
0000
0000
0000
0100
0000
0000
0000
0000
0000
0000
0000
0000
0000
0000
0000
0000
0000
0000
0000
0000
0000
0000
0000
0000
0000
0000
0000
,
0010
1000
0100
0001
1000
0000
1000
0010
0001
0000
0001
0100
0010
0000
0010
1000
,
0100
0000
0100
1000
0001
0100
0010
0001
0010
1000
0100
0010
0110
0000
0100
0000
,
1000
0010
0100
0100
1001
0100
0010
0100
,
1010
0101
0000
0011
0001
0010
0100
1000
,
0010
0000
0110
0000
0000
0000
0001
0010
0100
0000
0100
1000
0001
0100
1000
0100
,
0001
0000
0000
0000
0000
0000
0000
0000
0000
0000
0000
0000
0010
0000
0000
0000
0000
0000
0000
0000
0000
0000
0000
0000
0200
0300
0000
0000
0000
0000
0000
0000
0000
0000
0000
0000
0000
0000
0000
0000
0000
0000
0000
0000
0000
0000
0000
0000
0220
0330
0000
0000
0000
0000
0000
0000
0000
0000
0000
0000
0000
0000
0000
0000
0000
0000
0000
0000
0000
0000
0000
0000
1001
0000
0000
0000
0000
0000
0000
0000
0000
0000
0000
0000
0000
0000
0000
0000
0000
0000
0000
0000
0000
0000
0000
0000
2002
0000
0000
0000
0000
0000
0000
0000
0000
0000
0000
0000
0000
0000
0000
0000
0000
0000
0000
0000
0000
0000
0000
0000
3003
0000
0000
0000
0000
0000
0000
0000
0000
0000
0000
0000
0000
0000
0000
0000
0000
0000
0000
0000
0000
0000
0000
0000
0001
0000
0000
0000
0000
0000
0100
0000
0000
0000
0000
0000
0001
0000
0000
0000
0000
0000
0100
0000
0000
0000
0000
0000
0001
0000
0000
0000
0000
0000
0100
0000
0000
0000
0000
0000
0001
0000
0000
0000
0000
0000
0100
0000
0000
0000
0000
0000
,
0002
0000
0000
0000
1003
0000
0000
0000
0000
0000
0001
0000
0010
0100
0010
0100
1000
0000
0100
0000
0010
0000
0100
0000
1000
0000
0001
0100
0001
0000
0100
0000
,
1000
0000
0000
0000
0100
0000
0000
0000
0001
0000
0010
0000
0100
0000
1000
0100
1000
0000
0001
0100
0001
1000
0010
0100
0001
0000
0010
0100
0010
0000
0100
0000
,
2000
0000
0000
0000
3001
0000
0000
0000
0000
0000
1000
0000
0100
0000
0010
0000
0001
0000
0010
0000
0100
0000
1000
0000
0001
0100
0001
0100
0001
0000
1000
0000
,
0001
0000
0000
0000
0000
0000
0010
0000
0000
0000
0000
0000
0000
0000
0000
0000
0000
0000
0010
0000
0000
0000
0000
0000
0100
0000
0000
0000
0000
0000
0000
0000
0000
0000
0000
0000
0010
0000
0000
0000
0000
0000
0000
0000
0000
0000
0000
0000
0001
0000
0000
0000
0000
0000
1000
0000
0000
0000
0000
0000
0000
0000
0000
0000
0000
0000
1000
0000
0000
0000
0000
0000
0010
0000
0000
0000
0000
0000
0000
0000
0000
0000
0000
0000
0100
0000
0000
0000
0000
0000
0000
0000
0000
0000
0000
0000
0001
0000
0000
0000
0000
0000
0000
0000
0000
0000
0000
0000
0010
0000
0000
0000
0000
0000
0100
0000
0000
0000
0000
0000
0010
0000
0000
0000
0000
0000
0000
0000
0000
0000
0000
0000
0220
0330
0000
0000
0000
0000
0000
0000
0000
0000
0000
0000
1000
0000
0000
0000
0000
0000
0000
0000
0000
0000
0000
0000
0100
0000
0000
0000
0000
0000
0000
0000
0000
0000
0000
0000
0010
0000
0000
0000
0000
0000
0000
0000
0000
0000
0000
0000
0100
0000
0000
0000
0000
0000
0000
0000
0000
0000
0000
0000
,
1000
0100
0000
1001
0000
0110
0000
0010
0100
0010
1000
0001
0000
1000
0001
0010
,
0001
0010
0100
0010
0000
0110
0000
0100
1000
0001
0010
0100
1000
0000
0100
0000
,
0001
0100
1000
0100
0110
1001
0001
0100
,
1000
0000
0100
0000
0001
0000
0100
0000
0110
0000
1001
0000
1000
0100
0010
0100
,
1000
0000
0000
0000
0000
0000
0000
0000
0000
0000
0000
0000
0001
0000
0000
0000
0000
0000
0000
0000
0000
0000
0000
0000
0010
0000
0000
0000
0000
0000
0000
0000
0000
0000
0000
0000
0100
0000
0000
0000
0000
0000
0000
0000
0000
0000
0000
0000
0010
0000
0000
0000
0000
0000
0000
0000
0000
0000
0000
0000
0001
0000
0000
0000
0000
0000
0000
0000
0000
0000
0000
0000
1000
0000
0000
0000
0000
0000
0000
0000
0000
0000
0000
0000
0100
0000
0000
0000
0000
0000
0000
0000
0000
0000
0000
0000
0010
0000
0000
0000
0000
0000
0000
0000
0000
0000
0000
0000
0001
0000
0000
0000
0000
0000
0000
0000
0000
0000
0000
0000
0022
0033
0000
0000
0000
0000
0000
0000
0000
0000
0000
0000
0000
0000
0000
0000
0000
0000
0000
0000
0000
0000
0000
0000
2200
3300
0000
0000
0000
0000
0000
0000
0000
0000
0000
0000
0000
0000
0000
0000
0000
0000
0000
0000
0000
0000
0000
0000
0101
0000
0000
0000
0000
0000
0000
0000
0000
0000
0000
0000
0000
0000
0000
0000
0000
0000
0000
0000
0000
0000
0000
0000
,
1001
0010
0100
0010
0110
0100
0110
0010
,
0110
0000
1001
0000
0010
0100
0010
0000
0000
0000
1000
0001
1000
0000
0100
0000
,
0011
0000
0010
0001
0010
0100
1000
0100
0010
0000
0010
0001
1000
0000
1000
0010
,
0100
0000
0100
0001
1000
0000
1010
0000
0000
0000
1001
0000
0001
0000
0010
0000
,
0100
0000
0001
0100
0010
0000
0001
0000
1000
0000
0010
0001
1000
0000
0100
0000
,
0010
0000
1000
0001
0010
0000
0100
0000
0001
0000
0100
1000
0010
0000
0100
0001
,
0010
0000
0100
1000
0010
0000
0110
0000
0000
0000
0010
0000
1000
0000
0010
0000
,
1000
0000
0001
0000
0010
0000
0110
0000
0100
1000
0100
1000
0001
0100
0001
0100
,
0010
0100
1000
0100
0001
0010
0100
0010
2000
0000
3010
0000
0001
0000
0100
0000
,
0010
0000
0000
0000
0000
0000
0000
0000
0000
0000
0000
0000
0000
0000
0000
0000
0000
0000
0000
0000
0000
0000
0000
0000
1000
0000
0000
0000
0000
0000
0000
0000
0000
0000
0000
0000
0000
0000
0000
0000
0000
0000
0000
0000
0000
0000
0000
0000
2002
3003
0000
0000
0000
0000
0000
0000
0000
0000
0000
0000
0000
0000
0000
0000
0000
0000
0000
0000
0000
0000
0000
0000
0220
0330
0000
0000
0000
0000
0000
0000
0000
0000
0000
0000
0000
0000
0000
0000
0000
0000
0000
0000
0000
0000
0000
0000
2002
3003
0000
0000
0000
0000
0000
0000
0000
0000
0000
0000
0000
0000
0000
0000
0000
0000
0000
0000
0000
0000
0000
0000
0110
0000
0000
0000
0000
0000
0000
0000
0000
0000
0000
0000
0000
0000
0000
0000
0000
0000
0000
0000
0000
0000
0000
0000
0010
0000
0000
0000
0000
0000
0000
0000
0000
0000
0000
0000
0000
0000
0000
0000
0000
0000
0000
0000
0000
0000
0000
0000
1000
0000
0000
0000
0000
0000
0000
0000
0000
0000
0000
0000
0000
0000
0000
0000
0000
0000
0000
0000
0000
0000
0000
0000
,
0100
0001
0101
0100
1000
0010
0011
0010
,
1010
0101
0011
1100
0110
0001
0010
0100
,
1100
0000
1000
0100
0001
0000
0100
0000
1001
0000
0001
0100
1000
0000
0100
0000
,
1001
0000
0001
0010
1000
0000
0001
0100
0010
0000
0100
1000
0001
0000
0101
0000
,
0001
0100
0010
1000
0010
0001
0010
0100
0010
1000
0100
0001
0100
1000
1100
0000
,
0000
0000
0011
0000
0110
0000
1100
0000
1001
0000
0001
0100
0010
0000
0100
0000
,
0210
0301
1020
0000
0230
1300
0011
2010
,
0000
0000
0020
0030
0002
0003
3200
0300
0012
0000
0020
0030
2000
3000
0203
0300
,
0110
0001
0021
0000
0230
1000
0310
0012
,
0000
0000
0020
0030
2000
3000
0203
0300
2100
0000
0020
0030
0002
0003
3200
0300
,
0120
0000
2030
0100
3020
0001
0130
0120
,
0000
0000
2000
3000
0200
0300
0032
0003
0210
0000
0002
0003
0020
0030
2300
3000
,
1010
0100
0102
0000
0023
0100
1030
1020
,
0130
0101
0110
1010
1100
0110
0011
1001
,
0120
0000
0130
0000
0010
1000
0001
0000
0010
0001
0100
0000
1000
0010
0100
0000
,
2020
3030
0220
0330
2020
3030
0001
0000
0022
0033
0220
0330
0022
0033
1000
0000
,
0010
0100
0001
0000
1000
0100
0010
0000
0100
1000
0001
0000
0100
0010
0100
0000
,
0202
0303
2002
3003
0202
0303
1000
0000
2200
3300
2002
3003
2200
3300
0001
0100
,
0010
1000
0100
0010
0001
1000
0010
0100
0001
1000
0100
0010
0001
0100
0020
0000
,
0200
0300
2000
3000
0230
0301
0020
0000
0200
0300
0002
0003
0230
0310
0001
1000
,
0010
0100
0001
0100
0010
1000
0001
0010
1000
0001
0100
1000
1010
0000
0000
0000
,
0110
0000
0000
0000
0010
0100
1001
0000
0000
0000
0000
0000
0000
0000
0000
0000
;
