#VERSION:0.83;
#TITLE:アナタサマ;
#SUBTITLE:;
#ARTIST:かいりきベア feat.flower;
#TITLETRANSLIT:Anatasama;
#SUBTITLETRANSLIT:;
#ARTISTTRANSLIT:Kairiki Bear feat.flower;
#GENRE:POP;
#CREDIT:;
#MUSIC:Anatasama.ogg;
#BANNER:Anatasama.png;
#BACKGROUND:Anatasama-bg.png;
#CDTITLE:;
#SAMPLESTART:1.421;
#SAMPLELENGTH:9.947;
#SELECTABLE:YES;
#OFFSET:1.146;
#BPMS:0.000=187.000;
#STOPS:;
#BGCHANGES:3.250=Anatasama.avi=1.000=0=0=0=StretchNoLoop====,
99999.000=-nosongbg-=1.000=0=0=0=StretchNoLoop====
;
#FGCHANGES:;

//--------------- dance-single - ----------------
#NOTEDATA:;
#STEPSTYPE:dance-single;
#DESCRIPTION:;
#DIFFICULTY:Easy;
#METER:11;
#RADARVALUES:0,0,0,0,0;
#NOTES:
0000
0000
0000
0000
,
0000
0000
0000
0000
,
1001
0000
0110
0000
1001
0000
0001
0100
,
0000
0100
0010
0000
1000
0000
1100
0000
,
0001
0000
0001
0000
1000
0100
0010
0000
,
0011
1100
1002
0103
,
1010
0000
0011
0000
1001
0000
1000
0010
,
0000
0100
0000
0100
0001
0000
1000
0000
,
0002
0023
0230
1300
,
1001
0110
1002
0103
,
0010
0000
0010
0000
1000
0000
1000
0100
,
0000
1000
0001
1000
0001
0000
0101
0000
,
0000
0010
0010
0000
1000
0000
0001
0000
,
0011
0110
2100
3010
,
0100
0000
0100
0000
0001
0000
0001
1000
,
0000
1000
0100
0010
0001
0000
1001
0000
,
0000
0100
0100
0000
0010
0000
1000
0000
,
1010
0110
0102
0013
,
0011
0101
0011
1010
,
1100
1020
0130
0101
,
1100
0101
0011
1010
,
0012
1003
1010
0101
,
1010
0011
1100
0012
,
0103
0001
0001
1000
,
1000
0010
0100
0010
,
1001
0100
0010
0200
,
0310
1010
0101
1010
,
1000
0001
0000
0001
0010
0000
0210
0000
,
1300
0010
0010
0100
,
0001
1001
0110
1002
,
0103
0011
1100
0011
,
0001
1000
0000
1000
0010
0000
0200
0000
,
0301
0010
0010
0100
,
1000
1001
0110
1002
,
0103
0010
1001
0100
,
1000
0001
0000
0001
0010
0000
0100
0000
,
0100
0000
0000
1000
0001
0000
0100
0000
,
0110
0000
0010
1000
0001
1000
0100
0000
,
1001
0001
0110
1000
,
0010
0100
0000
0010
0000
0010
1000
0000
,
1100
0000
0000
1000
0001
0000
0010
0000
,
0110
0000
0010
0001
1000
0001
0100
0000
,
0110
0000
0010
1000
0010
1000
0100
0000
,
0010
0001
0010
0001
0100
0000
0110
0000
,
1000
0100
0010
0001
1000
0000
0001
0100
,
0010
1000
0001
0000
1001
0000
1000
0010
,
0100
0001
1000
0000
0001
0010
0100
1000
,
0001
1001
0100
0100
,
0010
0010
1000
0001
,
1002
1003
0010
0100
,
1001
0110
0002
0023
,
2030
3020
0032
0000
,
0000
0000
1003
0000
0001
0100
0001
0000
,
0102
0000
1003
0200
0000
1300
0001
0000
,
0021
0130
1100
1100
,
0101
0000
0101
0000
0001
0100
0010
0000
,
2001
0000
3100
0000
1000
0100
1000
0000
,
2100
0000
3001
0200
0000
0301
1000
0000
,
1020
0130
0101
0101
,
1100
1100
1001
0110
,
1002
0103
0001
0001
,
0101
1000
1000
1100
,
0001
0001
0011
1000
,
1000
0000
1010
0000
0010
0000
0100
0001
,
1000
0000
0001
0000
0010
0100
1000
0000
,
0010
0000
0100
0001
0010
0000
0200
0000
,
0000
0000
2300
0000
,
0000
3020
0000
0030
,
1001
1001
1001
1001
,
0020
0000
0130
0010
,
1001
0000
0110
0000
1001
0000
0001
0020
,
0000
0130
1000
0010
0100
0000
1001
0000
,
0011
0000
1100
0000
1000
0010
0100
0000
,
0101
1100
2001
3001
,
1000
0010
0100
0001
0010
0000
0100
2000
,
0000
3001
0100
1000
0200
0000
0301
0000
,
0011
0000
1100
0000
1000
0100
0010
0000
,
0002
2003
3002
0103
,
0010
0000
0010
0100
0001
0000
0001
1000
,
0000
1000
0000
1000
0010
0000
1001
0000
,
0101
0000
1010
0000
1000
0010
0100
0000
,
0101
1100
2001
3010
,
0010
1000
0100
0001
0100
0000
0100
2000
,
0000
3010
0100
1000
0200
0000
0302
0000
,
1003
0100
0010
0000
0100
0000
0010
0000
,
0110
1001
0210
0301
,
0001
0010
0100
0000
0010
0000
0100
0000
,
0110
1001
0120
1030
,
1010
1100
0102
0013
,
0011
1100
1010
0101
,
0002
0023
0230
2300
,
3002
0000
0203
0000
,
0320
0000
2030
3000
,
1001
1001
1001
1001
,
2002
0000
3000
0103
,
0010
0000
0010
1000
0001
0000
0001
0010
,
0000
0010
0000
0010
0100
0000
1100
0000
,
1001
0000
0110
0000
0001
0010
0100
0000
,
1000
0100
0010
2002
,
3003
0000
0000
0000
;

//--------------- dance-single - ----------------
#NOTEDATA:;
#STEPSTYPE:dance-single;
#DESCRIPTION:;
#DIFFICULTY:Medium;
#METER:14;
#RADARVALUES:0,0,0,0,0;
#NOTES:
0000
0000
0000
0000
,
0000
0000
0000
0000
,
1001
0000
0110
0000
1001
0000
0001
1000
,
0000
0001
0010
0100
1000
0000
1100
0000
,
0001
0000
1000
0010
1000
0000
0001
0100
0001
0000
0010
0000
1000
0000
0010
0000
,
0001
1000
0010
0100
0001
0000
1001
0000
,
0001
0100
0010
1000
0001
0000
1000
0001
,
0000
1000
0100
0010
0001
0000
0101
0000
,
0001
0100
0001
0100
0001
0100
0001
0000
1000
0000
0100
0000
0010
0000
0100
0000
,
1001
0110
1001
0010
,
1100
0000
0011
0000
1100
0000
0001
1000
,
0000
0001
0100
0001
0100
0000
0110
0000
,
1000
0000
0100
0010
0100
0000
0010
0000
0001
0000
0000
0000
1100
0000
0000
0000
,
0100
1000
0010
1000
0100
0000
1001
0000
,
0101
0000
1010
0000
0101
0000
1000
0010
,
0000
0100
0001
0010
0100
0000
0110
0000
,
0010
0000
0100
1000
0100
0000
0010
0000
0100
0000
0000
0000
0110
0000
0000
0000
,
0010
0001
0100
0001
0010
0000
0110
0000
,
0001
0010
0100
0010
0001
0000
1000
0010
,
0100
0010
1000
0000
1001
0000
0001
0100
,
0001
0100
1000
0000
0001
0010
0001
0010
,
1000
0000
1001
0000
1000
0100
1000
0100
,
0001
0000
1000
0010
1000
0010
0001
0000
,
1001
0000
1000
0010
0100
0010
1000
0001
,
0010
0100
0010
0001
1000
0001
0100
0000
,
1001
0000
0001
1000
0100
1000
0001
0000
,
0110
0000
1000
0100
0001
0100
1000
0000
,
1000
0002
0000
0103
1000
0100
0001
0000
,
1010
0000
0000
0000
1000
0000
0001
0010
0001
0000
1000
0100
1000
0000
0100
0000
,
0010
0001
0010
0100
1000
0010
0100
0000
,
1001
0000
0001
0010
1000
0010
0001
0000
,
0001
0000
2000
0000
0000
0000
3001
0100
1000
0000
0100
0000
0010
0000
0000
0000
,
0110
0000
0000
0000
0010
1000
0010
1000
0010
1000
0010
0000
0100
0000
0001
0000
,
0010
0100
1100
0000
0101
0000
1001
0000
,
0110
0010
1001
0100
,
1000
0001
0000
0001
0010
0100
1000
0000
,
1010
0000
0000
0000
0001
0000
0100
0010
0100
0000
0010
0000
1000
0000
0000
0000
,
1100
0000
0100
0010
0001
0010
0100
0000
,
1001
0001
0110
1000
,
0010
0100
0000
0100
0001
0010
0100
0000
,
0011
0000
0000
0000
0001
0000
0010
0100
0010
0000
0100
0000
1000
0000
0000
0000
,
1100
0000
1000
0010
0100
0001
0100
0000
,
0110
0000
0010
1000
0100
0010
0100
0000
,
0010
0001
0100
0010
0100
0000
0110
0000
,
1000
0100
0001
1000
0010
0000
0001
0100
,
1000
0001
0010
0000
0110
0000
1000
0001
,
1000
0001
1100
0000
0001
1000
0001
1000
,
0101
0000
1001
0000
1000
0100
0010
0100
,
1000
0000
0100
0000
0001
0000
0100
0000
1000
0000
0001
0100
0001
0000
1000
0100
,
1000
0000
1001
0000
0010
0010
0100
0100
,
1001
0110
0101
1100
,
1010
0000
0000
0000
0011
0000
0000
0000
0110
0000
0000
0000
0010
0100
0010
0100
,
0010
0000
1001
0000
0001
0100
1000
0100
,
0002
0000
1000
2003
0000
3100
0001
0100
,
1000
0000
0000
0000
1100
0000
0000
0000
0001
0000
1000
0010
1000
0000
0001
0100
,
0001
0010
0100
0010
0001
1000
0100
0010
,
0001
0000
1001
0000
1000
0010
0001
0010
,
2000
0000
0001
3002
0000
0013
1000
0010
,
0001
0000
0000
0000
0110
0000
0000
0000
0010
0001
0010
0001
0010
0001
0010
0000
,
0100
1000
0100
0010
0011
0000
1100
0000
,
1001
0000
0110
0000
0001
0100
0001
0100
,
0010
0000
1000
0100
1000
0100
0010
0000
,
0001
0010
0001
0010
0100
0000
1100
0100
,
0110
0100
0101
0000
1000
0010
0100
0010
,
1000
0000
0001
0010
0100
0010
0001
0000
,
1000
0100
0001
0100
2000
0000
3001
0100
,
0001
0100
0001
0000
1000
0100
1000
0100
,
1000
0000
0001
0100
0001
0100
0001
0000
,
1001
1001
1001
1001
,
0010
0100
0010
0100
0010
0000
0000
0000
1000
0000
0001
0010
0100
0000
0000
0000
,
0110
0000
1001
0000
0110
0000
0100
0002
,
0000
1003
0100
0010
0001
0000
1001
0000
,
0001
0000
1000
0010
0100
0000
0001
0100
0010
0000
1000
0000
0100
0000
0010
0000
,
0100
1000
0001
0100
1001
0000
1001
0000
,
1000
0010
0100
0001
1000
0000
0001
0020
,
0000
0000
0130
1000
0001
0000
0100
0000
0010
0000
0000
0000
0101
0000
0000
0000
,
0001
0010
0100
0010
0001
0010
0100
0000
1000
0000
0100
0000
0010
0000
0100
0000
,
1000
0010
0001
0010
1000
0000
1001
0000
,
0001
0100
0010
0100
2000
0000
3100
0002
,
0000
0013
1000
0010
0100
0000
1001
0000
,
0001
0000
1000
0001
0100
0000
0001
1000
0100
0000
0010
0000
0001
0000
1000
0000
,
0001
0000
1000
0001
0010
0000
0001
1000
0010
0000
0000
0000
1001
0000
0000
0000
,
1000
0000
0001
0100
0010
0000
1000
0100
0020
0000
0000
0000
0031
0000
2000
0000
,
0000
0000
3100
0010
0100
0000
0001
0000
0200
0000
0000
0000
2300
0000
0000
0000
,
3010
0100
0010
0100
0010
0100
0010
0000
1000
0000
0001
1000
0100
0000
0010
0000
,
0110
1001
0110
1001
,
0001
0100
0001
0100
0001
0100
0001
0000
1000
0000
0001
0010
0100
0000
0010
0000
,
0110
1001
0110
1001
,
0011
0101
1100
1010
,
0011
1100
1010
0101
,
1000
0010
0001
1000
0100
0001
0010
1000
,
0002
0000
0203
0000
,
2300
0000
3020
0030
,
1001
1001
1001
1001
,
0001
1000
0001
1000
0001
1000
0001
1000
0002
0000
0000
0000
0103
0000
0000
0000
,
0001
0010
0100
1000
0001
0000
0001
1000
,
0000
1000
0010
0100
0001
0000
0101
0000
,
0001
0000
0010
0100
0010
0000
1000
0000
0001
0000
0100
0000
1000
0000
0010
0000
,
0100
0001
0010
0100
1000
0000
2002
0000
,
3003
0000
0000
0000
;

//--------------- dance-single - ----------------
#NOTEDATA:;
#STEPSTYPE:dance-single;
#DESCRIPTION:;
#DIFFICULTY:Hard;
#METER:18;
#RADARVALUES:0,0,0,0,0;
#OFFSET:1.146;
#BPMS:0.000=187.000;
#NOTES:
0000
0000
0000
0000
,
0000
0000
0000
0000
,
0110
0000
0100
0000
1001
0000
0010
0000
0110
0000
0000
0000
0001
1000
0200
0000
,
0000
0000
0310
0100
1000
0000
0001
0000
1100
0000
0000
0000
2001
0000
0000
0000
,
3010
0000
0100
0001
0100
0000
0010
0100
0010
0000
0100
1000
0100
0010
0100
0001
,
1000
0000
0100
0010
0100
0000
1000
0000
1100
0000
0001
0000
0101
0000
0000
0000
,
1001
0000
0001
0100
0010
0000
0100
0001
1000
0000
0100
0000
0010
0000
0102
0000
,
0000
0000
1003
0010
0100
0000
0010
1000
0001
0000
0010
0000
1100
0000
0000
0000
,
0001
0100
0010
0100
0001
0100
0010
1000
0001
0010
0100
0010
0001
0010
0100
1000
,
1001
0001
0110
0100
1001
0000
0110
0000
,
1010
0000
0101
0000
1010
0000
0101
1000
,
0000
1000
0011
0100
1100
0000
1001
0000
,
1001
0000
0001
1000
0010
0000
0100
0000
0110
0000
0010
1000
0001
0000
0010
0000
,
0001
0010
0100
0010
0001
1000
0100
0010
0001
0000
0100
0000
1001
0000
0000
0000
,
0011
0000
1100
0000
0011
0000
1100
0001
,
0000
0001
1010
0100
0101
0000
1001
0000
,
1001
0000
1000
0001
0010
0000
0110
0000
0100
0010
0001
0100
0010
0100
0001
0010
,
0100
0000
1000
0001
0100
0000
0100
0001
1000
0000
0010
0000
0110
0000
0000
0000
,
0101
0000
0001
0100
0010
0000
0010
0100
0001
0000
0000
0000
0011
0000
0001
0010
,
0100
0000
0100
0010
0001
0000
0000
0000
1001
0000
0000
0000
1100
0000
1000
0100
,
0010
0000
0010
0100
1000
0000
0000
0000
1010
0000
1000
0010
0100
0000
0100
0010
,
1000
0000
0000
0000
1001
0000
0000
0000
0101
0000
0100
0001
0010
0000
0010
0001
,
0100
0000
0000
0000
1010
0000
0010
1000
0100
0000
0100
1000
0010
0000
0000
0000
,
0110
0000
0001
0100
0001
0100
0010
1000
,
0010
0000
1000
0000
0100
0010
1000
0010
0100
0010
1000
0010
0001
0000
0000
0000
,
1001
0000
0001
0000
0100
0010
0001
0010
0100
0010
0001
0010
1000
0000
0100
0000
,
0110
0000
0000
0000
1001
0000
1000
0100
0010
0000
0100
1000
0001
0000
0100
0010
,
1000
0000
2001
0000
0000
0000
3001
0010
0100
0000
0010
0001
1000
0000
0010
0000
,
0110
0000
0000
0000
0001
0100
0010
0100
0001
0100
0010
0100
0001
0010
0100
0010
,
0001
0010
0100
0010
0001
0100
1000
0001
0010
1000
0100
0010
0001
0000
1000
0000
,
1001
0000
0000
0000
1001
0000
0001
0100
0010
0000
0100
0001
1000
0000
0100
0010
,
0001
0000
1002
0000
0000
0000
1003
0010
0100
0000
0010
1000
0001
0000
0010
0000
,
0110
0000
0000
0000
1000
0100
0010
0100
1000
0100
0010
0100
1000
0010
0100
0010
,
1000
0010
0100
0010
1001
0000
1000
0000
0110
0000
0010
0000
1001
0000
0000
0000
,
0110
0101
1010
0101
,
1010
0001
0000
0001
0110
1000
1100
0000
,
0011
0000
0000
0000
1001
0000
1000
0001
0010
0000
0110
0000
0100
0000
1000
0001
,
0100
0000
0000
0000
0110
0000
0010
1000
0001
0000
0010
0001
1000
0000
0010
0000
,
1001
0000
1000
0001
0100
0000
0000
0000
0110
0000
0000
0000
1001
0000
0000
0000
,
0110
1000
0000
0001
0110
1000
1001
0001
,
0110
0000
0000
0000
1001
0000
1000
0010
0100
0000
0110
0000
0010
0000
1000
0001
,
0010
0000
0100
0000
0110
0000
0010
0001
1000
0000
0010
1000
0001
0000
0100
0000
,
0110
0000
0000
0000
0101
0000
0010
0100
0001
0000
0010
0100
0001
0000
0000
0000
,
0110
0000
0010
0100
1000
0000
0010
0100
1000
0000
0000
0000
0110
0000
0000
0000
,
1001
0000
0001
0010
0100
0000
0001
0100
0010
0000
0000
0000
1001
0000
1000
0010
,
0100
0000
1000
0100
0010
0000
0000
0000
0110
0000
0000
0000
1001
0000
0001
0100
,
1000
0000
0001
0010
1000
0000
0000
0000
1001
0000
1000
0100
0001
0000
1000
0010
,
0001
0000
1001
0000
1000
0100
1000
0100
,
0001
0000
0100
0000
0001
0000
0100
0000
1000
0001
1000
0010
0100
1000
0001
0010
,
0100
0000
0001
0000
1001
0000
0000
0000
0001
1000
0001
0010
0100
0001
1000
0010
,
0100
1000
1001
0010
0110
0000
1001
0000
,
0110
0000
0000
0000
1001
0000
0000
0000
0110
0000
0000
0000
0001
1000
0100
1000
,
0001
0000
0000
0000
0110
0000
0000
0000
1001
0000
1000
0010
0100
0000
0010
1000
,
0001
0000
0010
0100
1000
0000
2001
0000
0000
0000
3001
0100
0010
0000
0100
0001
,
1000
0000
0100
0000
0110
0000
0000
0000
0001
0010
0100
0010
0001
0010
0100
0010
,
0001
0100
0010
0100
0001
0100
0010
0100
0001
0010
1000
0001
0100
1000
0010
0100
,
0001
0000
1000
0000
1001
0000
0000
0000
1001
0000
0001
0010
0100
0000
0010
0001
,
1000
0000
0010
0100
0001
0000
1002
0000
0000
0000
1003
0100
0010
0000
0100
1000
,
0001
0000
0100
0000
0110
0000
0000
0000
1000
0010
0100
0010
1000
0010
0100
0010
,
1000
0100
0010
0100
1000
0100
0010
0100
1001
0000
1000
0000
0110
0000
0100
0000
,
1001
0000
0110
0000
0100
1000
0011
1000
,
0011
0000
0100
0001
1010
0001
1010
0000
,
0010
1000
0101
1000
0101
0000
0010
0001
,
1100
0001
1100
0000
0010
1000
0101
1000
,
0011
0000
0100
0001
1100
0001
1010
0000
,
0100
0000
0000
0001
0000
0000
1000
0100
0010
0001
1000
0100
0020
0000
0000
0000
0000
0000
0031
0000
0000
0100
0000
0000
,
0001
0100
0001
0000
1000
0100
1000
0100
,
1000
0000
0001
0100
0001
0100
0001
0000
,
1001
1001
1001
1001
,
0001
0010
0100
1000
0010
0000
0000
0000
1000
0010
0100
0001
0020
0000
0000
0000
,
0130
0000
0010
0100
1001
0000
1000
0000
0110
0000
0000
0000
0110
0000
0002
0000
,
0000
0000
1003
0100
0010
0000
0100
0000
0110
0000
0010
0000
1001
0000
0000
0000
,
1000
0010
0100
0010
1000
0100
0010
0100
1000
0001
0100
0010
0100
0001
0010
0100
,
1000
0000
1000
0010
0100
0000
0100
0001
1000
0000
0100
0000
1001
0000
0000
0000
,
1001
0000
0001
0010
0100
0000
0010
0001
1000
0000
0010
0000
0100
0000
1020
0000
,
0000
0000
1030
0001
0010
0000
0100
1000
0010
0000
0100
0000
0101
0000
0000
0000
,
0001
0010
0100
0010
0001
0100
0010
0100
0001
1000
0100
0010
0100
1000
0010
0100
,
0001
0010
0100
1000
0001
0000
1001
0000
,
1000
0010
0100
0001
1000
0000
0001
1000
,
0000
0100
0010
0100
1000
0000
1001
0000
,
0001
0010
1000
0010
0001
1000
0100
0010
0001
1000
0010
0001
0010
1000
0001
0100
,
0010
1000
0001
0010
1000
0001
0100
1000
0001
0000
0100
0000
1001
0000
0000
0000
,
1000
0100
0010
0001
1000
0010
0100
0001
1000
0000
0001
0010
0100
0000
0120
0000
,
0000
0000
0031
0010
0100
1000
0001
0100
0010
1000
0001
0010
0200
0000
0000
0000
,
1300
0100
0001
0100
1000
0001
0010
1000
0010
0001
1000
0100
0001
0100
1000
0001
,
0110
1000
0110
0001
0110
0000
1001
0000
,
0001
0100
1000
0100
0001
1000
0010
0001
0010
1000
0001
0100
1000
0100
0001
1000
,
0110
0001
0110
1000
0110
0000
1001
0000
,
1001
0010
1001
0100
1001
0000
0110
0000
,
1100
0011
0101
1010
,
1100
0101
0011
1010
0011
0101
1100
1010
,
1001
0000
0101
0000
,
1010
0000
1100
0000
,
1001
1001
1001
1001
,
0001
1000
0001
1000
0001
1000
0001
1000
0001
0000
0100
0010
0100
0000
0000
0000
,
0101
1000
0100
0010
0001
0000
0001
1100
,
0000
0000
1000
0000
0100
0000
0010
0000
0001
0000
1000
0010
0110
0000
0000
0000
,
0101
0000
0001
0100
0110
0000
1000
0000
1100
0000
0001
0000
1010
0000
0010
0000
,
0200
1000
0010
0001
0310
0000
2002
0000
,
3003
0000
0000
0000
;

//--------------- dance-single - ----------------
#NOTEDATA:;
#STEPSTYPE:dance-single;
#DESCRIPTION:;
#DIFFICULTY:Challenge;
#METER:17;
#RADARVALUES:0,0,0,0,0;
#OFFSET:1.146;
#BPMS:0.000=187.000
,37.000=93.500
,37.500=187.000
,67.500=93.500
,68.000=187.000
,73.500=93.500
,74.000=187.000
,79.000=93.500
,79.500=187.000
,84.500=93.500
,85.000=187.000
,91.000=93.500
,92.000=187.000
,94.000=93.500
,95.000=187.000
,124.500=93.500
,125.000=187.000
,155.000=93.500
,155.500=187.000
,161.000=93.500
,161.500=187.000
,166.500=93.500
,167.000=187.000
,172.000=93.500
,172.500=187.000
,178.500=93.500
,179.000=187.000
,183.000=93.500
,186.250=46.750
,186.500=93.500
,187.000=187.000
,216.500=93.500
,217.000=187.000
,238.000=93.500
,239.500=46.750
,240.000=23.375
,240.500=187.000
,244.500=93.500
,245.500=187.000
,272.500=93.500
,278.000=187.000
,299.500=93.500
,300.000=187.000
,305.500=93.500
,306.000=187.000
,307.500=93.500
,308.000=187.000
,314.000=46.750
,316.000=187.000
,321.000=93.500
,327.500=46.750
,328.250=1496.000
;
#STOPS:8.000=0.160
,8.500=0.160
,35.000=0.160
,35.500=0.160
,68.000=0.160
,70.500=0.160
,73.000=0.160
,76.000=0.160
,78.500=0.160
,81.500=0.160
,84.000=0.160
,123.000=0.160
,123.500=0.160
,124.000=0.160
,155.500=0.160
,158.000=0.160
,160.500=0.160
,163.500=0.160
,166.000=0.160
,169.000=0.160
,171.500=0.160
,185.500=0.160
,215.000=0.160
,215.500=0.160
,216.000=0.160
,240.500=0.160
,241.000=0.160
,241.500=0.160
,242.000=0.160
,245.500=0.160
,246.000=0.160
,274.000=0.160
,277.750=0.160
,298.000=0.160
,298.500=0.160
,299.000=0.160
,304.000=0.160
,304.500=0.160
,305.000=0.160
,306.000=0.160
,306.500=0.160
,307.000=0.160
,308.000=0.160
,308.500=0.160
,309.000=0.160
,309.500=0.160
,316.000=0.160
,316.500=0.160
,317.000=0.160
,317.500=0.160
;
#DISPLAYBPM:46.750:187.000;
#NOTES:
0000
0000
0000
0000
,
0000
0000
0000
0000
,
0220
0330
0000
0000
0000
0000
0000
0000
0000
0000
0000
0000
0000
0000
0000
0000
0000
0000
0000
0000
0000
0000
0000
0000
0220
0330
0000
0000
0000
0000
0000
0000
0000
0000
0000
0000
0000
0000
0000
0000
0000
0000
0000
0000
0000
0000
0000
0000
1001
0000
0000
0000
0000
0000
0000
0000
0000
0000
0000
0000
0000
0000
0000
0000
0000
0000
0000
0000
0000
0000
0000
0000
0010
0000
0000
0000
0000
0000
0000
0000
0000
0000
0000
0000
0100
0000
0000
0000
0000
0000
0000
0000
0000
0000
0000
0000
0010
0000
0000
0000
0000
0000
0000
0000
0000
0000
0000
0000
0000
0000
0000
0000
0000
0000
0000
0000
0000
0000
0000
0000
1000
0000
0000
0000
0000
0000
0000
0000
0000
0000
0000
0000
0000
0000
0000
0000
0000
0000
0000
0000
0000
0000
0000
0000
0000
0000
0000
0000
0000
0000
0000
0000
0000
0000
0000
0000
0000
0000
0000
0000
0000
0000
0000
0000
0000
0000
0000
0000
0001
0000
0000
0000
0000
0000
0000
0000
0000
0000
0000
0000
0000
0000
0000
0000
0000
0000
0000
0000
0000
0000
0000
0000
,
0010
0000
0100
0000
1000
0000
0001
0100
0001
0000
0000
0000
1000
0000
0010
0100
,
0010
0000
1000
0010
1000
0000
0001
0010
0001
0000
0110
0000
1000
0000
0001
0100
,
0010
0000
0100
0000
0110
0000
0010
1000
0001
0000
0000
0000
0101
0000
0001
0100
,
0001
0000
1000
0000
1100
0000
0000
0000
0001
0000
1000
0000
0000
0000
1000
0010
,
1000
0000
0001
0000
0100
0000
0001
0010
0100
0000
0000
0000
1000
0100
0010
0100
,
1000
0000
0000
0000
0000
0000
0000
0000
0000
0000
0000
0000
0100
0000
0000
0000
0000
0000
0000
0000
0000
0000
0000
0000
0010
0000
0000
0000
0000
0000
0000
0000
0000
0000
0000
0000
0000
0000
0000
0000
0000
0000
0000
0000
0000
0000
0000
0000
0100
0000
0000
0000
0000
0000
0000
0000
0000
0000
0000
0000
0000
0000
0000
0000
0000
0000
0000
0000
0000
0000
0000
0000
1000
0000
0000
0000
0000
0000
0000
0000
0000
0000
0000
0000
0001
0000
0000
0000
0000
0000
0000
0000
0000
0000
0000
0000
0100
0000
0000
0000
0000
0000
0000
0000
0000
0000
0000
0000
0000
0000
0000
0000
0000
0000
0000
0000
0000
0000
0000
0000
0010
0000
0000
0000
0000
0000
0000
0000
0000
0000
0000
0000
0000
0000
0000
0000
0000
0000
0000
0000
0000
0000
0000
0000
0220
0330
0000
0000
0000
0000
0000
0000
0000
0000
0000
0000
0000
0000
0000
0000
0000
0000
0000
0000
0000
0000
0000
0000
2002
3003
0000
0000
0000
0000
0000
0000
0000
0000
0000
0000
0000
0000
0000
0000
0000
0000
0000
0000
0000
0000
0000
0000
,
1001
0000
0001
0100
0020
0000
0130
0000
0000
0000
1001
0000
0000
0000
0100
0000
,
0000
1001
0010
0000
1001
0100
1001
0100
,
0000
0000
1001
0000
0000
0000
0001
0000
1000
0010
0100
0000
0010
0000
1000
0000
,
0001
0010
0100
0000
0000
0000
1000
0000
0001
0100
0001
0000
1000
0100
1000
0000
,
0010
0000
0110
0000
0100
0001
1000
0000
0000
0000
0110
0000
0000
0000
1000
0000
,
0000
0110
0001
0000
1000
0001
1000
0110
,
0000
0000
1001
0000
0000
0000
1000
0000
0001
0100
0010
0000
0100
0000
0001
0000
,
1000
0100
0010
0000
0100
1000
0001
0000
0100
0001
1000
0000
0100
1000
0002
0000
,
0200
0300
0000
0000
0000
0000
0000
0000
0000
0000
0000
0000
0000
0000
0000
0000
0000
0000
0000
0000
0000
0000
0000
0000
0103
0000
0000
0000
0000
0000
0000
0000
0000
0000
0000
0000
0000
0000
0000
0000
0000
0000
0000
0000
0000
0000
0000
0000
0001
0000
0000
0000
0000
0000
0000
0000
0000
0000
0000
0000
0100
0000
0000
0000
0000
0000
0000
0000
0000
0000
0000
0000
0001
0000
0000
0000
0000
0000
0000
0000
0000
0000
0000
0000
0000
0000
0000
0000
0000
0000
0000
0000
0000
0000
0000
0000
1000
0000
0000
0000
0000
0000
0000
0000
0000
0000
0000
0000
0100
0000
0000
0000
0000
0000
0000
0000
0000
0000
0000
0000
2000
0000
0000
0000
0000
0000
0000
0000
0000
0000
0000
0000
0000
0000
0000
0000
0000
0000
0000
0000
0000
0000
0000
0000
3001
0000
0000
0000
0000
0000
0000
0000
0000
0000
0000
0000
0000
0000
0000
0000
0000
0000
0000
0000
0000
0000
0000
0000
1000
0000
0000
0000
0000
0000
0000
0000
0000
0000
0000
0000
0010
0000
0000
0000
0000
0000
0000
0000
0000
0000
0000
0000
,
1000
0000
0000
0000
0000
0000
0000
0000
0000
0000
0000
0000
0000
0000
0000
0000
0000
0000
0000
0000
0000
0000
0000
0000
0001
0000
0000
0000
0000
0000
0000
0000
0000
0000
0000
0000
0010
0000
0000
0000
0000
0000
0000
0000
0000
0000
0000
0000
0002
0000
0000
0000
0000
0000
0000
0000
0000
0000
0000
0000
0000
0000
0000
0000
0000
0000
0000
0000
0000
0000
0000
0000
0200
0300
0000
0000
0000
0000
0000
0000
0000
0000
0000
0000
0000
0000
0000
0000
0000
0000
0000
0000
0000
0000
0000
0000
0103
0000
0000
0000
0000
0000
0000
0000
0000
0000
0000
0000
0000
0000
0000
0000
0000
0000
0000
0000
0000
0000
0000
0000
0001
0000
0000
0000
0000
0000
0000
0000
0000
0000
0000
0000
0010
0000
0000
0000
0000
0000
0000
0000
0000
0000
0000
0000
0100
0000
0000
0000
0000
0000
0000
0000
0000
0000
0000
0000
0000
0000
0000
0000
0000
0000
0000
0000
0000
0000
0000
0000
1000
0000
0000
0000
0000
0000
0000
0000
0000
0000
0000
0000
0100
0000
0000
0000
0000
0000
0000
0000
0000
0000
0000
0000
,
0020
0000
0000
0000
0000
0000
0000
0000
0000
0000
0000
0000
0000
0000
0000
0000
0000
0000
0000
0000
0000
0000
0000
0000
0130
0000
0000
0000
0000
0000
0000
0000
0000
0000
0000
0000
0000
0000
0000
0000
0000
0000
0000
0000
0000
0000
0000
0000
1000
0000
0000
0000
0000
0000
0000
0000
0000
0000
0000
0000
0010
0000
0000
0000
0000
0000
0000
0000
0000
0000
0000
0000
0100
0000
0000
0000
0000
0000
0000
0000
0000
0000
0000
0000
0000
0000
0000
0000
0000
0000
0000
0000
0000
0000
0000
0000
0001
0000
0000
0000
0000
0000
0000
0000
0000
0000
0000
0000
0100
0000
0000
0000
0000
0000
0000
0000
0000
0000
0000
0000
0020
0000
0000
0000
0000
0000
0000
0000
0000
0000
0000
0000
0000
0000
0000
0000
0000
0000
0000
0000
0000
0000
0000
0000
0200
0300
0000
0000
0000
0000
0000
0000
0000
0000
0000
0000
0000
0000
0000
0000
0000
0000
0000
0000
0000
0000
0000
0000
0130
0000
0000
0000
0000
0000
0000
0000
0000
0000
0000
0000
0000
0000
0000
0000
0000
0000
0000
0000
0000
0000
0000
0000
,
0010
1000
0100
0000
0010
0001
0200
0000
0310
0000
0100
0001
0010
0000
0100
1000
,
0020
0000
0000
0000
0000
0000
0000
0000
0000
0000
0000
0000
0000
0000
0000
0000
0000
0000
0000
0000
0000
0000
0000
0000
0200
0300
0000
0000
0000
0000
0000
0000
0000
0000
0000
0000
0000
0000
0000
0000
0000
0000
0000
0000
0000
0000
0000
0000
0130
0000
0000
0000
0000
0000
0000
0000
0000
0000
0000
0000
0000
0000
0000
0000
0000
0000
0000
0000
0000
0000
0000
0000
0001
0000
0000
0000
0000
0000
0000
0000
0000
0000
0000
0000
0000
0000
0000
0000
0000
0000
0000
0000
0000
0000
0000
0000
1000
0000
0000
0000
0000
0000
0000
0000
0000
0000
0000
0000
0000
0000
0000
0000
0000
0000
0000
0000
0000
0000
0000
0000
1000
0000
0000
0000
0000
0000
0000
0000
0000
0000
0000
0000
0000
0000
0000
0000
0000
0000
0000
0000
0000
0000
0000
0000
0001
0000
0000
0000
0000
0000
0000
0000
0000
0000
0000
0000
0000
0000
0000
0000
0000
0000
0000
0000
0000
0000
0000
0000
0010
0000
0000
0000
0000
0000
0000
0000
0000
0000
0000
0000
0000
0000
0000
0000
0000
0000
0000
0000
0000
0000
0000
0000
,
0100
0000
0100
0000
1000
0000
0001
0100
0001
0000
1000
0010
2000
0000
0010
0000
,
3001
0000
0000
0000
0100
0000
0000
0000
0010
0000
0000
0000
1000
0000
0000
0000
0002
0000
1003
0100
1000
0000
0000
0000
0010
0000
0000
0000
0100
0000
0001
0000
,
1000
0000
0100
0010
0001
0000
1000
0010
0100
0000
0110
0000
0000
0000
0100
0001
,
0010
0000
0100
1000
0001
0000
1000
0000
1100
0000
0000
0000
0011
0000
0001
0010
,
0001
0000
1000
0100
1000
0000
0001
0010
0100
1000
0100
0010
0001
0000
1000
0010
,
0100
0000
0010
1000
0001
0000
0010
0000
0110
0000
0000
0000
0100
0000
0010
0001
,
1000
0000
0010
1000
0001
0000
0100
0000
0010
0000
1010
0000
0000
0000
0100
0001
,
1000
0000
0100
1000
0001
0000
0010
0000
0011
0000
0000
0000
0001
0010
0100
0010
,
0001
0000
0000
0000
0000
0000
0000
0000
0000
0000
0000
0000
0010
0000
0000
0000
0000
0000
0000
0000
0000
0000
0000
0000
0100
0000
0000
0000
0000
0000
0000
0000
0000
0000
0000
0000
0000
0000
0000
0000
0000
0000
0000
0000
0000
0000
0000
0000
1100
0000
0000
0000
0000
0000
0000
0000
0000
0000
0000
0000
0000
0000
0000
0000
0000
0000
0000
0000
0000
0000
0000
0000
1000
0000
0000
0000
0000
0000
0000
0000
0000
0000
0000
0000
0010
0000
0000
0000
0000
0000
0000
0000
0000
0000
0000
0000
0100
0000
0000
0000
0000
0000
0000
0000
0000
0000
0000
0000
0000
0000
0000
0000
0000
0000
0000
0000
0000
0000
0000
0000
0001
0000
0000
0000
0000
0000
0000
0000
0000
0000
0000
0000
0000
0000
0000
0000
0000
0000
0000
0000
0000
0000
0000
0000
0220
0330
0000
0000
0000
0000
0000
0000
0000
0000
0000
0000
0000
0000
0000
0000
0000
0000
0000
0000
0000
0000
0000
0000
2002
3003
0000
0000
0000
0000
0000
0000
0000
0000
0000
0000
0000
0000
0000
0000
0000
0000
0000
0000
0000
0000
0000
0000
,
0220
0330
0000
0000
0000
0000
0000
0000
0000
0000
0000
0000
0000
0000
0000
0000
0000
0000
0000
0000
0000
0000
0000
0000
0002
0000
0000
0000
0000
0000
0000
0000
0000
0000
0000
0000
0000
0000
0000
0000
0000
0000
0000
0000
0000
0000
0000
0000
1003
0000
0000
0000
0000
0000
0000
0000
0000
0000
0000
0000
0000
0000
0000
0000
0000
0000
0000
0000
0000
0000
0000
0000
0000
0000
0000
0000
0000
0000
0000
0000
0000
0000
0000
0000
0000
0000
0000
0000
0000
0000
0000
0000
0000
0000
0000
0000
1100
0000
0000
0000
0000
0000
0000
0000
0000
0000
0000
0000
0000
0000
0000
0000
0000
0000
0000
0000
0000
0000
0000
0000
0000
0000
0000
0000
0000
0000
0000
0000
0000
0000
0000
0000
0000
0000
0000
0000
0000
0000
0000
0000
0000
0000
0000
0000
0001
0000
0000
0000
0000
0000
0000
0000
0000
0000
0000
0000
0000
0000
0000
0000
0000
0000
0000
0000
0000
0000
0000
0000
0000
0000
0000
0000
0000
0000
0000
0000
0000
0000
0000
0000
0000
0000
0000
0000
0000
0000
0000
0000
0000
0000
0000
0000
,
0101
0000
0001
0000
0000
0000
0100
0001
1000
0000
0010
0000
1010
0000
0000
0000
,
1001
0000
0000
0000
0001
0000
0010
0100
0010
0000
0001
0000
1000
0000
0010
0100
,
0010
0000
0000
0000
0100
0000
0001
1000
0100
0000
0010
0001
1000
0000
0010
0000
,
0110
0000
0100
0001
0010
0000
0000
0000
1001
0000
0000
0000
0100
0000
0000
0000
,
1001
0000
0010
0000
0000
0000
0100
0001
1000
0000
0100
0000
0011
0000
0000
0000
,
1001
0000
0000
0000
0001
0000
1000
0100
0010
0000
1000
0010
0001
0000
0100
0010
,
1000
0000
0000
0000
0000
0000
0000
0000
0000
0000
0000
0000
0000
0000
0000
0000
0000
0000
0000
0000
0000
0000
0000
0000
0001
0000
0000
0000
0000
0000
0000
0000
0000
0000
0000
0000
0100
0000
0000
0000
0000
0000
0000
0000
0000
0000
0000
0000
1000
0000
0000
0000
0000
0000
0000
0000
0000
0000
0000
0000
0000
0000
0000
0000
0000
0000
0000
0000
0000
0000
0000
0000
0100
0000
0000
0000
0000
0000
0000
0000
0000
0000
0000
0000
0001
0000
0000
0000
0000
0000
0000
0000
0000
0000
0000
0000
1000
0000
0000
0000
0000
0000
0000
0000
0000
0000
0000
0000
0000
0000
0000
0000
0000
0000
0000
0000
0000
0000
0000
0000
0001
0000
0000
0000
0000
0000
0000
0000
0000
0000
0000
0000
0000
0000
0000
0000
0000
0000
0000
0000
0000
0000
0000
0000
2100
0000
0000
0000
0000
0000
0000
0000
0000
0000
0000
0000
0000
0000
0000
0000
0000
0000
0000
0000
0000
0000
0000
0000
0002
0003
0000
0000
0000
0000
0000
0000
0000
0000
0000
0000
0000
0000
0000
0000
0000
0000
0000
0000
0000
0000
0000
0000
,
3010
0000
0100
0001
1000
0000
1000
0001
0200
0000
0310
0000
0010
1000
0001
0000
,
0001
0000
0000
0000
0000
0000
0000
0000
0000
0000
0000
0000
1000
0000
0000
0000
0000
0000
0000
0000
0000
0000
0000
0000
0020
0000
0000
0000
0000
0000
0000
0000
0000
0000
0000
0000
0000
0000
0000
0000
0000
0000
0000
0000
0000
0000
0000
0000
2000
3000
0000
0000
0000
0000
0000
0000
0000
0000
0000
0000
0000
0000
0000
0000
0000
0000
0000
0000
0000
0000
0000
0000
0130
0000
0000
0000
0000
0000
0000
0000
0000
0000
0000
0000
0000
0000
0000
0000
0000
0000
0000
0000
0000
0000
0000
0000
0001
0000
0000
0000
0000
0000
0000
0000
0000
0000
0000
0000
0100
0000
0000
0000
0000
0000
0000
0000
0000
0000
0000
0000
0010
0000
0000
0000
0000
0000
0000
0000
0000
0000
0000
0000
0000
0000
0000
0000
0000
0000
0000
0000
0000
0000
0000
0000
0010
0000
0000
0000
0000
0000
0000
0000
0000
0000
0000
0000
0100
0000
0000
0000
0000
0000
0000
0000
0000
0000
0000
0000
0002
0000
0000
0000
0000
0000
0000
0000
0000
0000
0000
0000
0000
0000
0000
0000
0000
0000
0000
0000
0000
0000
0000
0000
,
1003
0000
0000
0000
0000
0000
0000
0000
0000
0000
0000
0000
0000
0000
0000
0000
0000
0000
0000
0000
0000
0000
0000
0000
1000
0000
0000
0000
0000
0000
0000
0000
0000
0000
0000
0000
0100
0000
0000
0000
0000
0000
0000
0000
0000
0000
0000
0000
0010
0000
0000
0000
0000
0000
0000
0000
0000
0000
0000
0000
0000
0000
0000
0000
0000
0000
0000
0000
0000
0000
0000
0000
0010
0000
0000
0000
0000
0000
0000
0000
0000
0000
0000
0000
0100
0000
0000
0000
0000
0000
0000
0000
0000
0000
0000
0000
2000
0000
0000
0000
0000
0000
0000
0000
0000
0000
0000
0000
0000
0000
0000
0000
0000
0000
0000
0000
0000
0000
0000
0000
0002
0003
0000
0000
0000
0000
0000
0000
0000
0000
0000
0000
0000
0000
0000
0000
0000
0000
0000
0000
0000
0000
0000
0000
3010
0000
0000
0000
0000
0000
0000
0000
0000
0000
0000
0000
0000
0000
0000
0000
0000
0000
0000
0000
0000
0000
0000
0000
0100
0000
0000
0000
0000
0000
0000
0000
0000
0000
0000
0000
0001
0000
0000
0000
0000
0000
0000
0000
0000
0000
0000
0000
,
0010
0000
0010
0001
0200
0000
0310
0000
0010
1000
0100
0000
0100
1000
0020
0000
,
0200
0300
0000
0000
0000
0000
0000
0000
0000
0000
0000
0000
0000
0000
0000
0000
0000
0000
0000
0000
0000
0000
0000
0000
1030
0000
0000
0000
0000
0000
0000
0000
0000
0000
0000
0000
0000
0000
0000
0000
0000
0000
0000
0000
0000
0000
0000
0000
0001
0000
0000
0000
0000
0000
0000
0000
0000
0000
0000
0000
0000
0000
0000
0000
0000
0000
0000
0000
0000
0000
0000
0000
1000
0000
0000
0000
0000
0000
0000
0000
0000
0000
0000
0000
0000
0000
0000
0000
0000
0000
0000
0000
0000
0000
0000
0000
0001
0000
0000
0000
0000
0000
0000
0000
0000
0000
0000
0000
0000
0000
0000
0000
0000
0000
0000
0000
0000
0000
0000
0000
0100
0000
0000
0000
0000
0000
0000
0000
0000
0000
0000
0000
0000
0000
0000
0000
0000
0000
0000
0000
0000
0000
0000
0000
0010
0000
0000
0000
0000
0000
0000
0000
0000
0000
0000
0000
0000
0000
0000
0000
0000
0000
0000
0000
0000
0000
0000
0000
0100
0000
0000
0000
0000
0000
0000
0000
0000
0000
0000
0000
0000
0000
0000
0000
0000
0000
0000
0000
0000
0000
0000
0000
,
0010
0000
1000
0000
0010
0100
0001
0000
0001
0010
0200
0000
0310
0000
0001
0000
,
0010
0000
0100
1000
0001
0000
0100
0010
0001
0000
1000
0100
0002
0000
0013
0000
,
0100
0000
0000
0000
0000
0000
0000
0000
0000
0000
0000
0000
0000
0000
0000
0000
0000
0000
0000
0000
0000
0000
0000
0000
0010
0000
0000
0000
0000
0000
0000
0000
0000
0000
0000
0000
0000
0000
0000
0000
0000
0000
0000
0000
0000
0000
0000
0000
0100
0000
0000
0000
0000
0000
0000
0000
0000
0000
0000
0000
0000
0000
0000
0000
0000
0000
0000
0000
0000
0000
0000
0000
2000
3000
0000
0000
0000
0000
0000
0000
0000
0000
0000
0000
0001
0000
0000
0000
0000
0000
0100
0000
0000
0000
0000
0000
0001
0000
0000
0000
0000
0000
0100
0000
0000
0000
0000
0000
0002
0000
0000
0000
0000
0000
0000
0000
0000
0000
0000
0000
2003
0000
0000
0000
0000
0000
0000
0000
0000
0000
0000
0000
0000
0000
0000
0000
0000
0000
0000
0000
0000
0000
0000
0000
3010
0000
0000
0000
0000
0000
0000
0000
0000
0000
0000
0000
0000
0000
0000
0000
0000
0000
0000
0000
0000
0000
0000
0000
1000
0000
0000
0000
0000
0000
0000
0000
0000
0000
0000
0000
0100
0000
0000
0000
0000
0000
0000
0000
0000
0000
0000
0000
,
0010
0000
0100
1000
0010
0000
0100
0010
1000
0000
1001
0000
0000
0000
0001
0010
,
0100
0000
0010
0001
0100
0000
0010
0000
0110
0000
0000
0000
0001
0000
1000
0100
,
0010
0000
0100
1000
0010
0000
0100
0010
1000
0100
0010
0001
0100
0000
0010
0100
,
0001
0000
0010
0100
0001
0000
0100
0000
1001
0000
0000
0000
1000
0000
0001
0100
,
0010
0000
0100
0001
0010
0000
0100
0010
0001
0000
1001
0000
0000
0000
1000
0010
,
0100
0000
0010
1000
0100
0000
0010
0000
0110
0000
0000
0000
0001
0010
1000
0010
,
0001
0000
0000
0000
0000
0000
0000
0000
0000
0000
0000
0000
0010
0000
0000
0000
0000
0000
0000
0000
0000
0000
0000
0000
0100
0000
0000
0000
0000
0000
0000
0000
0000
0000
0000
0000
0000
0000
0000
0000
0000
0000
0000
0000
0000
0000
0000
0000
1100
0000
0000
0000
0000
0000
0000
0000
0000
0000
0000
0000
0000
0000
0000
0000
0000
0000
0000
0000
0000
0000
0000
0000
1000
0000
0000
0000
0000
0000
0000
0000
0000
0000
0000
0000
0010
0000
0000
0000
0000
0000
0000
0000
0000
0000
0000
0000
0100
0000
0000
0000
0000
0000
0000
0000
0000
0000
0000
0000
0000
0000
0000
0000
0000
0000
0000
0000
0000
0000
0000
0000
0001
0000
0000
0000
0000
0000
0000
0000
0000
0000
0000
0000
0000
0000
0000
0000
0000
0000
0000
0000
0000
0000
0000
0000
2002
3003
0000
0000
0000
0000
0000
0000
0000
0000
0000
0000
0000
0000
0000
0000
0000
0000
0000
0000
0000
0000
0000
0000
0220
0330
0000
0000
0000
0000
0000
0000
0000
0000
0000
0000
0000
0000
0000
0000
0000
0000
0000
0000
0000
0000
0000
0000
,
2002
3003
0000
0000
0000
0000
0000
0000
0000
0000
0000
0000
0000
0000
0000
0000
0000
0000
0000
0000
0000
0000
0000
0000
2000
0000
0000
0000
0000
0000
0000
0000
0000
0000
0000
0000
0000
0000
0000
0000
0000
0000
0000
0000
0000
0000
0000
0000
3001
0000
0000
0000
0000
0000
0000
0000
0000
0000
0000
0000
0000
0000
0000
0000
0000
0000
0000
0000
0000
0000
0000
0000
0000
0000
0000
0000
0000
0000
0000
0000
0000
0000
0000
0000
0000
0000
0000
0000
0000
0000
0000
0000
0000
0000
0000
0000
1010
0000
0000
0000
0000
0000
0000
0000
0000
0000
0000
0000
0000
0000
0000
0000
0000
0000
0000
0000
0000
0000
0000
0000
0000
0000
0000
0000
0000
0000
0000
0000
0000
0000
0000
0000
0000
0000
0000
0000
0000
0000
0000
0000
0000
0000
0000
0000
1010
0000
0000
0000
0000
0000
0000
0000
0000
0000
0000
0000
0000
0000
0000
0000
0000
0000
0000
0000
0000
0000
0000
0000
0000
0000
0000
0000
0000
0000
0000
0000
0000
0000
0000
0000
0000
0000
0000
0000
0000
0000
0000
0000
0000
0000
0000
0000
,
1000
0011
0011
0001
,
1100
1100
1000
0101
,
0101
0100
1001
1001
,
0001
0110
0110
0010
,
1001
0000
0000
0000
0000
0000
0000
0000
0000
0000
0000
0000
0000
0000
0000
0000
0000
0000
0000
0000
0000
0000
0000
0000
0000
0000
0000
0000
0000
0000
0000
0000
0000
0000
0000
0000
0000
0000
0000
0000
0000
0000
0000
0000
0000
0000
0000
0000
1001
0000
0000
0000
0000
0000
0000
0000
0000
0000
0000
0000
0000
0000
0000
0000
0000
0000
0000
0000
0000
0000
0000
0000
0000
0000
0000
0000
0000
0000
0000
0000
0000
0000
0000
0000
0000
0000
0000
0000
0000
0000
0000
0000
0000
0000
0000
0000
0002
0003
0000
0000
0000
0000
0000
0000
0000
0000
0000
0000
0100
0000
0000
0000
0000
0000
0000
0000
0000
0000
0000
0000
0001
0000
0000
0000
0000
0000
0000
0000
0000
0000
0000
0000
0100
0000
0000
0000
0000
0000
0000
0000
0000
0000
0000
0000
0001
0000
0000
0000
0000
0000
0000
0000
0000
0000
0000
0000
0000
0000
0000
0000
0000
0000
0000
0000
0000
0000
0000
0000
2000
3000
0000
0000
0000
0000
0100
0000
0000
0000
0000
0000
1000
0000
0000
0000
0000
0000
0100
0000
0000
0000
0000
0000
,
1000
0000
0000
0000
0000
0000
0002
0003
0000
0100
0000
0000
0001
0000
0000
0100
0000
0000
0001
0000
0000
0000
0000
0000
2002
3003
0000
0000
0000
0000
0000
0000
0000
0000
0000
0000
0000
0000
0000
0000
0000
0000
0000
0000
0000
0000
0000
0000
2002
3003
0000
0000
0000
0000
0000
0000
0000
0000
0000
0000
0000
0000
0000
0000
0000
0000
0000
0000
0000
0000
0000
0000
2002
3003
0000
0000
0000
0000
0000
0000
0000
0000
0000
0000
0000
0000
0000
0000
0000
0000
0000
0000
0000
0000
0000
0000
2002
3003
0000
0000
0000
0000
0000
0000
0000
0000
0000
0000
0000
0000
0000
0000
0000
0000
0000
0000
0000
0000
0000
0000
0100
0000
0000
0000
0000
0000
0000
0000
0000
0000
0000
0000
0000
0000
0000
0000
0000
0000
0000
0000
0000
0000
0000
0000
0010
0000
0000
0000
0000
0000
0000
0000
0000
0000
0000
0000
0100
0000
0000
0000
0000
0000
0000
0000
0000
0000
0000
0000
0010
0000
0000
0000
0000
0000
0000
0000
0000
0000
0000
0000
0000
0000
0000
0000
0000
0000
0000
0000
0000
0000
0000
0000
,
0000
0000
0000
0000
0000
0000
0000
0000
0000
0000
0000
0000
0000
0000
0000
0000
0000
0000
0000
0000
0000
0000
0000
0000
2000
0000
0000
0000
0000
0000
0000
0000
0000
0000
0000
0000
3001
0000
0000
0000
0000
0000
0100
0000
0000
0000
0000
0000
0010
0000
0000
0000
0000
0000
0000
0000
0000
0000
0000
0000
0000
0000
0000
0000
0000
0000
0000
0000
0000
0000
0000
0000
2020
3030
0000
0000
0000
0000
0000
0000
0000
0000
0000
0000
0000
0000
0000
0000
0000
0000
0000
0000
0000
0000
0000
0000
0202
0303
0000
0000
0000
0000
0000
0000
0000
0000
0000
0000
0000
0000
0000
0000
0000
0000
0000
0000
0000
0000
0000
0000
1001
0000
0000
0000
0000
0000
0000
0000
0000
0000
0000
0000
0000
0000
0000
0000
0000
0000
0000
0000
0000
0000
0000
0000
0001
0000
0000
0000
0000
0000
0000
0000
0000
0000
0000
0000
0010
0000
0000
0000
0000
0000
0000
0000
0000
0000
0000
0000
0100
0000
0000
0000
0000
0000
0000
0000
0000
0000
0000
0000
0000
0000
0000
0000
0000
0000
0000
0000
0000
0000
0000
0000
,
1100
0000
0000
0000
1000
0100
0010
0000
0010
0001
1000
0000
0010
0000
0110
0000
,
0000
0000
0100
0000
0001
0010
0100
0000
0100
1000
0010
0000
0010
0100
0001
0010
,
1000
0001
0100
0000
0100
1000
0010
0000
0010
0100
0001
0000
1000
0000
1100
0000
,
0000
0000
0110
0000
0010
0001
1000
0000
1000
0010
0100
0000
0001
0000
0100
0000
,
1010
0000
0000
0000
0010
1000
0100
0000
0100
1000
0001
0000
0010
0000
1100
0000
,
0000
0000
0001
0010
1000
0010
0001
0010
1000
0010
0001
0100
0010
1000
0001
0000
,
0100
0000
0000
0000
0000
0000
0000
0000
0000
0000
0000
0000
0000
0000
0000
0000
0000
0000
0000
0000
0000
0000
0000
0000
0020
0000
0000
0000
0000
0000
0000
0000
0000
0000
0000
0000
1030
0000
0000
0000
0000
0000
0000
0000
0000
0000
0000
0000
0010
0000
0000
0000
0000
0000
0000
0000
0000
0000
0000
0000
1000
0000
0000
0000
0000
0000
0000
0000
0000
0000
0000
0000
0001
0000
0000
0000
0000
0000
0000
0000
0000
0000
0000
0000
0000
0000
0000
0000
0000
0000
0000
0000
0000
0000
0000
0000
2002
3003
0000
0000
0000
0000
0000
0000
0000
0000
0000
0000
1000
0000
0000
0000
0000
0000
0000
0000
0000
0000
0000
0000
0100
0000
0000
0000
0000
0000
0000
0000
0000
0000
0000
0000
1000
0000
0000
0000
0000
0000
0000
0000
0000
0000
0000
0000
0100
0000
0000
0000
0000
0000
0000
0000
0000
0000
0000
0000
0010
0000
0000
0000
0000
0000
0000
0000
0000
0000
0000
0000
0000
0000
0000
0000
0000
0000
0000
0000
0000
0000
0000
0000
0100
0000
0000
0000
0000
0000
0000
0000
0000
0000
0000
0000
,
1000
0000
0000
0000
0000
0000
0000
0000
0000
0000
0000
0000
0000
0000
0000
0000
0000
0000
0000
0000
0000
0000
0000
0000
0001
0000
0000
0000
0000
0000
0000
0000
0000
0000
0000
0000
0100
0000
0000
0000
0000
0000
0000
0000
0000
0000
0000
0000
0001
0000
0000
0000
0000
0000
0000
0000
0000
0000
0000
0000
1000
0000
0000
0000
0000
0000
0000
0000
0000
0000
0000
0000
0000
0000
0000
0000
0000
0000
0000
0000
0000
0000
0000
0000
0020
0030
0000
0000
0000
0000
0000
0000
0000
0000
0000
0000
0100
0000
0000
0000
0000
0000
0000
0000
0000
0000
0000
0000
0001
0000
0000
0000
0000
0000
0000
0000
0000
0000
0000
0000
0100
0000
0000
0000
0000
0000
0000
0000
0000
0000
0000
0000
0010
0000
0000
0000
0000
0000
0000
0000
0000
0000
0000
0000
1000
0000
0000
0000
0000
0000
0000
0000
0000
0000
0000
0000
0100
0000
0000
0000
0000
0000
0000
0000
0000
0000
0000
0000
0010
0000
0000
0000
0000
0000
0000
0000
0000
0000
0000
0000
0100
0000
0000
0000
0000
0000
0000
0000
0000
0000
0000
0000
,
1000
0000
1000
0010
0100
0000
0110
0000
0010
1000
0100
0010
0100
1000
0001
0100
,
0010
0000
0010
1000
0001
0000
0000
0000
0011
0000
0001
0010
0100
0000
0001
0100
,
1000
0000
0010
0000
0100
0000
1010
0000
0000
0000
1000
0010
0100
0000
1000
0100
,
0001
0000
0010
0000
1100
0000
0000
0000
1000
0010
0001
1000
0100
0001
1000
0100
,
0010
0000
0000
0000
0000
0000
0000
0000
0000
0000
0000
0000
0000
0000
0000
0000
0000
0000
0000
0000
0000
0000
0000
0000
0010
0000
0000
0000
0000
0000
0000
0000
0000
0000
0000
0000
0100
0000
0000
0000
0000
0000
0000
0000
0000
0000
0000
0000
1000
0000
0000
0000
0000
0000
0000
0000
0000
0000
0000
0000
0000
0000
0000
0000
0000
0000
0000
0000
0000
0000
0000
0000
0001
0000
0000
0000
0000
0000
0000
0000
0000
0000
0000
0000
0000
0000
0000
0000
0000
0000
0000
0000
0000
0000
0000
0000
0202
0303
0000
0000
0000
0000
0000
0000
0000
0000
0000
0000
0000
0000
0000
0000
0000
0000
0000
0000
0000
0000
0000
0000
2200
3300
0000
0000
0000
0000
0000
0000
0000
0000
0000
0000
0000
0000
0000
0000
0000
0000
0000
0000
0000
0000
0000
0000
0202
0303
0000
0000
0000
0000
0000
0000
0000
0000
0000
0000
0000
0000
0000
0000
0000
0000
0000
0000
0000
0000
0000
0000
2002
3003
0000
0000
0000
0000
0000
0000
0000
0000
0000
0000
0000
0000
0000
0000
0000
0000
0000
0000
0000
0000
0000
0000
,
0001
0010
1000
0001
0100
1000
0001
0100
0010
0000
0010
0100
0001
0000
0010
0000
,
2200
3300
0000
0000
0000
0000
0000
0000
0000
0000
0000
0000
0000
0000
0000
0000
0000
0000
0000
0000
0000
0000
0000
0000
0202
0303
0000
0000
0000
0000
0000
0000
0000
0000
0000
0000
0000
0000
0000
0000
0000
0000
0000
0000
0000
0000
0000
0000
2002
3003
0000
0000
0000
0000
0000
0000
0000
0000
0000
0000
0000
0000
0000
0000
0000
0000
0000
0000
0000
0000
0000
0000
0220
0330
0000
0000
0000
0000
0000
0000
0000
0000
0000
0000
0000
0000
0000
0000
0000
0000
0000
0000
0000
0000
0000
0000
0022
0033
0000
0000
0000
0000
0000
0000
0000
0000
0000
0000
0000
0000
0000
0000
0000
0000
0000
0000
0000
0000
0000
0000
2020
3030
0000
0000
0000
0000
0000
0000
0000
0000
0000
0000
0000
0000
0000
0000
0000
0000
0000
0000
0000
0000
0000
0000
2002
3003
0000
0000
0000
0000
0000
0000
0000
0000
0000
0000
0000
0000
0000
0000
0000
0000
0000
0000
0000
0000
0000
0000
0220
0330
0000
0000
0000
0000
0000
0000
0000
0000
0000
0000
0000
0000
0000
0000
0000
0000
0000
0000
0000
0000
0000
0000
,
0022
0033
0000
0000
0000
0000
0000
0000
0000
0000
0000
0000
0000
0000
0000
0000
0000
0000
0000
0000
0000
0000
0000
0000
2020
3030
0000
0000
0000
0000
0000
0000
0000
0000
0000
0000
0000
0000
0000
0000
0000
0000
0000
0000
0000
0000
0000
0000
2200
3300
0000
0000
0000
0000
0000
0000
0000
0000
0000
0000
0000
0000
0000
0000
0000
0000
0000
0000
0000
0000
0000
0000
0202
0303
0000
0000
0000
0000
0000
0000
0000
0000
0000
0000
0000
0000
0000
0000
0000
0000
0000
0000
0000
0000
0000
0000
1000
0000
0000
0000
0000
0000
0000
0000
0000
0000
0000
0000
0000
0000
0000
0000
0000
0000
0000
0000
0000
0000
0000
0000
0010
0000
0000
0000
0000
0000
0000
0000
0000
0000
0000
0000
0000
0000
0000
0000
0000
0000
0000
0000
0000
0000
0000
0000
0100
0000
0000
0000
0000
0000
0000
0000
0000
0000
0000
0000
0000
0000
0000
0000
0000
0000
0000
0000
0000
0000
0000
0000
0001
0000
0000
0000
0000
0000
0000
0000
0000
0000
0000
0000
0000
0000
0000
0000
0000
0000
0000
0000
0000
0000
0000
0000
,
1000
0010
0100
0001
2000
3200
0320
0031
,
2002
3003
0000
0000
0000
0000
0000
0000
0000
0000
0000
0000
0000
0000
0000
0000
0000
0000
0000
0000
0000
0000
0000
0000
0220
0330
0000
0000
0000
0000
0000
0000
0000
0000
0000
0000
0000
0000
0000
0000
0000
0000
0000
0000
0000
0000
0000
0000
2002
3003
0000
0000
0000
0000
0000
0000
0000
0000
0000
0000
0000
0000
0000
0000
0000
0000
0000
0000
0000
0000
0000
0000
0220
0330
0000
0000
0000
0000
0000
0000
0000
0000
0000
0000
0000
0000
0000
0000
0000
0000
0000
0000
0000
0000
0000
0000
0001
0000
0000
0000
0000
0000
0000
0000
0000
0000
0000
0000
1000
0000
0000
0000
0000
0000
0000
0000
0000
0000
0000
0000
0001
0000
0000
0000
0000
0000
0000
0000
0000
0000
0000
0000
1000
0000
0000
0000
0000
0000
0000
0000
0000
0000
0000
0000
0001
0000
0000
0000
0000
0000
0000
0000
0000
0000
0000
0000
1000
0000
0000
0000
0000
0000
0000
0000
0000
0000
0000
0000
0001
0000
0000
0000
0000
0000
0000
0000
0000
0000
0000
0000
1000
0000
0000
0000
0000
0000
0000
0000
0000
0000
0000
0000
,
0010
0000
0100
0001
2000
0000
3001
0010
0100
0010
0001
0000
1000
0010
0000
0010
,
1000
0000
0000
0000
0000
0000
0000
0000
0000
0000
0000
0000
0100
0000
0000
0000
0000
0000
0000
0000
0000
0000
0000
0000
0010
0000
0000
0000
0000
0000
0000
0000
0000
0000
0000
0000
0001
0000
0000
0000
0000
0000
1000
0000
0000
0000
0000
0000
0001
0000
0000
0000
0000
0000
0000
0000
0000
0000
0000
0000
0000
0000
0000
0000
0000
0000
0000
0000
0000
0000
0000
0000
1000
0000
0000
0000
0000
0000
0000
0000
0000
0000
0000
0000
0010
0000
0000
0000
0000
0000
0100
0000
0000
0000
0000
0000
0010
0000
0000
0000
0000
0000
0000
0000
0000
0000
0000
0000
1000
0000
0000
0000
0000
0000
0000
0000
0000
0000
0000
0000
0001
0000
0000
0000
0000
0000
0000
0000
0000
0000
0000
0000
0010
0000
0000
0000
0000
0000
0000
0000
0000
0000
0000
0000
0100
0000
0000
0000
0000
0000
0000
0000
0000
0000
0000
0000
1000
0000
0000
0000
0000
0000
0000
0000
0000
0000
0000
0000
0002
0003
0000
0000
0000
0000
0010
0000
0000
0000
0000
0000
0100
0000
0000
0000
0000
0000
1000
0000
0000
0000
0000
0000
,
0001
0220
0000
0000
0000
0000
0000
0000
0000
0000
0000
0000
0000
0000
0000
0000
,
0330
0000
0000
0000
;
