#TITLE:アマデウス;
#SUBTITLE:;
#ARTIST:いとうかなこ;
#TITLETRANSLIT:Amadeus;
#SUBTITLETRANSLIT:;
#ARTISTTRANSLIT:ito kanako;
#GENRE:ANIME;
#CREDIT:;
#MUSIC:Amadeus.ogg;
#BANNER:Amadeus.png;
#BACKGROUND:Amadeus-bg.png;
#CDTITLE:;
#SAMPLESTART:68.422;
#SAMPLELENGTH:12.034;
#SELECTABLE:YES;
#OFFSET:2.234;
#BPMS:0.000=88.500
,24.000=177.000
,52.000=88.500
,68.000=177.000
,100.000=88.500
,116.000=177.000
;
#STOPS:51.500=1.356
,145.500=1.017
;
#LASTBEATHINT:1.859121;
#BGCHANGES:1.375=Amadeus.avi=1.000=0=0=0=StretchNoLoop====,
99999.000=-nosongbg-=1.000=0=0=0=StretchNoLoop====
;
#FGCHANGES:;

//--------------- dance-single - ----------------
#NOTES:
     dance-single:
     :
     Hard:
     13:
     0,0,0,0,0:
0000
0000
0000
0000
,
2100
0000
0000
0000
0000
0000
3001
0100
0002
0000
0000
0023
0000
0000
0130
1000
,
0020
0000
0000
0230
0000
0000
0302
0000
2000
3003
1002
0000
0000
0000
0013
0001
,
2000
0000
0000
0000
0000
0000
0000
0000
0000
3002
0000
0000
0000
0000
0000
0000
0000
0000
0203
0000
0000
0000
0000
0000
0320
0000
0000
0000
0000
0000
2030
0000
0000
0000
0000
0000
3002
0000
0000
0000
2003
0000
0000
0000
3200
0000
0000
0000
,
0302
0000
0000
0000
0000
0000
0000
0000
0000
0000
0000
0000
0000
0000
0000
0000
0000
0000
0200
0000
0003
0000
0000
0000
0000
0000
0000
0000
0000
0000
0000
0000
0000
0000
0000
0000
2300
0000
0000
0000
0000
0000
0000
0000
0000
0000
0000
0000
0000
0000
0000
0000
0000
0000
0000
0000
0000
0002
0000
0000
0000
0000
0000
0000
0000
0000
0000
0000
0000
0000
0000
0000
0000
0000
0000
0000
0000
0000
0000
0000
0000
0000
0000
0000
0000
0000
0000
0000
0000
0000
0000
0000
0000
0000
0000
0000
,
0000
0000
0000
0000
0000
0000
0000
3003
0001
0010
0001
1000
0001
0010
0100
1000
,
0100
1000
0010
0100
0001
1000
0010
1010
,
0000
0101
0000
1100
0000
0000
0110
0000
,
1001
0001
1000
0100
1000
0001
1000
1010
,
0000
0011
0000
0101
0000
1100
0000
0000
,
2001
0000
0001
3200
0000
0310
0001
1000
,
0000
1001
0000
0011
0000
0001
0010
0100
,
1000
0000
0000
0000
0000
0000
0000
0000
0000
0000
0000
0000
0000
0000
0000
0000
0000
0000
0000
0000
0000
0000
0000
0000
0100
0000
0000
0000
0000
0000
0000
0000
0000
0000
0000
0000
0000
0000
0000
0000
0000
0000
0000
0000
0000
0000
0000
0000
0010
0000
0000
0000
0000
0000
0000
0000
0000
0000
0000
0000
0000
0000
0000
0000
0000
0000
0000
0000
0000
0000
0000
0000
0100
0000
0000
0000
0000
0000
0000
0000
0000
0000
0000
0000
0000
0000
0000
0000
0000
0000
0000
0000
0000
0000
0000
0000
1000
0000
0000
0000
0000
0000
0000
0000
0000
0000
0000
0000
0000
0000
0000
0000
0000
0000
0000
0000
0000
0000
0000
0000
0010
0000
0000
0000
0000
0000
0000
0000
0000
0000
0000
0000
0000
0000
0000
0000
0000
0000
0000
0000
0000
0000
0000
0000
2000
3000
0000
0000
0000
0000
0000
0000
0000
0000
0000
0000
0000
0000
0000
0000
0000
0000
0000
0000
0000
0000
0000
0000
2002
3003
0000
0000
0000
0000
0000
0000
0000
0000
0000
0000
0000
0000
0000
0000
0000
0000
0000
0000
0000
0000
0000
0000
,
0002
0000
0000
2003
0000
0000
3200
0000
0020
0330
0110
0000
0010
0001
1000
0000
,
1002
0000
0000
2003
0000
0000
3002
0000
0203
0000
0020
0330
0010
1000
0001
0000
,
2000
0000
0001
3001
0000
1000
0010
0100
1000
0000
0100
0001
0000
0000
1001
0000
,
1000
0100
1000
0100
0010
0001
0010
0001
0100
0010
0100
0001
1000
0100
0010
0100
,
1000
0100
0100
0001
1000
0100
0100
0001
,
1000
0010
1000
0010
0100
0001
1000
0000
,
0001
0100
0100
1000
0001
0100
0100
1000
,
0001
0100
1000
0100
0001
0010
0100
0000
,
1001
0000
0001
0100
0010
1000
0001
0100
,
0110
0000
0010
1000
0100
0010
0001
1000
,
1001
0000
0001
0100
0010
1000
0010
0100
,
0001
0000
0011
0000
1100
0000
1000
0001
,
1000
0000
1000
0001
0100
0000
0100
0010
1000
0000
1000
0100
0010
0001
0100
0010
,
1000
0000
1000
0100
0010
0000
0010
0001
0100
0000
0010
1000
0100
0010
0001
1000
,
0001
0000
0001
0010
0100
0000
1000
0010
0000
0010
0100
0000
0100
0001
0010
0100
,
1000
0000
1000
0001
0100
0000
0010
1000
0001
0000
0001
1000
0010
0100
0001
1000
,
0001
1000
0010
0001
0010
0100
0010
1000
,
0001
1000
0100
0010
1000
0010
0100
1000
,
0001
0100
0010
1000
0001
1000
0010
0100
,
0001
0010
0100
1000
0001
0010
0100
0000
,
1000
0100
0010
0011
0000
1001
0000
0001
,
0100
0010
1000
1010
0000
1001
0000
1000
,
0001
0100
0010
0100
1000
0100
0010
0100
,
0001
0000
0000
0000
0000
0000
0000
0000
0000
0000
0000
0000
0000
0000
0000
0000
0000
0000
0000
0000
0000
0000
0000
0000
0010
0000
0000
0000
0000
0000
0000
0000
0000
0000
0000
0000
0000
0000
0000
0000
0000
0000
0000
0000
0000
0000
0000
0000
0100
0000
0000
0000
0000
0000
0000
0000
0000
0000
0000
0000
0000
0000
0000
0000
0000
0000
0000
0000
0000
0000
0000
0000
2002
3003
0000
0000
0000
0000
0000
0000
0000
0000
0000
0000
0000
0000
0000
0000
0000
0000
0000
0000
0000
0000
0000
0000
0001
0000
0000
0000
0000
0000
0000
0000
0000
0000
0000
0000
0000
0000
0000
0000
0000
0000
0000
0000
0000
0000
0000
0000
1000
0000
0000
0000
0000
0000
0000
0000
0000
0000
0000
0000
0000
0000
0000
0000
0000
0000
0000
0000
0000
0000
0000
0000
0001
0000
0000
0000
0000
0000
0000
0000
0000
0000
0000
0000
0000
0000
0000
0000
0000
0000
0000
0000
0000
0000
0000
0000
1000
0000
0000
0000
0000
0000
0000
0000
0000
0000
0000
0000
0000
0000
0000
0000
0000
0000
0000
0000
0000
0000
0000
0000
,
0000
1001
0000
1000
0100
0010
0100
1000
,
0010
0101
0000
1010
0000
0101
0000
1010
,
0000
1001
0000
0001
0010
0100
1000
0001
,
0000
0110
0000
1000
0001
0100
1000
0100
,
0010
0100
0001
0100
0001
0010
0100
0001
,
0100
1000
0010
0100
1000
0100
0001
0010
,
0100
0000
0010
0000
0001
0100
0001
0000
1000
0100
1000
0000
0001
0100
0001
0000
,
1000
0100
1000
0000
0001
0000
1000
0000
0001
0000
0100
0000
0010
0000
1001
0000
,
0000
0011
0000
0001
0100
0010
0100
0001
,
0000
0011
0000
1100
0000
0011
0000
1100
,
0000
1001
0000
1000
0100
0010
0001
0100
,
0010
0100
0010
1000
0001
0010
0100
0010
,
0100
1000
0001
1000
0010
2000
0000
3001
,
0000
0001
0010
0100
0010
0002
0000
1000
,
1003
0000
0000
0000
0001
0000
1000
0010
1000
0000
0010
0100
0010
0000
0100
0001
,
0100
0010
0000
1000
0001
1000
1100
0101
,
0000
0110
0000
1000
0100
0010
0100
1100
,
0000
1001
0000
1000
0001
0100
0010
0100
,
0001
1001
0000
0001
0100
0010
1000
1010
,
0000
0110
0000
0001
1000
0100
0010
0001
,
0010
1100
0000
0001
0100
0010
0100
0110
,
0000
1001
0000
0001
0100
0001
1000
0010
,
1000
1100
0000
1000
0001
0010
0100
1100
,
0000
1000
0100
0010
0001
1000
0010
0100
,
0010
1001
0000
0000
0000
0000
0000
0000
;

//--------------- dance-single - ----------------
#NOTES:
     dance-single:
     :
     Challenge:
     16:
     0.625358,0.904711,0,0,0.130069,488,488,0,0,0,0,0.625358,0.904711,0,0,0.130069,488,488,0,0,0,0:
0000
0000
0000
0000
,
2100
0000
0000
0000
0000
0000
3001
0100
0110
0000
0000
1020
0000
0000
1030
0100
,
0020
0000
0000
0032
0000
0000
1003
0000
0100
0000
1002
0000
0000
0000
0013
0001
,
0200
0000
0000
0000
0000
0000
0000
0000
0000
0320
0000
0000
0000
0000
0000
0000
0000
0000
1030
0000
0000
0000
0000
0000
0100
0000
0000
0000
0000
0000
0010
0000
0000
0000
0000
0000
0011
0000
0000
0000
1001
0000
0000
0000
1100
0000
0000
0000
,
2010
0000
0000
0000
0000
0000
3020
0000
0000
0000
0000
0000
1030
0000
0000
0000
0001
0010
0100
2000
0000
0000
0000
0000
0000
0000
0000
3001
0100
0001
1000
0100
,
1000
0010
0100
0010
1000
0100
0020
0000
0000
0000
0000
0000
0000
0000
0000
0000
0031
0000
0001
0000
0010
0000
0100
0000
1000
0100
1000
0100
0010
0001
0010
0001
,
1000
0000
0001
0100
0010
0000
0100
0000
0010
0000
1000
0100
0010
0000
0001
0000
,
0101
0100
0110
0000
1100
0100
0110
0000
,
1001
0000
0001
0010
0100
0000
1000
0000
0001
0000
1000
0010
0100
0000
0001
0000
,
0010
0010
0100
0100
1000
1000
0011
0000
,
1001
0000
1000
0010
0100
0000
0100
0001
0010
0000
1000
0000
0010
0000
0001
0100
,
0010
0000
0100
0000
0001
0000
1000
0100
0010
0000
0010
0001
1000
0000
0010
0000
,
1000
0010
0100
0001
1000
0010
0100
0010
1000
0100
0010
0001
1000
0100
0020
0000
,
0031
0000
1000
0010
0000
0100
0001
0000
1001
0000
0001
0010
0000
0100
1000
0000
,
1010
0000
0100
0001
0000
0100
1000
0000
0100
0000
0001
0010
0000
1000
0010
0000
,
0001
1000
0010
0010
0000
0100
0001
1000
0100
0100
0010
0001
0000
1000
0001
0000
,
0001
0100
0001
0100
1000
0100
0001
0010
0100
1000
0100
0010
1000
0010
0001
0100
,
0010
0000
1000
0010
0100
0000
0010
0000
0100
0001
1000
0000
0100
0000
0010
0000
,
0011
0000
1100
0000
1000
0100
1000
0000
0001
0100
0001
0000
0010
0100
1000
0000
,
0001
0000
1000
0010
1000
0000
0001
0000
0100
0001
0100
0000
0010
0000
1000
0000
,
1010
0000
0101
0000
0001
1000
0010
0000
0100
0001
0010
0000
0100
0010
0001
0000
,
1000
0001
0010
0100
1000
0001
0001
0100
,
0110
0000
0110
1000
0001
0010
0001
0010
,
1100
0000
1000
0100
0010
0001
0010
0100
,
1000
0000
0100
0010
0001
0000
1000
0100
0010
0000
0001
0010
0100
0001
0100
0010
,
0001
0000
0000
0000
1000
0000
0010
0000
0001
0000
0000
0000
0001
0000
0010
0000
1000
0000
0000
0000
1000
0000
0100
0000
1000
0000
0001
0000
0100
0000
0010
0100
,
0010
0000
0000
0000
0010
0000
1000
0000
0100
0000
0000
0000
0010
0000
0001
0000
0100
0000
0000
0000
0100
0000
0010
1000
0010
0000
0100
0001
0100
0000
0010
0000
,
1010
0000
0000
0000
1000
0000
0001
0000
0100
0000
0000
0000
0010
0000
1010
0000
0000
0000
0010
0000
0110
0000
0000
0000
0100
0000
0001
0100
0010
0000
1000
0000
,
1001
0000
0000
0000
1100
0000
0100
0010
0001
0000
0000
0000
0001
0000
0100
0000
0001
0000
0000
0000
0100
0000
0001
0100
0010
0000
0100
0001
1000
0000
0001
0000
,
0001
0000
1000
0100
0010
0000
0001
0000
1000
0000
0001
0100
0010
0000
1000
0000
,
0001
0000
1000
0100
1000
0000
0100
0010
0100
0000
0010
0001
0010
0000
0001
0000
,
1000
0000
0001
0100
1000
0000
0100
0000
0010
0000
1000
0100
0010
0000
1000
0000
,
0010
0001
0100
0000
0100
0001
0010
0000
0100
0010
0100
1000
0001
0100
0010
0100
,
1000
0100
0001
1001
0000
1001
1000
0100
,
0010
0001
1000
1001
0000
1001
0001
0010
,
0101
1000
0110
0001
1100
0010
0101
1000
,
0001
0000
0010
0000
0100
0000
2002
3003
0001
0000
1000
0000
1010
0000
1001
0000
,
0000
0000
1001
0000
0000
0000
1000
0100
0010
0000
0001
0000
1000
0000
0001
0010
,
0100
1000
1010
0010
0110
0100
0101
0001
,
1001
0000
1000
0000
0001
0000
0001
0010
0100
0000
0100
1000
0010
0000
0100
0001
,
0010
0000
0010
0100
1000
0000
0100
0000
1000
0001
1000
0000
0110
0000
0110
0000
,
0001
0100
0010
0100
0001
0000
1000
0010
1000
0000
0001
0000
1000
0010
1000
0000
,
0001
0000
1000
0000
0001
0010
0100
0000
0010
0100
1000
0000
0001
0000
0100
0000
,
0010
0000
0100
0000
0001
0100
1000
0000
0001
0010
1000
0000
0001
0010
1000
0000
,
0001
0100
1000
0000
0001
0010
0100
0010
0001
1000
0100
0010
0100
1000
0100
0010
,
0001
0000
0011
0000
0000
0000
0001
1000
0100
0000
0010
0000
0100
0000
1001
0000
,
1000
0000
0010
1000
0010
0000
0100
0001
0010
0000
0100
1000
0010
0000
0001
0010
,
1000
0000
0100
0000
0010
0000
0100
1000
0010
0000
0100
0000
0010
0000
0100
0001
,
0010
0000
0010
0001
0100
0000
0010
1000
0100
0000
0010
0000
0001
0100
0010
0100
,
0001
0100
1000
0100
0001
0000
1000
0000
0001
0000
0011
0000
0000
0000
1100
0000
,
0000
0001
0010
0100
1000
1001
0000
0010
,
0100
0000
0010
0000
1000
0000
0001
0100
0001
0000
1000
0100
1000
0000
0001
0100
,
0001
1000
1100
0110
0011
1001
0100
0010
,
0000
0110
0000
1000
0100
1000
0001
0101
,
0000
1100
0000
1100
0001
0010
0001
0010
,
0100
1100
0000
1010
0100
0001
1000
1010
,
0000
0110
0000
0110
0001
0100
0010
1000
,
0100
0000
1100
0000
0000
0000
1000
0100
0010
0100
1000
0001
0010
0100
1000
0000
,
0000
0000
1001
0000
0000
0000
0001
0100
0010
0100
0001
1000
0010
0100
0010
1000
,
0001
0010
0100
0000
0000
0000
1100
0000
1000
0100
0010
0001
0010
0100
0010
0000
,
0000
0000
0000
0000
0000
0000
0001
0000
0000
0010
0000
0000
0100
0000
0000
0010
0000
0000
0001
0000
0000
0100
0000
0000
0001
0000
0000
0010
0000
0000
0100
0000
0000
1000
0000
0000
0001
0000
0100
0000
0001
0000
0100
0000
0010
0000
1000
0000
,
0010
1000
0001
0010
0000
0000
0000
0000
0000
0000
0000
0000
0000
0000
0000
0000
0000
0000
0000
0000
0000
0000
0000
0000
;
