#TITLE:エイリアンエイリアン (DIVELA REMIX);
#SUBTITLE:;
#ARTIST:ナユタン星人 Remixed by DIVELA;
#TITLETRANSLIT:Alien Alien (DIVELA REMIX);
#SUBTITLETRANSLIT:;
#ARTISTTRANSLIT:NayutalieN Remixed by DIVELA;
#GENRE:POP;
#CREDIT:;
#MUSIC:Alien Alien (DIVELA REMIX).ogg;
#BANNER:Alien Alien (DIVELA REMIX).png;
#BACKGROUND:Alien Alien (DIVELA REMIX)-bg.png;
#CDTITLE:;
#SAMPLESTART:52.130;
#SAMPLELENGTH:12.632;
#SELECTABLE:YES;
#OFFSET:-0.025;
#BPMS:0.000=152.000;
#STOPS:;
#BGCHANGES:2.000=Alien Alien (DIVELA REMIX).avi=1.000=0=0=0=StretchNoLoop====,
99999.000=-nosongbg-=1.000=0=0=0=StretchNoLoop====
;
#FGCHANGES:;

//--------------- dance-single - ----------------
#NOTES:
     dance-single:
     :
     Hard:
     15:
     0.857715,1.030823,0.57606,0.040568,0.722104,740,669,71,5,0,0,0.857715,1.030823,0.57606,0.040568,0.722104,740,669,71,5,0,0:
0000
0000
0000
0000
,
0000
0000
0000
0000
,
0000
0000
0000
0000
,
0000
0000
0000
0000
,
0000
0000
0000
0000
,
0001
0000
1000
0000
0001
0100
0000
0010
0100
0000
0001
0010
0000
0001
1000
0000
,
1000
0000
0001
0000
1000
0100
0000
0010
0100
0000
1000
0010
0000
1000
0001
0000
,
0001
0000
0100
0000
0010
0100
0000
0001
0100
0000
1000
0100
0000
0010
1000
0000
,
1000
0000
0001
0000
0010
0100
0000
0010
0001
0000
1000
0000
0010
0000
0100
0000
,
0010
0000
0100
0001
1000
0000
0100
0000
0010
0000
0100
1000
0001
0000
1000
0000
,
0010
0000
0100
0001
0100
0000
0010
1000
0010
0000
0100
0010
0100
0000
0001
0000
,
0010
0000
0100
1000
0001
0000
0100
0000
0010
0000
0100
0001
1000
0000
0001
0000
,
0010
0000
0100
1000
0100
0000
0010
0000
0011
0000
0000
0000
0101
0000
0000
0000
,
1001
0000
1000
0010
0100
0000
0001
0000
0010
0000
0100
1000
0001
0000
1000
0000
,
0001
0000
1000
0010
1000
0000
0010
0100
0010
0000
0100
1000
0100
0000
0001
0000
,
2000
3200
0320
0032
,
0103
0000
1000
0000
0100
0000
0001
0000
1000
0000
0100
0010
0100
0000
1000
0000
,
0001
0000
1000
0000
0001
0100
0000
0010
1000
0000
0001
0010
0000
0100
1000
0000
,
1000
0000
0001
0000
1000
0100
0000
0010
0001
0000
1000
0010
0000
0100
0001
0000
,
0001
0000
1000
0000
0100
0010
0000
0001
1000
0000
0010
0100
0000
0001
1000
0000
,
1000
0000
0001
0000
0100
0010
0000
1000
0001
0000
0010
0100
0010
0000
0001
0000
,
1000
0000
1010
0000
0000
0000
0101
0000
0001
0000
1000
0100
1000
0000
0001
0000
,
0010
0000
0011
0000
0000
0000
1100
0000
1000
0000
0001
0100
0001
0000
1000
0000
,
0010
0110
0000
0110
0010
1000
0001
0010
,
0100
0110
0000
0010
1100
0000
0011
0001
,
1000
0000
0010
0000
0000
0000
0010
0000
0100
0000
0001
0100
0001
0000
1000
0000
,
0100
0011
0000
2100
0001
0100
0001
3100
,
0011
0101
1100
1010
,
0010
1000
0100
0001
1000
0010
0001
1000
,
1001
0110
0011
1100
,
0110
1001
1010
0101
,
0001
0100
0001
0100
0001
1000
0001
1000
0001
0010
0001
0010
0001
1000
0001
1000
,
0001
0010
0100
1000
0001
0010
0100
1000
0001
0000
0000
0000
1001
0000
0000
0000
,
1001
0000
0001
0100
0001
0000
0100
0010
0100
0000
0001
0000
0010
0000
0100
0000
,
1000
0000
0100
1000
0100
0000
0010
0100
0010
0000
0001
0000
1000
0000
0001
0000
,
1000
0000
0010
0100
0010
0000
1000
0000
0001
0000
0010
0100
0010
0000
0001
0000
,
1000
0000
0001
0100
0001
0000
1000
0100
1000
0000
1001
0000
1001
0000
0000
0000
,
0101
0000
0001
0100
0001
0000
1000
0000
1100
0000
1000
0100
1000
0000
0001
0000
,
0011
0000
0001
0010
0001
0000
1000
0000
1010
0000
1000
0010
1000
0000
0001
0000
,
1001
0000
1000
0010
1000
0000
0001
0100
0001
0000
1000
0010
1000
0000
0001
0000
,
0000
0011
0011
0000
1010
1010
1001
0000
,
0001
0000
0100
0010
0100
0000
1000
0100
1000
0000
0100
0001
0010
0000
0100
0000
,
1000
0000
0100
0010
0100
0000
0001
0100
0001
0000
0100
1000
0010
0000
0100
0000
,
0001
0000
0100
1000
0100
0000
0001
0000
1000
0000
0100
0001
0100
0000
1000
0000
,
0001
0000
1000
0010
0100
0000
0001
0100
0010
0000
0110
0000
0110
0000
0000
0000
,
0101
0000
0001
0100
0001
0000
1000
0000
1100
0000
1000
0100
1000
0000
0001
0000
,
0011
0000
0000
0000
1100
0000
0000
0000
1001
0000
0100
0010
0100
0000
0010
0000
,
1001
1000
0100
0001
1000
0010
0001
1000
,
0000
1010
1010
0000
0101
0101
1001
0001
,
1000
0000
0001
0000
1000
0100
0000
0010
0100
0000
1000
0010
0000
1000
0001
0000
,
0001
0000
1000
0000
0001
0100
0000
0010
0100
0000
0001
0010
0000
0001
1000
0000
,
1000
0000
0100
0000
0010
0100
0000
1000
0100
0000
0001
0100
0000
0010
0001
0000
,
0001
0000
1000
0000
0010
0100
0000
0010
1000
0000
0001
1000
0001
0000
1000
0000
,
0010
1000
0100
0000
0100
0010
0001
0000
,
0001
0100
0001
0100
0010
0100
0010
1000
0001
0000
1000
0000
1001
0000
0000
0000
,
1000
0100
0010
0000
0010
0001
1000
0000
,
1000
0100
1000
0100
1000
0010
1000
0010
0100
0010
0100
0001
1000
0000
0000
0000
,
0001
0010
0100
0000
1000
0010
0100
0000
,
0010
0100
0010
0100
0001
1000
0001
1000
0100
0010
0001
0000
1001
0000
0000
0000
,
0001
0000
1000
0010
1000
0000
0001
0100
0001
0000
0010
0000
1000
0000
0000
0000
,
1000
0010
0001
0100
0110
0000
1001
0000
,
0001
0000
1000
0100
0010
0000
0100
0000
1000
0000
1000
0100
0010
0000
0001
0000
,
1000
0000
0001
0100
0010
0000
0100
0000
0001
0000
0001
0100
0010
0000
1000
0000
,
0001
0010
0001
0010
0100
0000
1001
0000
1000
0010
1000
0010
0100
0000
1001
0000
,
0001
0100
0001
0100
0010
0000
1000
0010
0100
0000
0110
0000
0110
0000
0010
0000
,
1001
0000
1000
0100
0010
0001
1000
0000
1001
0000
0001
0100
0010
1000
0001
0000
,
1001
0000
0000
0000
0110
0000
0000
0000
1001
0000
0001
0010
0100
1000
0001
0000
,
1001
0000
0001
0010
0001
0000
0010
0100
0010
0000
0100
1000
0100
0000
1000
0000
,
0000
1100
1100
0000
0101
0101
0000
1000
,
0001
0000
1000
0000
0001
0100
0000
0010
0100
0000
0001
0010
0000
0001
1000
0000
,
1000
0000
0001
0000
1000
0100
0000
0010
0100
0000
1000
0010
0000
1000
0001
0000
,
0001
0000
0100
0000
0010
0100
0000
0001
0100
0000
1000
0100
0000
0010
1000
0000
,
1000
0000
0001
0000
0010
0100
0000
0010
0001
0000
1000
0100
0000
0001
0100
0000
,
1000
0000
0001
0000
1000
0010
0000
0100
0010
0000
1000
0010
0000
0100
0001
0000
,
1000
0000
0001
0000
0001
0010
0000
0100
0010
0000
0001
0010
0000
0001
1000
0000
,
0001
0100
0001
0100
0010
1000
0010
1000
0001
0010
0001
0010
0100
1000
0100
1000
,
0001
1000
0001
1000
0001
1000
0001
1000
0001
1000
0001
1000
0001
1000
0001
1000
,
0001
0000
0000
0000
;

//--------------- dance-single - ----------------
#NOTES:
     dance-single:
     :
     Challenge:
     18:
     1.232097,1.28072,1.022304,0.032454,1.492888,1063,937,126,4,0,0,1.232097,1.28072,1.022304,0.032454,1.492888,1063,937,126,4,0,0:
0000
0000
0000
0000
,
0001
0100
0001
0010
,
0100
1000
0100
1000
,
0001
0100
0001
0100
0010
1000
0010
1000
0001
0010
0001
0010
0100
1000
0100
1000
,
0001
0100
0010
1001
,
1000
0100
1000
0000
0001
0100
0000
0010
0100
0000
1000
0100
0001
0010
0100
1000
,
0001
0100
0001
0000
1000
0100
0000
0010
0100
0000
0001
0100
1000
0010
0100
0001
,
1000
0010
0100
0000
0001
0100
0000
0010
0100
0000
1000
0100
0001
0010
0100
1000
,
0100
0000
0000
0010
0000
0000
0100
0000
0000
0000
0000
0000
1000
0000
0000
0001
0000
0000
0000
0000
0000
1000
0000
0000
0010
0000
0100
0000
0010
0000
1000
0000
0000
0100
0000
0000
0010
0000
0000
0000
0000
0000
0100
0000
0000
0000
0000
0000
,
0010
0001
0100
0001
0010
0000
0100
0000
0010
0100
1000
0100
0010
0001
1000
0100
,
0010
0000
0001
0010
0100
0000
1000
0100
0010
0000
0001
0010
0100
1000
0001
0100
,
0010
1000
0100
1000
0010
0000
0100
0000
0010
1000
0100
0000
0010
0000
0001
0100
,
0010
1000
0010
0100
0001
0010
0100
1000
1100
0000
0001
0100
0101
0000
0010
0100
,
1001
0000
1000
0010
0100
0000
0001
0000
0010
0001
0100
0010
0100
0001
1000
0100
,
0001
0100
1000
0100
0001
0100
1000
0010
0100
0010
1000
0010
0100
0001
0010
0100
,
1000
0000
0010
0100
0001
0000
0010
0100
1000
0000
0010
0100
0001
0000
1000
0000
,
0001
0000
0000
0100
0000
0000
1000
0000
0000
0100
0000
0000
0010
0000
0000
0000
0000
0000
0001
0000
0010
0000
1000
0000
0100
0000
0000
0010
0000
0000
0001
0000
0000
1000
0000
0000
0110
0000
0000
0001
0000
0000
0010
0000
0000
0100
0000
0000
,
1100
1000
0001
0000
0100
0000
1010
0000
1000
0000
0101
0101
0000
0010
1100
0000
,
1000
0100
0110
0000
0001
0000
0110
0000
1000
0000
0011
0011
0000
0100
1010
0000
,
0100
0001
1100
0000
0100
0000
1001
0000
0010
0000
1010
1010
0000
0010
0101
0000
,
0010
1000
0011
0000
0010
0000
1001
0000
0010
0000
0110
0110
1001
0000
1001
0000
,
0010
0000
1010
0000
0100
0000
0101
0000
0001
0000
1000
0100
0001
0000
0100
0000
,
1000
0000
1010
0000
0100
0000
0101
0000
0001
0000
1000
0010
0001
0000
0011
0000
,
0010
0110
0001
0011
0010
1100
1000
0011
,
0010
1100
0001
1001
1010
0101
1010
0101
,
1001
0000
0110
0000
0010
0000
1010
0000
0100
0000
0001
0100
1000
0000
0100
0000
,
0010
0000
1001
0000
0010
0000
1001
0000
1100
0000
0101
0001
1100
0000
0101
0000
,
0120
1030
0120
0031
0210
1300
0210
0301
,
1000
0100
0001
0100
0010
1000
0010
0001
,
0011
1000
0011
1000
0101
0010
1100
0001
,
1010
0001
1010
0001
1100
0010
0101
1000
,
0001
0100
1000
0100
0001
0010
1000
0010
0001
0100
1000
0100
0001
0010
1000
0010
,
0001
0000
0100
0000
0010
0000
1000
0000
0100
0000
0010
0000
0001
0000
0000
0100
0000
0000
0010
0000
0000
1000
0000
0000
0001
0000
0000
0000
0000
0000
0000
0000
0000
0000
0000
0000
1001
0000
0000
0000
0000
0000
0000
0000
0000
0000
0000
0000
,
0001
0100
0001
0100
0010
1000
0100
0010
0001
1000
0001
1000
0010
0100
0001
1000
,
0100
0010
0100
1000
0001
0100
0010
0100
0001
0010
0100
1000
0001
0010
0100
1000
,
0001
0100
0010
0100
1000
0100
0010
1000
0001
1000
0100
0001
0100
1000
0010
1000
,
0001
0010
1000
0001
0100
1000
0001
0100
0010
0000
0110
0000
0110
0000
0001
0000
,
1010
1000
0010
0100
0001
0100
0010
1000
1001
0001
0010
0100
1000
0100
0010
0001
,
0011
0010
0100
1000
0100
0010
0001
1000
1001
0001
0100
0010
1000
0010
0100
0001
,
1001
1000
0100
0010
0100
1000
0001
0010
0100
1000
0001
0010
0100
0010
0001
1000
,
0001
0100
1010
0000
1010
0000
1000
0010
0101
0000
0101
0000
1001
0000
0000
0000
,
1000
0100
1000
0100
0010
0001
0100
0010
1000
0001
1000
0001
0010
0100
1000
0001
,
0100
0010
0100
0001
1000
0100
0010
0100
1000
0010
0100
0001
1000
0010
0100
0001
,
1000
0100
0010
0100
0001
0100
0010
0001
1000
0001
0100
1000
0100
0001
0010
0001
,
1000
0010
0001
1000
0100
0001
1000
0100
0010
0000
0110
0000
0110
0000
0100
0000
,
0011
0001
0010
0100
1000
0100
0010
0001
1001
1000
0010
0100
0001
0100
0010
1000
,
1010
0010
0100
0001
0011
0010
0100
1000
1001
0001
0100
0010
1000
0010
0100
0001
,
1001
1000
0010
0100
0001
0010
0100
1000
0100
0010
0001
0100
0010
1000
0010
0100
,
0001
0000
0000
1000
0000
0000
1010
0000
0000
0000
0000
0000
0101
0000
0000
0000
0000
0000
0001
0000
0000
0010
0000
0000
0100
0000
0000
0000
0010
0000
0000
0000
0001
0000
0000
0000
1001
0000
0000
0000
0000
0000
0100
0000
0000
0000
0000
0000
,
0001
0100
0001
0000
1000
0100
0000
0010
0100
0000
0001
0100
1000
0010
0100
0001
,
1000
0100
1000
0000
0001
0100
0000
0010
0100
0000
1000
0100
0001
0010
0100
1000
,
0001
0010
0100
0000
1000
0100
0000
0010
0100
0000
0001
0100
1000
0010
0100
0001
,
0100
0000
0000
0010
0000
0000
0100
0000
0000
0000
0000
0000
0001
0000
0000
1000
0000
0000
0000
0000
0000
0001
0000
0000
0100
0000
0010
0000
0100
0000
0001
0000
0000
0010
0000
0000
1000
0000
0000
0010
0000
0000
0001
0000
0000
0100
0000
0000
,
0010
0000
1010
0000
0100
0000
0101
0000
0010
0000
1000
0010
0100
0000
0110
0000
,
0001
0000
0011
0000
0100
0000
1010
0000
0100
0000
0001
0100
0010
0000
1010
0000
,
1000
0011
1000
0101
0001
1010
0001
1100
,
0010
0101
1000
0110
1001
0000
1001
0110
,
0001
0000
1100
0000
0001
0000
1010
0000
0100
0000
1000
0010
0100
0000
0011
0000
,
0100
0000
1010
0000
0100
0000
0011
0000
0100
0000
0001
0010
0100
0000
1010
0000
,
0001
0101
0010
1100
0001
0110
0010
1000
,
0001
0000
0000
0010
0000
0000
0000
0000
0000
0100
0000
0000
0010
0000
0000
0000
0000
0000
1000
0000
0000
0010
0000
0000
0001
0000
0000
0000
0100
0000
0000
0000
0010
0000
0000
0000
1001
0000
0000
0000
0000
0000
1001
0000
0000
0000
0000
0000
,
0001
1000
0001
0100
0010
1000
0100
0001
0100
1000
0001
0100
0001
0010
1000
0001
,
0100
0001
1000
0010
0001
1000
0010
0100
0001
0100
1000
0001
0010
0001
1000
0100
,
1000
0100
0010
0001
0010
0001
0010
1000
0100
0001
0100
0001
1000
0010
1000
0010
,
0001
0100
1000
0001
0010
1000
0001
0010
0100
0000
0110
0000
0110
0000
0001
0100
,
0110
1000
0100
0010
0001
1000
0010
0100
1001
0010
0100
0001
1000
0100
0010
0001
,
1100
0001
0010
0100
0011
1000
0100
0010
1100
0010
0001
0010
0100
1000
0001
1000
,
0110
0001
0100
1000
0100
1000
0100
0001
0010
1000
0010
1000
0001
0100
1000
0010
,
0110
0000
0000
0001
0000
0000
0000
0000
0000
1000
0000
0000
0110
0000
0000
0000
0000
0000
0100
0000
0000
0001
0000
0000
1000
0000
0000
0000
0110
0000
0000
0000
0110
0000
0000
0000
0110
0000
0000
0000
0000
0000
0001
0000
0000
0000
0000
0000
,
1000
0010
1000
0000
0001
0010
0000
0100
0010
0000
1000
0010
0001
0100
0010
1000
,
0001
0010
0001
0000
1000
0010
0000
0100
0010
0000
0001
0010
1000
0100
0010
0001
,
1000
0100
0010
0000
0001
0010
0000
0100
0010
0000
1000
0010
0001
0100
0010
1000
,
0010
0000
0000
0100
0000
0000
0010
0000
0000
0000
0000
0000
1010
0000
0000
0000
0000
0000
1000
0000
0000
0100
0000
0000
0001
0000
0000
0000
0100
0000
0000
0000
1000
0000
0000
0000
0001
0000
0000
0000
0000
0000
0100
0000
0000
0010
0000
0000
,
1000
0100
0010
0000
0010
0001
0000
0001
1000
0000
1000
0010
0000
0010
0100
0001
,
0010
0100
1000
0000
1000
0100
0000
0100
0010
0000
0010
0001
0000
0001
0100
0010
,
1000
0100
1000
0100
0010
0001
0010
0001
1000
0010
1000
0010
0100
0001
0100
0001
,
0010
0100
1000
0001
0100
0010
1000
0001
0010
0100
1000
0001
0100
0010
1000
0100
0010
0001
0100
0010
1000
0100
0010
0001
,
1000
0000
0000
0000
;
