#TITLE:いいわけバニー;
#SUBTITLE:;
#ARTIST:兎田ぺこら;
#TITLETRANSLIT:Alibi Bunny;
#SUBTITLETRANSLIT:;
#ARTISTTRANSLIT:Usada Pekora;
#GENRE:POP;
#CREDIT:;
#MUSIC:Alibi Bunny.ogg;
#BANNER:Alibi Bunny.png;
#BACKGROUND:Alibi Bunny-bg.png;
#CDTITLE:;
#SAMPLESTART:49.238;
#SAMPLELENGTH:11.461;
#SELECTABLE:YES;
#OFFSET:1.324;
#BPMS:0.000=178.000
,112.000=89.000
,120.000=178.000
,245.000=89.000
,251.000=178.000
;
#STOPS:140.000=0.169
,140.500=0.169
,187.000=0.169
,187.500=0.169
,188.000=0.169
,188.500=0.169
,275.000=0.169
,275.500=0.169
,322.000=0.169
,322.500=0.169
,323.000=0.169
,323.500=0.169
;
#LASTBEATHINT:0.906050;
#BGCHANGES:4.000=Alibi Bunny.avi=1.000=0=0=0=StretchNoLoop====,
99999.000=-nosongbg-=1.000=0=0=0=StretchNoLoop====
;
#FGCHANGES:;

//--------------- dance-single - ----------------
#NOTES:
     dance-single:
     :
     Medium:
     12:
     0,0,0,0,0:
0000
0000
0000
0000
,
0000
0000
0000
0000
,
0000
0000
0000
0000
,
0000
0000
0000
0000
,
0001
0000
1000
0000
0001
0010
0100
2000
,
0000
3100
0010
0000
0001
1000
0001
0000
,
1000
0000
0001
0000
1000
0010
0100
0002
,
0000
0103
0010
0000
1000
0001
0010
0000
,
0100
0000
0010
0000
0001
0100
0010
2000
,
0000
3001
0100
0000
0001
0100
1000
0100
,
0000
0100
0001
0000
0001
0010
0000
0100
,
0000
0100
0000
0100
1000
0000
1000
0001
,
0100
0000
0100
0000
0010
1000
0001
0000
,
1000
0000
0001
0100
0001
0000
1000
0100
,
1000
0000
0100
0010
0000
0001
1000
0000
,
0010
0100
0001
0000
1000
0100
0001
0100
,
1000
0000
1001
0000
0100
0010
0100
0001
,
0000
0001
1000
0000
1000
0100
0010
0001
,
0000
1000
0010
0000
0110
0000
1001
0000
,
0002
0000
2003
0000
3020
0100
0130
0000
,
0110
0000
0100
0001
0010
0000
0010
0001
,
0100
0000
0001
1000
0100
1000
0001
0000
,
1000
0000
0001
0100
1000
0000
1000
0100
,
0001
0011
1100
1001
,
0110
0000
0010
1000
0100
0000
0100
1000
,
0010
0000
1000
0001
0010
0001
1000
0000
,
2100
3010
0102
0013
,
2002
3000
0103
0110
,
0010
0000
1000
0001
0010
0000
0100
1000
,
0001
0000
0100
0000
0001
1000
0001
1000
,
0010
0000
0110
0000
0100
0001
1000
0100
,
0010
0000
0011
0000
0001
0010
0100
1000
,
0001
1000
0010
0000
0100
0001
0010
0000
,
0100
1000
0001
0000
0100
0001
1000
0000
,
0001
0100
1000
0100
0001
0100
1000
0100
,
0002
0003
0000
0000
0000
0000
0000
0000
0000
0000
0000
0000
0000
0000
0000
0000
0000
0000
0000
0000
0000
0000
0000
0000
2000
3000
0000
0000
0000
0000
0000
0000
0000
0000
0000
0000
0000
0000
0000
0000
0000
0000
0000
0000
0000
0000
0000
0000
0010
0000
0000
0000
0000
0000
0000
0000
0000
0000
0000
0000
0000
0000
0000
0000
0000
0000
0000
0000
0000
0000
0000
0000
0000
0000
0000
0000
0000
0000
0000
0000
0000
0000
0000
0000
0000
0000
0000
0000
0000
0000
0000
0000
0000
0000
0000
0000
0010
0000
0000
0000
0000
0000
0000
0000
0000
0000
0000
0000
0000
0000
0000
0000
0000
0000
0000
0000
0000
0000
0000
0000
0000
0000
0000
0000
0000
0000
0000
0000
0000
0000
0000
0000
0000
0000
0000
0000
0000
0000
0000
0000
0000
0000
0000
0000
1001
0000
0000
0000
0000
0000
0000
0000
0000
0000
0000
0000
0000
0000
0000
0000
0000
0000
0000
0000
0000
0000
0000
0000
0000
0000
0000
0000
0000
0000
0000
0000
0000
0000
0000
0000
0000
0000
0000
0000
0000
0000
0000
0000
0000
0000
0000
0000
,
1000
0000
0001
0010
0100
1000
0001
0000
,
0001
0000
1000
0010
0100
0001
1000
0000
,
1000
0010
0100
0000
0100
0001
0011
0000
,
1100
0000
1001
0000
1001
0000
1000
0100
,
0010
0100
1000
0100
0001
0100
1000
0010
,
0001
1000
0100
0000
0101
0000
0011
0000
,
1100
0000
1010
0000
0001
0100
0000
0010
,
1000
0100
0020
0001
0031
0000
2000
3100
,
0020
0130
2000
3100
0000
1001
0000
1000
,
1000
0010
0100
0000
1001
0000
0002
0103
,
0020
0000
0000
0000
0000
0000
0000
0000
0000
0000
0000
0000
0000
0000
0000
0000
0000
0000
0000
0000
0000
0000
0000
0000
0130
0000
0000
0000
0000
0000
0000
0000
0000
0000
0000
0000
0000
0000
0000
0000
0000
0000
0000
0000
0000
0000
0000
0000
0002
0000
0000
0000
0000
0000
0000
0000
0000
0000
0000
0000
0000
0000
0000
0000
0000
0000
0000
0000
0000
0000
0000
0000
0103
0000
0000
0000
0000
0000
0000
0000
0000
0000
0000
0000
0000
0000
0000
0000
0000
0000
0000
0000
0000
0000
0000
0000
0000
0000
0000
0000
0000
0000
0000
0000
0000
0000
0000
0000
0000
0000
0000
0000
0000
0000
0000
0000
0000
0000
0000
0000
0001
0000
0000
0000
0000
0000
0000
0000
0000
0000
0000
0000
0000
0000
0000
0000
0000
0000
0000
0000
0000
0000
0000
0000
0200
0300
0000
0000
0000
0000
0000
0000
0000
0000
0000
0000
0000
0000
0000
0000
0000
0000
0000
0000
0000
0000
0000
0000
0020
0030
0000
0000
0000
0000
0000
0000
0000
0000
0000
0000
0000
0000
0000
0000
0000
0000
0000
0000
0000
0000
0000
0000
,
2000
3000
0000
0000
0000
0000
0000
0000
0000
0000
0000
0000
0000
0000
0000
0000
0000
0000
0000
0000
0000
0000
0000
0000
0002
0003
0000
0000
0000
0000
0000
0000
0000
0000
0000
0000
0000
0000
0000
0000
0000
0000
0000
0000
0000
0000
0000
0000
1000
0000
0000
0000
0000
0000
0000
0000
0000
0000
0000
0000
0000
0000
0000
0000
0000
0000
0000
0000
0000
0000
0000
0000
0100
0000
0000
0000
0000
0000
0000
0000
0000
0000
0000
0000
0000
0000
0000
0000
0000
0000
0000
0000
0000
0000
0000
0000
0010
0000
0000
0000
0000
0000
0000
0000
0000
0000
0000
0000
0000
0000
0000
0000
0000
0000
0000
0000
0000
0000
0000
0000
0000
0000
0000
0000
0000
0000
0000
0000
0000
0000
0000
0000
0000
0000
0000
0000
0000
0000
0000
0000
0000
0000
0000
0000
0010
0000
0000
0000
0000
0000
0000
0000
0000
0000
0000
0000
0000
0000
0000
0000
0000
0000
0000
0000
0000
0000
0000
0000
0100
0000
0000
0000
0000
0000
0000
0000
0000
0000
0000
0000
0000
0000
0000
0000
0000
0000
0000
0000
0000
0000
0000
0000
,
1000
0000
0001
0100
0010
0000
0010
0100
,
0001
0000
0001
1000
0100
0001
1000
0010
,
0001
1000
0001
0100
1000
0001
0010
1000
,
0100
0010
0001
0000
0011
0000
1100
0000
,
1000
0010
0000
0100
0001
1000
0001
0000
,
1001
0000
1000
0000
0001
0000
1000
0010
,
0100
0002
0000
0103
0010
0000
1000
0001
,
1000
0000
0001
0000
1000
0000
0001
0010
,
0100
2000
0000
3100
0010
0000
0001
1000
,
0010
0000
0100
0000
0010
0000
1000
0100
,
0010
0002
0000
1003
0100
0000
1000
0100
,
0001
0100
1000
0000
0020
0000
0230
0000
,
0302
0000
0000
0000
1003
0100
0000
1000
0001
0000
0100
0000
0020
0000
0000
0000
,
0000
0000
0130
0000
0100
0001
1000
0000
,
1000
0000
0100
0001
0100
1000
0002
0000
,
0000
1003
0000
0001
0100
0010
1000
0000
,
1000
0001
0000
0001
0010
1000
0010
0000
,
0001
0100
1000
0100
0010
1000
0001
0000
,
0011
1000
1100
0010
,
1010
0100
0101
0011
,
1010
0000
0000
0000
0000
0000
0000
0000
0000
0000
0000
0000
0000
0000
0000
0000
0000
0000
0000
0000
0000
0000
0000
0000
0000
0000
0000
0000
0000
0000
0000
0000
0000
0000
0000
0000
0000
0000
0000
0000
0000
0000
0000
0000
0000
0000
0000
0000
1100
0000
0000
0000
0000
0000
0000
0000
0000
0000
0000
0000
0000
0000
0000
0000
0000
0000
0000
0000
0000
0000
0000
0000
0000
0000
0000
0000
0000
0000
0000
0000
0000
0000
0000
0000
0000
0000
0000
0000
0000
0000
0000
0000
0000
0000
0000
0000
0101
0000
0000
0000
0000
0000
0000
0000
0000
0000
0000
0000
0000
0000
0000
0000
0000
0000
0000
0000
0000
0000
0000
0000
0000
0000
0000
0000
0000
0000
0000
0000
0000
0000
0000
0000
0000
0000
0000
0000
0000
0000
0000
0000
0000
0000
0000
0000
2002
3003
0000
0000
0000
0000
0000
0000
0000
0000
0000
0000
0000
0000
0000
0000
0000
0000
0000
0000
0000
0000
0000
0000
2002
3003
0000
0000
0000
0000
0000
0000
0000
0000
0000
0000
0000
0000
0000
0000
0000
0000
0000
0000
0000
0000
0000
0000
,
0010
0100
1001
1000
,
0100
0010
0001
1000
0010
0000
0100
0000
,
0010
0100
0001
1000
0100
0000
0100
0010
,
0001
0000
0001
1000
1010
0000
0101
0000
,
1001
0000
1001
0000
0001
0100
0010
0100
,
0001
0100
1000
0100
0001
0010
1000
0001
,
0100
1100
1010
0101
,
0011
0000
1000
0100
0000
0010
0001
0100
,
0020
1000
1030
0000
0002
0103
2000
3100
,
0002
0103
0000
1001
0000
0001
0001
0010
,
0100
0000
1001
0000
2000
3100
0002
0103
,
2000
0000
0000
0000
0000
0000
0000
0000
0000
0000
0000
0000
0000
0000
0000
0000
0000
0000
0000
0000
0000
0000
0000
0000
3100
0000
0000
0000
0000
0000
0000
0000
0000
0000
0000
0000
0000
0000
0000
0000
0000
0000
0000
0000
0000
0000
0000
0000
0000
0000
0000
0000
0000
0000
0000
0000
0000
0000
0000
0000
0000
0000
0000
0000
0000
0000
0000
0000
0000
0000
0000
0000
1000
0000
0000
0000
0000
0000
0000
0000
0000
0000
0000
0000
0000
0000
0000
0000
0000
0000
0000
0000
0000
0000
0000
0000
0200
0300
0000
0000
0000
0000
0000
0000
0000
0000
0000
0000
0000
0000
0000
0000
0000
0000
0000
0000
0000
0000
0000
0000
0020
0030
0000
0000
0000
0000
0000
0000
0000
0000
0000
0000
0000
0000
0000
0000
0000
0000
0000
0000
0000
0000
0000
0000
0002
0003
0000
0000
0000
0000
0000
0000
0000
0000
0000
0000
0000
0000
0000
0000
0000
0000
0000
0000
0000
0000
0000
0000
2000
3000
0000
0000
0000
0000
0000
0000
0000
0000
0000
0000
0000
0000
0000
0000
0000
0000
0000
0000
0000
0000
0000
0000
,
0001
0100
1000
0000
1000
0100
0001
0000
,
1000
0100
0001
0000
0001
0100
1000
0000
,
1000
0001
0100
1000
0001
0010
1000
0001
,
1000
0100
0001
1000
0010
0001
0100
0010
,
1000
0000
1010
0000
0101
0000
0001
0010
,
0000
0100
1000
0001
0100
0000
0110
0000
,
0020
0000
1030
0002
0000
0013
0100
1000
,
0002
0000
1003
0100
0000
0010
0001
1000
,
0001
0000
0100
0010
0100
0000
0010
1000
,
0001
0000
0011
0000
1000
0100
0010
0001
,
2000
0010
3200
1000
,
0320
0000
0001
0000
0100
0000
1030
0020
,
0000
0031
0100
0000
0110
0000
0010
1000
,
0000
0001
0010
0000
1001
0000
0000
0000
;

//--------------- dance-single - ----------------
#NOTES:
     dance-single:
     :
     Hard:
     15:
     0,0,0,0,0:
0000
0000
0000
0000
,
0000
0000
0000
0000
,
0000
0000
0000
0000
,
0000
0000
0000
0000
,
0001
0010
0001
0000
1000
0100
1000
0000
0001
0000
0010
0000
0100
0000
2000
0000
,
0000
3100
0010
0001
2000
0001
3001
0000
,
1000
0010
1000
0000
0001
0100
0001
0000
1000
0000
0010
0000
0100
0000
0002
0000
,
0000
0000
1003
0000
0100
0010
0100
0000
1000
0000
0001
0000
0010
0000
0100
0000
,
1000
0100
1000
0000
0001
0010
0001
0000
1000
0000
0100
0000
0010
0000
0002
0000
,
0000
0000
1003
0000
0010
0100
0010
0000
1000
0000
0001
0000
0010
0000
0100
0000
,
0000
0100
1000
0001
0100
0010
0100
1000
,
0000
1000
0100
0001
0010
0100
1000
0010
,
0100
0000
0000
0100
0000
0000
0001
0000
1000
0000
0000
0000
1000
0000
0100
0000
,
0001
0000
0100
0000
1000
0000
0001
0000
0100
0000
0010
0000
1000
0001
1000
0000
,
0001
0010
0100
1000
0000
0001
0101
0000
,
1001
0000
1000
0100
0010
0000
0000
0000
0010
0000
0001
0000
0010
0000
1000
0000
,
0010
0000
0000
0000
0001
0000
0000
1000
0100
0000
0010
0000
0100
0000
1000
0000
,
0000
0000
0001
0100
0010
0000
1000
0000
0001
0000
0010
0000
0100
0000
1100
0000
,
0000
0000
1000
0010
1000
0000
0001
0000
0101
0000
0000
0000
1010
0000
0000
0000
,
0010
0000
1000
0001
1000
0000
0100
0000
0020
0000
0001
0000
0031
0000
0000
0000
,
0011
0000
0000
0010
0100
0000
1000
0000
0001
0000
0000
0100
0010
0000
1000
0000
,
0000
0000
1000
0100
0010
0000
0100
0000
1000
0000
0001
0000
1000
0000
0000
0000
,
0001
0000
0000
0100
0001
0000
1000
0000
0100
0000
0000
0010
0100
0000
1000
0000
,
0001
0100
0000
0010
1000
0001
0000
1000
0100
0010
0000
0000
0110
0000
0000
0000
,
1001
0000
0000
0001
0100
0000
0010
0000
1000
0000
0001
0000
0010
0000
0100
0000
,
0000
0000
0010
0001
1000
0000
0010
0000
0100
0000
0001
0000
1000
0000
0000
0000
,
0001
0100
0001
0100
0001
0000
0000
0000
1000
0100
1000
0100
1000
0000
0000
0000
,
1001
0000
0001
0010
0001
0010
0001
0010
0100
0000
0000
0000
1001
0000
0000
0000
,
0001
0000
1000
0000
0001
0000
0100
0010
0100
0000
0001
0000
0010
0000
0100
0000
,
1000
0000
0001
0100
0001
0000
1000
0100
1000
0000
0001
0010
0100
1000
0001
0100
,
0010
0000
0110
0100
0001
1000
0100
0010
,
0011
0000
0011
0001
0100
1000
0100
0001
,
1000
0000
0001
0010
0100
0000
0010
0000
0001
0000
1000
0001
0100
0000
0010
0000
,
1000
0000
0001
1000
0100
0000
0010
0000
0001
0000
0100
0010
1000
0000
0100
0000
,
0001
0100
1000
0100
0001
0100
1000
0001
,
0202
0303
0000
0000
0000
0000
0000
0000
0000
0000
0000
0000
0000
0000
0000
0000
0000
0000
0000
0000
0000
0000
0000
0000
2020
3030
0000
0000
0000
0000
0000
0000
0000
0000
0000
0000
0000
0000
0000
0000
0000
0000
0000
0000
0000
0000
0000
0000
0010
0000
0000
0000
0000
0000
0000
0000
0000
0000
0000
0000
0000
0000
0000
0000
0000
0000
0000
0000
0000
0000
0000
0000
1000
0000
0000
0000
0000
0000
0000
0000
0000
0000
0000
0000
0000
0000
0000
0000
0000
0000
0000
0000
0000
0000
0000
0000
0100
0000
0000
0000
0000
0000
0000
0000
0000
0000
0000
0000
0000
0000
0000
0000
0000
0000
0000
0000
0000
0000
0000
0000
0010
0000
0000
0000
0000
0000
0000
0000
0000
0000
0000
0000
0000
0000
0000
0000
0000
0000
0000
0000
0000
0000
0000
0000
1001
0000
0000
0000
0000
0000
0000
0000
0000
0000
0000
0000
0000
0000
0000
0000
0000
0000
0000
0000
0000
0000
0000
0000
0000
0000
0000
0000
0000
0000
0000
0000
0000
0000
0000
0000
0001
0000
0000
0000
0000
0000
0000
0000
0000
0000
0000
0000
,
0100
1000
0100
0010
1000
0100
0001
0101
,
0000
0000
1100
0000
0000
0000
1000
0010
0100
0000
0001
0000
1001
0000
0000
1000
,
0100
0000
0010
0000
0011
0000
0000
0001
0100
0000
0010
0000
1010
0000
0000
0000
,
1100
0000
0101
0001
1000
0100
1100
0100
,
0110
0000
0100
0000
1100
0000
1000
0000
1010
0000
0010
0100
0001
0000
0010
0000
,
0100
1000
0001
0000
0110
0000
1001
0000
,
0110
0000
1001
1000
0010
0100
0000
0001
,
0010
0100
2000
0001
3001
0000
0102
0103
,
2100
3100
0102
0103
0000
0011
0000
1100
,
1000
0010
0110
0100
1001
0000
2100
3100
,
0102
0000
0000
0000
0000
0000
0000
0000
0000
0000
0000
0000
0000
0000
0000
0000
0000
0000
0000
0000
0000
0000
0000
0000
0103
0000
0000
0000
0000
0000
0000
0000
0000
0000
0000
0000
0000
0000
0000
0000
0000
0000
0000
0000
0000
0000
0000
0000
2100
0000
0000
0000
0000
0000
0000
0000
0000
0000
0000
0000
0000
0000
0000
0000
0000
0000
0000
0000
0000
0000
0000
0000
3100
0000
0000
0000
0000
0000
0000
0000
0000
0000
0000
0000
0000
0000
0000
0000
0000
0000
0000
0000
0000
0000
0000
0000
0000
0000
0000
0000
0000
0000
0000
0000
0000
0000
0000
0000
0000
0000
0000
0000
0000
0000
0000
0000
0000
0000
0000
0000
1000
0000
0000
0000
0000
0000
0000
0000
0000
0000
0000
0000
0000
0000
0000
0000
0000
0000
0000
0000
0000
0000
0000
0000
2200
3300
0000
0000
0000
0000
0000
0000
0000
0000
0000
0000
0000
0000
0000
0000
0000
0000
0000
0000
0000
0000
0000
0000
0220
0330
0000
0000
0000
0000
0000
0000
0000
0000
0000
0000
0000
0000
0000
0000
0000
0000
0000
0000
0000
0000
0000
0000
,
0022
0033
0000
0000
0000
0000
0000
0000
0000
0000
0000
0000
0000
0000
0000
0000
0000
0000
0000
0000
0000
0000
0000
0000
2002
3003
0000
0000
0000
0000
0000
0000
0000
0000
0000
0000
0000
0000
0000
0000
0000
0000
0000
0000
0000
0000
0000
0000
1000
0000
0000
0000
0000
0000
0000
0000
0000
0000
0000
0000
0000
0000
0000
0000
0000
0000
0000
0000
0000
0000
0000
0000
0100
0000
0000
0000
0000
0000
0000
0000
0000
0000
0000
0000
0010
0000
0000
0000
0000
0000
0000
0000
0000
0000
0000
0000
0100
0000
0000
0000
0000
0000
0000
0000
0000
0000
0000
0000
0000
0000
0000
0000
0000
0000
0000
0000
0000
0000
0000
0000
0001
0000
0000
0000
0000
0000
0000
0000
0000
0000
0000
0000
0000
0000
0000
0000
0000
0000
0000
0000
0000
0000
0000
0000
0100
0000
0000
0000
0000
0000
0000
0000
0000
0000
0000
0000
0010
0000
0000
0000
0000
0000
0000
0000
0000
0000
0000
0000
0100
0000
0000
0000
0000
0000
0000
0000
0000
0000
0000
0000
0000
0000
0000
0000
0000
0000
0000
0000
0000
0000
0000
0000
,
1000
0001
1000
0000
0001
0000
0100
0000
1000
0000
0001
0000
0010
0000
1000
0000
,
0001
0000
1000
0000
0001
0000
1000
0010
1000
0000
0010
0100
0010
0000
0100
0001
,
0100
0000
0001
1000
0001
0000
0010
0100
0010
0000
0100
1000
0001
0000
1000
0100
,
0010
0001
1000
0100
0010
0000
0000
0000
0011
0000
0000
0000
1100
0000
0000
0000
,
0001
1000
0000
0001
0100
0010
0110
0000
,
1001
0000
0000
0000
1000
0010
1000
0000
0001
0100
0001
0000
1000
0000
0010
0000
,
0100
0002
0000
0103
0010
1000
0002
1000
,
1003
0000
0000
0000
0001
0010
0001
0000
1000
0100
1000
0000
0001
0000
0010
0000
,
0100
0000
2000
0000
0000
0000
3001
0000
0100
0010
0100
0000
0001
0000
1000
0000
,
0010
0000
0100
0000
0001
0100
0001
0000
1000
0010
1000
0000
0001
0000
0100
0000
,
0010
0000
2000
0000
0000
0000
3001
0000
0010
0100
0010
0000
0001
0000
1000
0000
,
0010
0000
0000
0100
0000
0000
0001
0000
0000
0000
0000
0000
1000
0000
0100
0000
1000
0000
0001
0000
0100
0000
0001
0000
,
1000
0000
0000
0000
0010
0000
0000
0000
0100
0000
0000
0000
0001
0000
0000
0010
0000
0000
0000
0000
0000
0100
0000
0000
1000
0000
0000
0000
0000
0000
0001
0000
0000
0000
0000
0000
1001
0000
0000
0000
0000
0000
0000
0000
0000
0000
0000
0000
,
0000
0000
0000
0000
0001
0000
0000
0001
0100
0000
0010
0000
1000
0000
0000
0000
,
1000
0000
0000
1000
0100
0000
0001
0000
0100
0000
1000
0000
0001
0000
0100
0010
,
0100
0010
0100
0000
0000
0000
0001
0000
1000
0000
0100
0000
0011
0000
0000
0000
,
0101
0010
0000
0010
1000
0100
0001
0000
,
0001
0000
0100
0000
1000
0000
0010
0000
0100
0000
0001
0000
1000
0000
0100
0010
,
1000
0000
0001
0000
0100
0000
1000
0010
0100
0000
1000
0000
0100
0000
0001
0010
,
0100
0000
0010
0000
0001
0000
1000
0010
0100
0000
0001
0000
0101
0000
0000
0000
,
1010
0000
0000
0000
0000
0000
0000
0000
0000
0000
0000
0000
0000
0000
0000
0000
0000
0000
0000
0000
0000
0000
0000
0000
0000
0000
0000
0000
0000
0000
0000
0000
0000
0000
0000
0000
0000
0000
0000
0000
0000
0000
0000
0000
0000
0000
0000
0000
1100
0000
0000
0000
0000
0000
0000
0000
0000
0000
0000
0000
0000
0000
0000
0000
0000
0000
0000
0000
0000
0000
0000
0000
0000
0000
0000
0000
0000
0000
0000
0000
0000
0000
0000
0000
0000
0000
0000
0000
0000
0000
0000
0000
0000
0000
0000
0000
0011
0000
0000
0000
0000
0000
0000
0000
0000
0000
0000
0000
0000
0000
0000
0000
0000
0000
0000
0000
0000
0000
0000
0000
0000
0000
0000
0000
0000
0000
0000
0000
0000
0000
0000
0000
0000
0000
0000
0000
0000
0000
0000
0000
0000
0000
0000
0000
2002
3003
0000
0000
0000
0000
0000
0000
0000
0000
0000
0000
0000
0000
0000
0000
0000
0000
0000
0000
0000
0000
0000
0000
2002
3003
0000
0000
0000
0000
0000
0000
0000
0000
0000
0000
0000
0000
0000
0000
0000
0000
0000
0000
0000
0000
0000
0000
,
1000
0000
0100
0000
0010
0000
0001
0000
1001
0000
0000
0001
0100
0000
1000
0000
,
0100
0001
1000
0100
0010
0011
0000
0011
,
0001
0000
0100
0010
0100
0000
1000
0000
1100
0000
0000
0100
0001
0000
0010
0000
,
0110
0000
0000
0100
1000
0000
0001
0000
0101
0000
0000
0000
1100
0000
0000
0000
,
1010
1000
0001
0010
0011
0010
0110
0010
,
0011
0000
0001
0000
0101
0000
0100
0010
1000
0000
0100
0000
0001
0000
0100
0000
,
1000
0110
1001
0110
,
1001
1000
0010
0100
0000
0100
0001
0010
,
0200
0010
0310
0000
0012
0013
2010
3010
,
0012
0013
0000
0110
0000
1100
1000
0100
,
0010
0001
1000
0000
2010
3010
0012
0013
,
2010
0000
0000
0000
0000
0000
0000
0000
0000
0000
0000
0000
0000
0000
0000
0000
0000
0000
0000
0000
0000
0000
0000
0000
3010
0000
0000
0000
0000
0000
0000
0000
0000
0000
0000
0000
0000
0000
0000
0000
0000
0000
0000
0000
0000
0000
0000
0000
0000
0000
0000
0000
0000
0000
0000
0000
0000
0000
0000
0000
0000
0000
0000
0000
0000
0000
0000
0000
0000
0000
0000
0000
0001
0000
0000
0000
0000
0000
0000
0000
0000
0000
0000
0000
0000
0000
0000
0000
0000
0000
0000
0000
0000
0000
0000
0000
0202
0303
0000
0000
0000
0000
0000
0000
0000
0000
0000
0000
0000
0000
0000
0000
0000
0000
0000
0000
0000
0000
0000
0000
0220
0330
0000
0000
0000
0000
0000
0000
0000
0000
0000
0000
0000
0000
0000
0000
0000
0000
0000
0000
0000
0000
0000
0000
2020
3030
0000
0000
0000
0000
0000
0000
0000
0000
0000
0000
0000
0000
0000
0000
0000
0000
0000
0000
0000
0000
0000
0000
2002
3003
0000
0000
0000
0000
0000
0000
0000
0000
0000
0000
0000
0000
0000
0000
0000
0000
0000
0000
0000
0000
0000
0000
,
0001
0000
1000
0100
0010
0000
0100
0000
0010
0100
1000
0000
1000
0010
0100
0000
,
0001
0010
1000
0001
0100
1000
0001
1000
,
0001
0000
1000
0010
0100
0000
1000
0100
0001
0000
0010
0100
1000
0000
0001
0010
,
1000
0000
0001
0100
0010
0000
0001
1000
0010
0000
0100
0001
0010
0100
1000
0001
,
0100
0000
0110
0000
1001
0000
0001
0100
,
0000
0100
0001
0010
1001
0100
0010
0100
,
0002
0000
0000
0000
0010
0000
0023
0000
0000
0000
0130
0000
1000
0000
0001
0100
,
0002
0000
0013
0100
1000
0001
0100
1000
,
1100
0000
0100
0001
0011
0000
0010
0100
,
1100
0000
0011
0000
1001
0001
0100
0010
,
2000
0000
0010
3020
0000
0130
0001
1000
,
1100
0000
0101
0000
0210
0000
0010
0320
,
0000
1030
0100
0001
0100
1000
0001
0101
,
0000
0000
0001
0100
0010
0000
1000
0000
1001
0000
0000
0000
0000
0000
0000
0000
;

//--------------- dance-single - ----------------
#NOTES:
     dance-single:
     :
     Challenge:
     17:
     0,0,0,0,0:
0000
0000
0000
0000
,
0000
0000
0000
0000
,
0000
0000
0000
0000
,
0000
0000
0000
0000
,
0001
0010
0001
0000
1000
0100
1000
0000
0001
0010
0100
1000
0001
0000
0020
0000
,
0000
0130
0010
0001
2000
0001
3001
0000
,
1000
0010
1000
0000
0001
0100
0001
0000
1000
0010
0100
0001
1000
0000
0200
0000
,
0000
0000
0310
0000
0100
1000
0100
1000
0001
0000
0100
0000
0010
0000
1000
0000
,
0001
0100
0001
0000
1000
0010
1000
0000
0001
0100
0010
1000
0001
0000
0020
0000
,
0000
0000
0130
0000
0010
0001
1000
0000
0010
0100
0001
0000
0100
0000
0010
0000
,
0000
0010
1000
0001
1000
0001
0010
0100
,
0000
0000
0100
0000
1000
0000
0001
0100
0001
0000
1000
0100
1000
0000
0010
0000
,
0110
0000
0000
0100
0001
0000
0010
0000
0100
1000
0001
0000
1200
0000
0310
0000
,
0201
0000
0310
0000
0100
0000
0001
0000
1000
0000
0100
0000
0010
0100
1000
0100
,
1000
0000
0001
0000
0100
0000
0010
0000
0000
0000
0100
0001
0010
0000
0100
0000
,
1000
0100
0010
0100
1000
0000
0010
0100
0010
0000
1000
0000
0001
0000
1000
0000
,
0010
0000
0000
0100
0001
0000
0010
0100
0010
0000
0100
0000
1000
0000
0001
0000
,
0000
0000
1000
0010
1000
0000
0010
0100
0010
0000
0001
0000
0010
1000
0010
0000
,
1000
0000
0001
0010
0001
0000
0010
0000
0100
0000
0000
0000
0100
0000
1000
0000
,
0010
0000
0100
0001
0010
0000
0100
0000
2000
0000
0010
0000
3010
0000
0000
0000
,
0101
0000
0000
0100
0010
0000
1000
0000
0001
0000
0000
0010
0100
0000
1000
0000
,
0001
0000
1000
0010
0100
0000
0010
1000
0001
0000
0010
0000
0100
0000
0010
0001
,
1000
0000
0000
0010
0100
0000
1000
0000
0100
0000
0000
0100
0001
0000
0010
0000
,
0100
1000
0000
1000
0100
0010
0000
0010
0001
1000
0010
0000
0110
0000
0000
0000
,
1001
0000
0000
0001
0010
0000
1000
0000
0001
0000
0100
1000
0010
0000
0100
0000
,
0010
0000
0100
0001
0010
0000
0100
0000
1000
0000
0001
0000
0100
0000
0000
0000
,
0001
0010
0100
0010
0001
0000
1001
0000
1000
0010
0100
0010
1000
0000
0010
0000
,
0110
0000
0100
0001
0100
0010
0100
0001
1000
0000
0000
0000
1001
0000
0000
0000
,
0001
0000
0000
0000
1000
0000
0100
0000
1000
0000
0000
0000
0010
0000
0100
0001
0100
0000
0000
0010
0000
0000
1000
0000
1000
0000
0100
0000
0010
0000
0100
0000
,
1000
0000
0000
0000
0001
0000
0100
0000
0010
0000
0000
0000
1000
0000
0010
0100
0010
0000
0000
1000
0000
0000
0001
0000
0010
0000
0100
0000
1000
0000
0001
0000
,
0101
0000
0100
0000
0110
0000
0010
0000
1000
0000
0100
0010
0100
0000
1000
0000
,
1100
0000
0100
0000
0110
0000
0010
0000
0001
0000
1000
0010
0100
0010
0100
0001
,
1000
0000
0001
0010
0001
0000
0010
0100
0010
0000
0100
1000
0100
0000
1000
0001
,
1000
0000
0010
1000
0010
0000
0100
0010
0100
0000
0001
0100
0001
0000
1000
0001
,
1000
0100
0001
0100
1000
0100
0001
0100
,
2200
3300
0000
0000
0000
0000
0000
0000
0000
0000
0000
0000
0000
0000
0000
0000
0000
0000
0000
0000
0000
0000
0000
0000
0022
0033
0000
0000
0000
0000
0000
0000
0000
0000
0000
0000
0000
0000
0000
0000
0000
0000
0000
0000
0000
0000
0000
0000
0010
0000
0000
0000
0000
0000
0000
0000
0000
0000
0000
0000
0000
0000
0000
0000
0000
0000
0000
0000
0000
0000
0000
0000
0001
0000
0000
0000
0000
0000
0000
0000
0000
0000
0000
0000
0000
0000
0000
0000
0000
0000
0000
0000
0000
0000
0000
0000
1000
0000
0000
0000
0000
0000
0000
0000
0000
0000
0000
0000
0000
0000
0000
0000
0000
0000
0000
0000
0000
0000
0000
0000
0100
0000
0000
0000
0000
0000
0000
0000
0000
0000
0000
0000
0000
0000
0000
0000
0000
0000
0000
0000
0000
0000
0000
0000
0110
0000
0000
0000
0000
0000
0000
0000
0000
0000
0000
0000
0000
0000
0000
0000
0000
0000
0000
0000
0000
0000
0000
0000
0000
0000
0000
0000
0000
0000
0000
0000
0000
0000
0000
0000
0010
0000
0000
0000
0000
0000
0000
0000
0000
0000
0000
0000
,
0001
0000
0100
0000
0001
0000
1000
0010
0100
0000
0010
0000
1000
0000
0100
0001
,
0100
0000
0010
0100
0010
0000
0100
1000
0100
0000
1000
0000
0010
0000
0000
0010
,
0100
0000
0001
0000
0010
0000
0000
0010
0100
0000
1000
0000
1100
0000
0000
0000
,
1010
0000
0101
0001
0100
0010
1010
1000
,
0110
0000
0010
0000
1100
0000
1000
0000
0110
0000
0100
1000
0001
0000
0100
0000
,
0010
0000
0000
1000
0000
0000
0001
0000
0000
0000
0000
0000
1000
0000
0000
0010
0100
0010
0100
0000
0000
0001
0000
0000
,
0011
0000
0000
0000
1100
0000
1000
0100
0010
0000
0001
0000
0000
0000
0001
0000
,
0100
0010
2000
0001
3001
0000
1100
0001
,
1100
0000
0001
0000
1100
0000
0002
0000
0000
0000
1003
0000
0000
0000
1000
0010
,
0100
0000
1000
0100
0010
0000
1000
0100
0010
0000
0000
0000
0101
0000
1000
0000
,
0101
0000
0000
0000
0000
0000
0000
0000
0000
0000
0000
0000
0000
0000
0000
0000
0000
0000
0000
0000
0000
0000
0000
0000
1000
0000
0000
0000
0000
0000
0000
0000
0000
0000
0000
0000
0000
0000
0000
0000
0000
0000
0000
0000
0000
0000
0000
0000
0101
0000
0000
0000
0000
0000
0000
0000
0000
0000
0000
0000
0000
0000
0000
0000
0000
0000
0000
0000
0000
0000
0000
0000
2000
0000
0000
0000
0000
0000
0000
0000
0000
0000
0000
0000
0000
0000
0000
0000
0000
0000
0000
0000
0000
0000
0000
0000
0000
0000
0000
0000
0000
0000
0000
0000
0000
0000
0000
0000
0000
0000
0000
0000
0000
0000
0000
0000
0000
0000
0000
0000
3100
0000
0000
0000
0000
0000
0000
0000
0000
0000
0000
0000
0000
0000
0000
0000
0000
0000
0000
0000
0000
0000
0000
0000
0022
0033
0000
0000
0000
0000
0000
0000
0000
0000
0000
0000
0000
0000
0000
0000
0000
0000
0000
0000
0000
0000
0000
0000
2020
3030
0000
0000
0000
0000
0000
0000
0000
0000
0000
0000
0000
0000
0000
0000
0000
0000
0000
0000
0000
0000
0000
0000
,
2200
3300
0000
0000
0000
0000
0000
0000
0000
0000
0000
0000
0000
0000
0000
0000
0000
0000
0000
0000
0000
0000
0000
0000
0202
0303
0000
0000
0000
0000
0000
0000
0000
0000
0000
0000
0000
0000
0000
0000
0000
0000
0000
0000
0000
0000
0000
0000
0001
0000
0000
0000
0000
0000
0000
0000
0000
0000
0000
0000
0100
0000
0000
0000
0000
0000
0000
0000
0000
0000
0000
0000
0010
0000
0000
0000
0000
0000
0000
0000
0000
0000
0000
0000
0100
0000
0000
0000
0000
0000
0000
0000
0000
0000
0000
0000
0001
0000
0000
0000
0000
0000
0000
0000
0000
0000
0000
0000
0000
0000
0000
0000
0000
0000
0000
0000
0000
0000
0000
0000
1000
0000
0000
0000
0000
0000
0000
0000
0000
0000
0000
0000
0000
0000
0000
0000
0000
0000
0000
0000
0000
0000
0000
0000
0100
0000
0000
0000
0000
0000
0000
0000
0000
0000
0000
0000
0010
0000
0000
0000
0000
0000
0000
0000
0000
0000
0000
0000
0100
0000
0000
0000
0000
0000
0000
0000
0000
0000
0000
0000
0000
0000
0000
0000
0000
0000
0000
0000
0000
0000
0000
0000
,
0010
0001
0100
0000
0010
0000
1000
0000
0100
0000
0010
0000
0001
0000
1000
0000
,
0001
0000
1000
0000
0001
0010
0001
0000
1000
0100
0010
0001
0010
0100
1000
0001
,
0010
0100
0010
0001
1000
0000
0001
0100
0010
0100
0010
1000
0001
0000
1000
0010
,
0100
0001
0100
0010
1000
0000
0000
0000
1100
0000
0000
0000
0011
0000
0000
0000
,
0001
1000
0000
0001
0100
0010
0110
0000
,
1001
0000
0000
0000
1000
0100
1000
0000
0001
0100
0001
0000
1000
0100
1000
0001
,
0100
0020
0000
0130
0001
1000
0200
0010
,
0310
0000
0000
0000
0001
0010
0001
0000
1000
0010
1000
0000
0001
0010
0001
1000
,
0010
0000
0200
0000
0000
0000
0310
0000
1000
0001
1000
0001
0010
0000
0100
0000
,
1000
0000
0100
0000
0010
0001
0010
0000
0100
1000
0100
0000
0010
0001
1000
0010
,
0100
0000
0002
0000
0000
0000
1003
0000
0100
0010
0001
0000
0010
0100
1000
0000
,
0001
0000
0000
0100
0000
0000
0010
0000
0000
0000
0000
0000
1000
0000
0010
0000
0001
0000
1000
0000
0100
0000
0001
0000
,
1000
0000
0000
0000
0100
0000
0000
0000
0010
0000
0000
0000
0001
0000
0000
1000
0000
0000
0000
0000
0000
0010
0000
0000
0100
0000
0000
0000
0000
0000
0001
0000
0000
0000
0000
0000
1001
0000
0000
0000
0000
0000
0000
0000
0000
0000
0000
0000
,
0000
0000
0000
0000
0100
0000
0000
0001
1000
0000
1000
0000
0100
0000
0000
0000
,
0011
0000
0000
1000
0010
0000
1000
0000
0010
0000
0100
0000
0001
0000
1000
0100
,
1000
0100
0020
0000
0000
0000
0031
0000
1000
0000
0001
0000
0101
0000
0000
0000
,
1010
0000
1000
0010
0100
0001
1010
0100
,
0000
0000
0010
0000
1010
0000
1000
0000
0001
0000
0100
0001
0010
0000
0100
0010
,
0001
0000
0100
0010
0001
0000
1000
0100
0001
0000
1000
0100
0010
0000
1000
0010
,
0100
0000
1000
0010
0100
0000
1000
0100
0001
0000
1000
0000
1010
0000
0010
0000
,
0011
0000
0000
0000
0000
0000
0000
0000
0000
0000
0000
0000
0000
0000
0000
0000
0000
0000
0000
0000
0000
0000
0000
0000
0001
0000
0000
0000
0000
0000
0000
0000
0000
0000
0000
0000
0000
0000
0000
0000
0000
0000
0000
0000
0000
0000
0000
0000
0101
0000
0000
0000
0000
0000
0000
0000
0000
0000
0000
0000
0000
0000
0000
0000
0000
0000
0000
0000
0000
0000
0000
0000
0100
0000
0000
0000
0000
0000
0000
0000
0000
0000
0000
0000
0000
0000
0000
0000
0000
0000
0000
0000
0000
0000
0000
0000
1100
0000
0000
0000
0000
0000
0000
0000
0000
0000
0000
0000
0000
0000
0000
0000
0000
0000
0000
0000
0000
0000
0000
0000
1000
0000
0000
0000
0000
0000
0000
0000
0000
0000
0000
0000
0000
0000
0000
0000
0000
0000
0000
0000
0000
0000
0000
0000
2002
3003
0000
0000
0000
0000
0000
0000
0000
0000
0000
0000
0000
0000
0000
0000
0000
0000
0000
0000
0000
0000
0000
0000
2002
3003
0000
0000
0000
0000
0000
0000
0000
0000
0000
0000
0000
0000
0000
0000
0000
0000
0000
0000
0000
0000
0000
0000
,
0001
0000
0100
0000
0010
0000
1000
0000
1010
0000
0000
1000
0100
0000
0010
0000
,
0100
0000
1000
0001
0100
0000
0010
0000
0100
0000
1000
0100
1000
0000
0100
0010
,
0100
0000
0001
0100
0001
0000
0010
0000
1100
0000
0000
1000
0010
0000
0100
0000
,
0101
0000
0000
0001
0010
0000
0100
0000
1100
0000
0000
0000
1010
0000
0000
0000
,
0101
0100
0001
0010
0011
0100
0110
0001
,
0101
0000
0010
0000
0110
0000
0100
0001
1000
0000
0100
0000
0001
0000
0100
0000
,
2000
0000
0000
0000
0000
0000
3001
0000
0000
0100
0010
0100
0010
0000
0000
1000
0000
0000
1010
0000
0000
0000
0000
0000
,
0101
0000
0100
0001
1000
0000
0200
0000
0000
0000
0310
0000
0001
0000
0100
0000
,
0002
1000
1003
0000
0011
0100
0011
0100
,
0011
0000
0200
0000
0000
0000
0310
0000
0000
0000
0010
0001
1000
0000
0001
0100
,
0010
0000
0001
0010
1000
0000
0000
0000
1010
0000
0100
0000
1010
0000
0100
0000
,
1010
0000
0000
0000
0000
0000
0000
0000
0000
0000
0000
0000
0000
0000
0000
0000
0000
0000
0000
0000
0000
0000
0000
0000
0200
0000
0000
0000
0000
0000
0000
0000
0000
0000
0000
0000
0000
0000
0000
0000
0000
0000
0000
0000
0000
0000
0000
0000
0000
0000
0000
0000
0000
0000
0000
0000
0000
0000
0000
0000
0000
0000
0000
0000
0000
0000
0000
0000
0000
0000
0000
0000
0310
0000
0000
0000
0000
0000
0000
0000
0000
0000
0000
0000
0000
0000
0000
0000
0000
0000
0000
0000
0000
0000
0000
0000
2020
3030
0000
0000
0000
0000
0000
0000
0000
0000
0000
0000
0000
0000
0000
0000
0000
0000
0000
0000
0000
0000
0000
0000
2200
3300
0000
0000
0000
0000
0000
0000
0000
0000
0000
0000
0000
0000
0000
0000
0000
0000
0000
0000
0000
0000
0000
0000
0202
0303
0000
0000
0000
0000
0000
0000
0000
0000
0000
0000
0000
0000
0000
0000
0000
0000
0000
0000
0000
0000
0000
0000
0022
0033
0000
0000
0000
0000
0000
0000
0000
0000
0000
0000
0000
0000
0000
0000
0000
0000
0000
0000
0000
0000
0000
0000
,
0010
0100
1000
0010
0100
0000
1000
0000
0100
0001
0010
0000
0100
1000
0001
0000
,
0100
0010
1000
0010
0001
1000
0100
0001
,
1000
0100
0010
0000
1000
0010
1000
0010
0001
1000
0010
1000
0010
0001
1000
0100
,
0001
0000
1000
0100
1000
0100
0001
1000
0010
0000
0001
1000
0100
1000
0100
0010
,
0001
0000
0011
0000
1100
1000
0001
0100
,
0000
0010
0100
0110
1001
0001
0100
0010
,
1010
0000
0000
0000
0110
0000
0100
0000
0001
0000
1000
0100
1000
0000
0010
0100
,
0010
0000
1000
0000
0001
0000
0010
0000
0100
0010
0001
0010
0100
0000
1000
0000
,
1100
0000
0000
1000
0010
0000
0100
0000
0101
0000
0000
0001
0010
0000
0100
0000
,
1000
0000
0001
0100
0010
0000
1000
0010
0100
0000
0001
0010
0100
0000
1000
0000
,
0002
0000
0000
0000
0010
0000
0000
0000
0103
0000
1000
0000
0100
0000
0001
1000
,
0020
0000
0000
0000
0100
0000
0000
0000
1030
0000
0100
0000
0001
0000
0100
1000
,
0010
0110
0100
0001
0011
0100
1000
1100
,
0000
0000
1000
0010
0100
0000
0001
0000
1001
0000
0000
0000
0000
0000
0000
0000
;

//--------------- dance-single - ----------------
#NOTES:
     dance-single:
     :
     Edit:
     18:
     0,0,0,0,0:
0000
0000
0000
0000
,
0000
0000
0000
0000
0000
0000
0000
0000
1000
0100
0010
0001
1000
0100
0010
0001
,
0011
1001
0000
0000
1100
0000
0000
0101
,
0000
0000
1000
0000
0001
0010
0100
1000
0001
0000
1001
0000
1001
0000
0000
0000
,
0001
0100
0001
0010
0100
0010
0001
1000
0001
0100
0010
0100
0001
0010
0200
0000
,
0000
1300
0010
0100
0001
0011
1001
0000
,
1000
0100
1000
0010
0100
0010
1000
0001
1000
0100
0010
0100
1000
0010
0200
0000
,
0000
0000
0310
0000
1000
0001
1000
0001
0011
0000
0110
0000
1100
0000
1000
0001
,
0100
0010
0100
0001
0010
0001
1000
0100
1000
0010
0100
0010
1000
0001
0020
0000
,
0000
0000
0130
0000
0100
1000
0010
0000
0010
1000
0100
0000
0100
1000
0001
0100
,
0101
0000
1001
0000
1000
0000
0100
0000
1100
0000
1000
0100
0010
0001
2000
0000
,
0000
0000
3010
0000
0110
0000
0100
0001
1000
0000
1100
0000
1100
0000
1100
0000
,
1001
0000
0001
0100
0010
0000
0100
0001
0010
0100
1000
0001
0102
0000
0013
0000
,
2100
0000
3010
0100
0010
0000
0100
0001
1000
0100
1000
0010
0100
0010
1000
0001
,
0010
0100
1000
0001
0100
0000
1000
0100
0010
0000
0100
0001
0020
0000
0100
0000
,
0130
1000
0010
1000
0010
0000
1000
0000
0101
0000
1010
0000
0101
0000
1010
0000
,
0101
0000
0001
0010
0100
0000
0100
1000
0010
0000
0001
0000
0010
0000
1000
0000
,
0100
0000
0001
0100
0001
0000
0100
1000
0100
0000
1000
0010
0100
0010
1000
0000
,
0001
0000
0001
0010
0100
0000
1000
0000
1100
0000
0000
0000
0101
0000
0010
0000
,
1001
0000
0001
0100
1000
0000
1000
0100
0002
0000
1000
0000
1003
0000
0000
0000
,
1001
0000
1000
0100
0001
0000
0100
1000
0001
0000
1000
0010
0001
0000
0010
1000
,
0001
0000
1000
0100
0001
0000
0100
1000
0002
0000
0100
0000
0103
0000
0010
1000
,
0001
0100
0010
0100
1000
0100
0010
0100
0001
0010
0100
0010
1000
0010
0100
0010
,
0001
1000
0000
1000
0010
0100
0000
0100
0001
0010
0100
0000
0110
0000
0010
0001
,
1000
0000
0001
0100
1000
0000
0100
0001
1000
0000
0001
0010
1000
0000
0010
0001
,
1000
0000
0000
0000
0000
0000
0001
0000
0000
0100
0000
0000
1000
0000
0000
0000
0000
0000
0100
0000
0000
0000
0000
0000
0110
0000
0000
0000
0000
0000
0010
0000
0000
0000
0000
0000
0100
0000
0001
0000
1000
0000
0001
0000
1000
0000
0001
0000
,
0010
0000
0110
0000
0100
1000
0001
1000
0001
0000
0100
0000
1010
0000
0000
0000
,
1001
0000
0001
0100
1000
0100
0001
0010
0100
0000
0000
0000
1001
0000
0000
0000
,
0001
0000
0000
1000
0100
0000
0010
0000
0011
0000
0000
0000
0001
0000
1000
0010
1000
0000
0000
0001
0000
0000
0001
0100
0001
0000
0010
0000
0100
0000
1000
0000
,
0001
0000
0000
0001
0010
0000
0100
0000
1000
0000
0000
1000
0010
0000
0100
0001
1000
0000
0000
0001
1000
0000
0010
0100
0001
0000
0010
0000
0100
0000
1000
0000
,
1100
0000
0000
0000
1100
0000
0000
0000
1001
0000
0010
0100
0010
0000
0100
0000
,
0010
0000
0000
0000
0000
0000
0101
0000
0000
0000
0000
0000
0000
0000
0000
0000
0000
0000
1010
0000
0000
0000
0000
0000
0001
0000
0000
0000
0000
0000
0010
0000
0000
0000
0000
0000
0100
0000
0000
1000
0000
0000
0001
0000
0010
0000
0001
0000
,
0010
0000
0000
0000
0000
0000
0100
0000
1000
0000
0100
0000
1000
0000
0000
0001
0000
0000
0010
0000
0000
0100
0000
0000
1000
0000
0001
0000
0010
0000
0100
0000
1000
0000
0001
0000
0010
0000
0000
0000
0000
0000
0010
0000
0000
0100
0000
0000
,
1000
0000
0000
0001
0000
0000
1000
0000
0010
0000
1000
0000
0010
0000
0000
0100
0000
0000
0001
0000
0000
1000
0000
0000
0010
0000
0100
0000
0001
0000
1000
0000
0010
0000
0100
0000
0001
0000
0000
0000
0000
0000
0010
0000
0000
0100
0000
0000
,
0010
0000
0000
0000
0000
0000
0001
0000
1000
0000
0001
0000
1000
0000
0000
0000
0000
0000
0010
0000
0000
0100
0000
0000
0010
0000
0000
0000
0000
0000
1000
0000
0001
0000
1000
0000
0001
0000
0000
0000
0000
0000
0010
0000
0000
0000
0000
0000
,
0220
0330
0000
0000
0000
0000
0000
0000
0000
0000
0000
0000
0000
0000
0000
0000
0000
0000
0000
0000
0000
0000
0000
0000
0220
0330
0000
0000
0000
0000
0000
0000
0000
0000
0000
0000
0000
0000
0000
0000
0000
0000
0000
0000
0000
0000
0000
0000
0110
0000
0000
0000
0000
0000
0000
0000
0000
0000
0000
0000
0000
0000
0000
0000
0000
0000
0000
0000
0000
0000
0000
0000
0110
0000
0000
0000
0000
0000
0000
0000
0000
0000
0000
0000
0000
0000
0000
0000
0000
0000
0000
0000
0000
0000
0000
0000
1001
0000
0000
0000
0000
0000
0000
0000
0000
0000
0000
0000
0000
0000
0000
0000
0000
0000
0000
0000
0000
0000
0000
0000
0000
0000
0000
0000
0000
0000
0000
0000
0000
0000
0000
0000
0000
0000
0000
0000
0000
0000
0000
0000
0000
0000
0000
0000
1001
0000
0000
0000
0000
0000
0000
0000
0000
0000
0000
0000
0000
0000
0000
0000
0000
0000
0000
0000
0000
0000
0000
0000
0001
0000
0000
0000
0000
0000
0000
0000
0000
0000
0000
0000
0100
0000
0000
0000
0000
0000
0000
0000
0000
0000
0000
0000
,
1000
0000
0100
0000
0001
0000
1000
0100
0001
0000
0100
0000
1100
0000
1000
0010
,
0100
0000
0100
1000
0100
0000
0100
0001
0010
0000
0100
0000
1100
0000
1000
0010
,
0100
0000
0000
0000
0000
0000
0101
0000
0000
0000
0000
0000
0011
0000
0000
0000
0000
0000
0001
0000
0000
0010
0000
0000
0100
0000
0000
0000
0000
0000
1100
0000
0000
0000
0000
0000
1010
0000
0000
0000
0000
0000
0010
0000
0100
0000
0010
0000
,
0100
0000
0000
0000
0000
0000
0010
0000
0100
0000
0010
0000
0100
0000
0000
0001
0000
0000
0010
0000
0000
0000
0000
0000
0010
0000
0000
0001
0000
0000
0100
0000
0000
0010
0000
0000
0100
0000
0000
1000
0000
0000
0100
0000
0000
0010
0000
0000
,
0100
0000
0000
1000
0000
0000
0100
0000
0000
0001
0000
0000
0010
0000
0000
0100
0000
0000
0001
0000
0000
0100
0000
0000
0010
0000
0000
0100
0000
0000
0001
0000
0000
0100
0000
0000
1000
0000
0000
0000
0000
0000
0001
0000
0100
0000
0001
0000
,
0100
0000
0000
0010
0000
0000
1010
0000
0000
1001
0000
0000
1000
0100
0010
0001
1000
0100
0010
0000
0000
0001
0000
0000
,
0011
0000
0000
0110
0000
0000
1100
0000
0000
1000
0100
0010
0001
0000
0000
0011
0000
0000
0000
0000
0000
0011
0000
0000
,
0110
0000
1100
0000
2001
0000
0001
0000
3001
0100
0001
0100
1010
0000
0101
0000
,
1010
0000
0101
0000
1010
0000
0101
0000
0001
0000
2000
0010
3100
0000
0020
1000
,
0031
0000
2000
0100
3010
0000
0200
1000
0301
0000
1000
0000
0011
0000
1100
0000
,
0011
0000
0000
0000
0000
0000
0000
0000
0000
0000
0000
0000
0000
0000
0000
0000
0000
0000
0000
0000
0000
0000
0000
0000
1100
0000
0000
0000
0000
0000
0000
0000
0000
0000
0000
0000
0000
0000
0000
0000
0000
0000
0000
0000
0000
0000
0000
0000
0011
0000
0000
0000
0000
0000
0000
0000
0000
0000
0000
0000
0000
0000
0000
0000
0000
0000
0000
0000
0000
0000
0000
0000
1100
0000
0000
0000
0000
0000
0000
0000
0000
0000
0000
0000
0000
0000
0000
0000
0000
0000
0000
0000
0000
0000
0000
0000
1000
0000
0000
0000
0000
0000
0000
0000
0000
0000
0000
0000
0000
0000
0000
0000
0000
0000
0000
0000
0000
0000
0000
0000
0001
0000
0000
0000
0000
0000
0000
0000
0000
0000
0000
0000
0100
0000
0000
0000
0000
0000
0000
0000
0000
0000
0000
0000
0202
0303
0000
0000
0000
0000
0000
0000
0000
0000
0000
0000
0000
0000
0000
0000
0000
0000
0000
0000
0000
0000
0000
0000
2200
3000
0300
0000
0000
0000
0000
0000
0000
0000
0000
0000
0000
0000
0000
0000
0000
0000
0000
0000
0000
0000
0000
0000
,
2020
3030
0000
0000
0000
0000
0000
0000
0000
0000
0000
0000
0000
0000
0000
0000
0000
0000
0000
0000
0000
0000
0000
0000
0022
0033
0000
0000
0000
0000
0000
0000
0000
0000
0000
0000
0000
0000
0000
0000
0000
0000
0000
0000
0000
0000
0000
0000
0001
0000
0000
0000
0000
0000
0000
0000
0000
0000
0000
0000
0100
0000
0000
0000
0000
0000
0000
0000
0000
0000
0000
0000
0010
0000
0000
0000
0000
0000
0000
0000
0000
0000
0000
0000
0000
0000
0000
0000
0000
0000
0000
0000
0000
0000
0000
0000
0110
0000
0000
0000
0000
0000
0000
0000
0000
0000
0000
0000
0000
0000
0000
0000
0000
0000
0000
0000
0000
0000
0000
0000
0100
0000
0000
0000
0000
0000
0000
0000
0000
0000
0000
0000
0001
0000
0000
0000
0000
0000
0000
0000
0000
0000
0000
0000
0100
0000
0000
0000
0000
0000
0000
0000
0000
0000
0000
0000
0001
0000
0000
0000
0000
0000
0000
0000
0000
0000
0000
0000
0010
0000
0000
0000
0000
0000
0000
0000
0000
0000
0000
0000
0100
0000
0000
0000
0000
0000
0000
0000
0000
0000
0000
0000
,
1000
0000
0000
0100
0000
0000
1000
0000
0000
0001
0000
0000
0100
0000
0000
0000
0000
0000
0100
0000
0000
0010
0000
0000
0100
0000
0000
0000
0000
0000
0100
0000
0000
0001
0000
0000
1000
0000
0000
0000
0000
0000
1000
0000
0100
0000
0010
0000
,
0001
0000
0000
0000
0000
0000
1000
0000
0100
0000
0010
0000
0001
0000
0000
1000
0000
0000
0100
0000
0000
0010
0000
0000
0001
0000
0000
0100
0000
0000
0010
0000
0000
1000
0000
0000
0001
0000
0000
0100
0000
0000
0010
0000
0000
1000
0000
0000
,
0001
0000
0010
0000
0100
0000
1000
0000
0000
0001
0000
0000
0100
0000
0000
0010
0000
0000
0100
0000
0001
0000
0010
0000
0100
0000
0000
1000
0000
0000
0010
0000
0000
0100
0000
0000
0001
0000
0000
1000
0000
0000
0010
0000
0000
0100
0000
0000
,
0001
0000
0010
0000
0100
0000
1000
0000
0000
0001
0000
0000
1000
0000
0000
0000
0000
0000
0001
0000
0100
0000
0001
0000
0100
0000
0000
0100
0000
0000
0100
0000
0000
0100
0000
0000
0100
0000
0000
0000
0000
0000
0001
0000
0010
0000
0100
0000
,
1000
0000
1001
0000
0000
0000
0011
0000
0001
1000
0100
0000
1100
0000
0000
0000
,
1001
0000
0000
0000
1000
0100
1000
0010
0100
0010
1000
0001
1000
0100
0010
0100
,
1000
0010
0200
0000
0000
0000
0301
0000
0010
0000
0100
0000
1000
0000
1010
0000
,
1001
0000
0000
0000
0001
0100
0001
0010
0100
0010
0001
1000
0001
0100
0010
0100
,
0001
0010
0200
0000
0000
0000
0310
0000
0001
1000
0001
1000
1010
0000
0110
0000
,
0101
0000
0001
1000
0100
0010
0100
1000
0010
1000
0001
0100
0001
0010
0100
0010
,
0001
1000
0020
0000
0000
0000
0130
0000
0100
0001
0010
0000
0010
0001
0100
0000
,
0100
0000
0000
0001
0000
0000
1000
0000
0000
0100
0000
0000
1100
0000
0000
0000
0000
0000
0000
0000
0000
0000
0000
0000
0101
0000
0000
0000
0100
0000
0000
0000
0001
0000
1000
0000
0100
0000
0000
0000
0010
0000
0000
0000
0001
0000
0000
0000
,
1001
0000
0000
0000
1000
0000
0000
0000
0001
0000
0000
0000
0101
0000
0000
0101
0000
0000
0000
0000
0000
1100
0000
0000
1100
0000
0000
0000
0000
0000
0110
0000
0000
0000
0000
0000
1001
0000
0000
0000
0000
0000
0000
0000
0000
0000
0000
0000
,
0000
0000
0000
0000
2000
0000
0000
0001
3001
0000
0010
0000
0200
0000
1000
0000
,
1300
0000
0000
0000
0000
0000
0000
0000
0000
0001
0010
0100
2000
0000
0000
0000
0000
0000
3010
0000
0000
0100
0000
0000
0010
0000
0000
0000
0000
0000
0100
0000
0000
0000
0000
0000
0001
0000
0000
0000
0000
0000
1000
0000
0000
0100
0000
0000
,
0010
0001
2000
0000
0000
0000
3001
0000
0100
0010
0100
0010
0100
0000
0000
0000
,
1001
0000
0000
0000
1001
0000
1000
0010
0100
0010
1000
0001
0010
0100
0010
0000
,
0000
0000
0000
0110
0000
0000
0002
0000
0000
1000
0000
0000
1003
0000
0000
0001
0010
0100
1000
0000
0000
0001
0100
0010
,
0100
0000
0000
0001
0000
0000
0010
0000
0000
0100
0000
0000
1000
0000
0000
0001
0000
0000
1000
0000
0010
0000
0100
0000
0010
0000
0000
0000
0000
0000
0100
0000
0000
0010
0000
0000
1000
0000
0000
0100
0000
0000
0010
0000
0001
0000
1000
0000
,
0001
0000
0000
0100
0000
0000
0010
0000
0000
1000
0000
0000
0001
0000
0000
1000
0000
0000
0100
0000
0010
0000
0100
0000
1000
0000
0000
0000
0000
0000
0001
0000
0000
0010
0000
0000
0100
0000
0000
0000
0000
0000
0100
0000
0010
0000
0001
0000
,
1000
0000
0000
0000
0000
0000
0000
0000
0000
0000
0000
0000
0000
0000
0000
0000
0000
0000
0000
0000
0000
0000
0000
0000
1000
0000
0000
0000
0000
0000
0000
0000
0000
0000
0000
0000
0010
0000
0000
0000
0000
0000
0000
0000
0000
0000
0000
0000
0100
0000
0000
0000
0000
0000
0000
0000
0000
0000
0000
0000
0000
0000
0000
0000
0000
0000
0000
0000
0000
0000
0000
0000
0100
0000
0000
0000
0000
0000
0000
0000
0010
0000
0000
0000
0000
0000
0000
0000
1000
0000
0000
0000
0000
0000
0000
0000
0001
0000
0000
0000
0000
0000
0000
0000
0000
0000
0000
0000
0000
0000
0000
0000
0000
0000
0000
0000
0000
0000
0000
0000
0001
0000
0000
0000
0000
0000
0000
0000
0000
0000
0000
0000
0010
0000
0000
0000
0000
0000
0000
0000
0000
0000
0000
0000
0220
0330
0000
0000
0000
0000
0000
0000
0000
0000
0000
0000
0000
0000
0000
0000
0000
0000
0000
0000
0000
0000
0000
0000
0220
0330
0000
0000
0000
0000
0000
0000
0000
0000
0000
0000
0000
0000
0000
0000
0000
0000
0000
0000
0000
0000
0000
0000
,
0110
0000
0110
0000
1001
0000
0000
0000
1001
0000
1000
0100
0001
0000
0100
0000
,
1001
0000
0001
0100
1000
0000
0100
0000
1001
0000
0001
0010
0100
0000
0100
0001
,
0100
0000
0100
1000
0010
0000
0100
0000
0101
0000
0001
0010
0100
0000
1100
0000
,
1010
0000
0000
0000
0000
0000
1000
0000
0000
0010
0000
0000
0100
0000
0000
0000
0000
0000
0101
0000
0000
0000
0000
0000
0011
0000
0000
0000
0000
0000
0010
0000
0100
0000
1000
0000
0010
0000
0000
0000
0000
0000
0100
0000
0001
0000
0010
0000
,
0100
1000
0010
0000
0010
1000
0100
0010
0100
0001
0100
0010
0100
0001
0100
1000
,
0010
0000
0000
0100
0000
0000
1000
0000
0000
0100
0000
0000
0010
0000
0000
0100
0000
0000
1000
0000
0000
0100
0000
0000
0001
0000
0000
0000
0000
0000
0001
0000
0010
0000
0100
0000
1000
0000
0000
0000
0000
0000
0100
0000
0000
0000
0000
0000
,
0110
0000
0000
0010
0000
0000
0001
0010
0100
1000
0001
0010
0100
0000
0000
1000
0000
0000
1100
0000
0000
0010
0000
0000
,
0101
0000
0000
0001
0100
0010
1000
0000
0000
1010
0000
0000
0000
0000
0000
1010
0000
0000
0110
0000
0000
0101
0000
0000
,
1002
0000
1000
0000
1003
0100
1000
0100
0011
0000
1100
0000
0011
0000
1100
0000
,
0011
0000
1100
0000
1000
0000
0002
0100
1003
0000
0200
0001
0310
0000
2000
0010
,
3001
0000
0020
0001
0130
0000
0010
0000
1010
0000
0101
0000
1010
0000
0101
0000
,
1010
0000
0000
0000
0000
0000
0000
0000
0000
0000
0000
0000
0000
0000
0000
0000
0000
0000
0000
0000
0000
0000
0000
0000
0101
0000
0000
0000
0000
0000
0000
0000
0000
0000
0000
0000
0000
0000
0000
0000
0000
0000
0000
0000
0000
0000
0000
0000
0001
0000
0000
0000
0000
0000
0000
0000
0000
0000
0000
0000
0000
0000
0000
0000
0000
0000
0000
0000
0000
0000
0000
0000
1000
0000
0000
0000
0000
0000
0000
0000
0000
0000
0000
0000
0100
0000
0000
0000
0000
0000
0000
0000
0000
0000
0000
0000
2200
3300
0000
0000
0000
0000
0000
0000
0000
0000
0000
0000
0000
0000
0000
0000
0000
0000
0000
0000
0000
0000
0000
0000
2020
3030
0000
0000
0000
0000
0000
0000
0000
0000
0000
0000
0000
0000
0000
0000
0000
0000
0000
0000
0000
0000
0000
0000
0022
0033
0000
0000
0000
0000
0000
0000
0000
0000
0000
0000
0000
0000
0000
0000
0000
0000
0000
0000
0000
0000
0000
0000
0202
0303
0000
0000
0000
0000
0000
0000
0000
0000
0000
0000
0000
0000
0000
0000
0000
0000
0000
0000
0000
0000
0000
0000
,
0001
0100
0010
0000
0110
0000
0100
0001
0010
1000
0001
0100
1000
0010
0100
0001
,
1000
0000
0000
0000
0000
0000
0001
0000
0000
0010
0000
0000
1000
0000
0000
0000
0000
0000
0001
0000
0000
0100
0000
0000
1000
0000
0000
0000
0000
0000
0001
0000
0010
0000
0100
0000
1000
0000
0000
0000
0000
0000
0001
0000
0010
0000
0100
0000
,
1000
0000
0000
0001
0000
0000
0100
0000
0000
0010
0000
0000
0001
0000
0000
0010
0000
0000
1000
0000
0000
0100
0000
0000
0010
0000
0000
1000
0000
0000
0010
0000
0000
0100
0000
0000
1000
0000
0010
0000
0100
0000
0001
0000
0000
0010
0000
0000
,
0100
0000
0000
1000
0000
0000
0001
0000
0100
0000
0010
0000
1000
0000
0000
0001
0000
0000
0010
0000
0000
1000
0000
0000
0001
0000
0000
0100
0000
0000
1000
0000
0000
0001
0000
0000
1000
0000
0010
0000
0100
0000
0001
0000
0000
0010
0000
0000
,
0100
0000
0000
0000
0000
0000
1000
0000
0100
0000
1000
0000
0100
0000
0000
0100
0000
0000
0100
0000
0000
0100
0000
0000
0100
0000
0000
0000
0000
0000
1000
0000
0100
0000
0010
0000
0001
0000
0000
0000
0000
0000
1001
0000
0000
0000
0000
0000
,
0000
0000
1010
0000
1000
0001
0100
0000
0101
0000
0001
0000
1000
0000
0001
0000
,
0100
0010
0100
0010
0100
0000
0010
1000
0001
0000
0010
0100
0010
0000
0100
1000
,
0100
0000
1000
0001
1000
0000
1001
0000
0001
0010
0100
1000
0001
0000
1000
0000
,
1100
0000
0000
1000
0100
0100
0001
0000
0000
0100
0000
0000
0101
0000
0000
0001
0100
0100
1000
0000
0000
0100
0000
0000
,
1100
0000
1000
0100
0001
0000
0100
1000
0010
0000
1000
0010
0001
0000
0010
0000
,
1000
0100
1000
0100
0001
1000
0010
0001
0100
0001
0100
1000
0001
0010
1000
0001
,
0011
0000
0000
0000
0000
0000
0010
0000
0000
0000
0000
0000
0110
0000
0000
0000
0000
0000
0100
0000
0000
0000
0000
0000
1100
0000
0000
1000
0000
0000
0010
0000
0000
0100
0000
0000
0001
0000
0000
0010
0000
0000
0100
0000
1000
0000
0001
0000
,
0100
0000
0110
0000
0010
0000
1000
0000
1001
0000
0001
0010
1000
0000
1010
0000
,
0000
0000
0010
0001
1000
0000
0010
0000
0110
0000
0000
0000
0000
0000
0000
0000
;
