#TITLE:赤猫;
#SUBTITLE:;
#ARTIST:水曜日のカンパネラ;
#TITLETRANSLIT:Akaneko;
#SUBTITLETRANSLIT:;
#ARTISTTRANSLIT:WEDNESDAY CAMPANELLA;
#GENRE:ANIME;
#CREDIT:;
#MUSIC:Akaneko.ogg;
#BANNER:Akaneko.png;
#BACKGROUND:Akaneko-bg.png;
#CDTITLE:;
#SAMPLESTART:43.402;
#SAMPLELENGTH:11.429;
#SELECTABLE:YES;
#OFFSET:2.312;
#BPMS:0.000=168.000;
#STOPS:;
#LASTBEATHINT:3.623144;
#BGCHANGES:6.500=Akaneko.avi=1.000=0=0=0=StretchNoLoop====,
99999.000=-nosongbg-=1.000=0=0=0=StretchNoLoop====
;
#FGCHANGES:;

//--------------- dance-single - ----------------
#NOTES:
     dance-single:
     :
     Hard:
     11:
     0,0,0,0,0:
0000
0000
0000
0000
,
0000
0000
0000
0000
,
0000
0000
0000
0000
,
0000
0000
0000
0000
,
0000
0000
0000
0000
,
0000
0000
0000
0000
,
0001
0100
0001
0000
1000
0001
0000
0020
,
0000
0130
1000
0000
0001
0100
1000
0100
,
0000
0001
0010
0100
1000
0000
1000
0002
,
0000
1003
0010
0000
0110
0000
0110
0000
,
0100
0001
1000
0000
0001
0010
0000
0200
,
0000
1300
0001
0000
0001
0100
0010
1000
,
0000
0001
1000
0000
0001
0010
0100
2000
,
0000
3001
0100
0000
0110
0000
0110
0000
,
1000
0100
0010
0001
0010
0100
0000
2000
,
0000
3010
0100
0001
1000
0100
0001
2000
,
0000
3001
0100
0010
0001
1000
0000
0020
,
0000
0130
0001
1000
0001
0000
0110
0000
,
0001
0100
0010
1000
0001
0010
0000
0200
,
0000
1300
0001
1000
0100
1000
0010
0100
,
0000
0001
0100
1000
0100
0010
0000
0010
,
1000
0001
0010
0100
1000
0000
0001
0100
,
0101
0000
0001
0010
0100
0000
1100
0000
,
1001
0000
1000
0010
0100
0000
0101
0000
,
1001
0000
0001
0010
0100
0000
0011
0000
,
1001
0000
1000
0010
0100
0000
0100
0001
,
0011
0101
0011
0101
,
1010
1100
1010
1100
,
1000
0100
0010
0001
1000
0001
0010
0100
,
1000
0000
1000
0000
0010
0100
0010
0000
,
0110
0000
0000
0000
,
0100
0000
0100
0000
0100
0010
1001
0000
,
1002
0000
0023
0100
0000
0031
2000
0000
,
0010
0000
3001
0100
1000
0100
0010
0100
,
0101
0011
1100
1010
,
1000
0100
0002
0000
0103
1000
0020
0000
,
0230
0000
0302
0010
0000
1003
0020
0000
,
0100
0000
0130
0001
0010
0100
1000
0001
,
0101
1100
0101
1100
,
0001
0010
2000
0000
3001
0100
0020
0000
,
0230
0000
2300
0010
0000
3001
0020
0000
,
0001
0000
0130
1000
0001
0010
1000
0001
,
0200
2300
3020
0230
,
0301
0100
1000
0100
0001
0010
2000
0000
,
3020
0000
0032
0100
0000
1003
0020
0000
,
0100
0000
1030
0001
0100
1000
0001
0010
,
0200
0302
0023
0230
,
1300
0001
1000
0001
1000
0001
0110
0000
,
0100
0010
1000
0001
0010
0100
2000
0000
,
0001
0000
3010
0100
0001
0010
0100
1000
,
1100
0011
0101
1010
,
1001
0000
0001
0100
1000
0100
0002
0000
,
1003
0100
0010
0100
1000
0010
0200
0000
,
0001
0000
0310
1000
0100
0001
0100
1000
,
0010
0001
2000
0000
3100
0001
0020
0000
,
0001
0000
1000
0000
0130
1000
0010
1000
,
0002
0100
0000
1000
0000
0100
0000
1000
,
0000
0100
0000
1000
0000
0010
0000
1003
,
0200
0000
2300
0001
0000
0100
0000
0001
,
0000
0100
0000
3002
0100
0100
0103
0000
,
0110
0000
0020
1000
0000
0100
0000
0001
,
0000
0100
0000
1000
0000
0130
0001
0010
,
0200
0000
0320
0001
0000
0100
0000
1000
,
0000
0130
1000
0001
0100
0010
0100
0010
;

//--------------- dance-single - ----------------
#NOTES:
     dance-single:
     :
     Challenge:
     16:
     0.733146,0.746476,0,0,0.061095,462,462,0,0,0,0,0.733146,0.746476,0,0,0.061095,462,462,0,0,0,0:
0000
0000
0000
0000
,
0000
0000
0000
0000
,
0000
0000
0000
0000
,
0000
0000
0000
0000
,
0000
0000
0000
0000
,
0000
0000
0000
0000
,
0001
0100
0001
0100
0001
1000
0000
0010
,
0000
0100
0001
1000
0001
1000
0100
0010
,
0000
0001
1000
0100
0001
0100
1000
0002
,
0000
1003
0010
0100
0010
0000
0110
0000
,
0100
0001
0100
0001
0010
1000
0000
0010
,
0000
0001
0100
1000
0001
1000
0100
0001
,
0000
1000
0100
0010
0001
1000
0001
0020
,
0000
0130
1000
0001
0100
0000
0110
0000
,
0010
1000
0001
0010
0100
2000
0100
3200
,
0010
0310
0001
0100
1000
0100
0001
2000
,
0001
3001
0010
0100
1000
0002
0100
0203
,
0010
0310
1000
0001
2000
0001
3001
0010
,
0100
1000
0100
0010
0001
0200
0010
0320
,
1000
1030
0001
1000
0100
1000
0010
0200
,
1000
1300
0100
0001
0100
0020
1000
1030
,
0100
0001
0100
1000
0020
0100
0130
0010
,
1001
0000
0001
0100
0001
0000
0010
0000
0100
0000
1000
0001
1000
0000
0010
0000
,
0100
0000
0010
1000
0010
0000
0100
0000
0001
0000
0010
0100
0010
0000
0001
0000
,
1000
0000
0001
0010
0100
0000
1000
0000
0001
0000
1000
0100
0010
0000
0001
0000
,
1000
0000
0001
0010
0100
0000
1000
0000
0001
0000
1000
0010
0100
0000
0001
0000
,
1001
1000
1100
1000
1001
0001
0101
0001
,
1001
1000
1010
1000
1001
0001
0011
0001
,
1000
0100
1000
0100
0010
0001
0010
0001
0100
0010
0100
0010
1000
0001
1000
0001
,
0010
0000
0100
0000
1000
0000
0001
0100
0001
0100
0010
1000
0001
0000
0010
0100
,
0010
0000
0000
0000
,
0100
0000
0100
0000
0100
0010
1001
0000
,
0110
0000
0001
0100
0020
0000
0001
0000
0100
0000
1030
0100
0020
0000
1000
0000
,
0100
0000
0031
1000
0010
0000
0100
0001
1000
0001
0010
0100
1000
0001
0100
0000
,
0101
0001
1100
1000
0011
0001
1010
1000
,
0001
0010
0100
0000
2100
0000
0001
0000
3001
0100
0001
0000
0001
1000
0001
1000
,
0100
0000
0010
0001
0200
0000
0010
0000
1000
0000
0310
1000
0200
0000
0010
0000
,
0001
0000
0310
0001
1000
0000
0010
0100
0001
0000
0010
0100
1000
0000
0001
0000
,
0110
0100
1001
0001
0110
0100
1001
1000
,
0001
0100
0010
0000
0110
0000
0100
0001
1000
0000
1001
0000
1001
0000
0001
0010
,
0100
0000
0010
0000
0001
0010
1000
0000
0010
0000
0001
0100
0010
0000
0100
0000
,
0001
0100
1000
0000
0100
0000
0010
1000
0001
0000
0010
0100
1000
0001
1000
0100
,
0020
0001
0032
0100
0203
1000
2300
0100
,
3001
0100
0001
0000
1000
0000
1000
0000
0001
0100
0001
0100
0010
0000
1000
0010
,
0100
0000
0010
0000
1000
0010
0001
0000
0010
0000
1000
0100
0010
0000
0100
0000
,
1000
0100
0001
0000
0100
0000
0010
0001
1000
0000
0010
0100
0001
1000
0001
0100
,
0020
1000
2030
0100
3200
0001
0302
0100
,
1003
0100
1000
0000
0001
0000
0001
0000
1000
0001
1000
0000
0100
0000
0100
0000
,
0210
0000
0010
0000
1300
0001
1000
0000
2001
0000
0001
0000
3010
0100
0010
0000
,
0120
0000
0100
0000
1030
0001
1000
0000
1002
0000
0013
0000
0100
0000
1000
0000
,
1001
0000
0001
0010
0100
0000
1000
0000
1001
0000
1000
0010
0100
0000
0001
0000
,
1001
0000
0001
0000
0100
0000
0010
1000
0001
1000
0100
0000
0110
0000
0010
0001
,
1000
0000
0001
0100
0002
0000
0100
0000
1003
0000
1000
0100
2000
0000
0100
0000
,
3001
0000
0001
0100
0001
0000
1000
0100
1000
0000
0001
0100
0001
0000
1000
0010
,
0100
0010
0100
0001
0010
0100
1000
0001
1000
0001
0010
0100
1000
0100
0010
0001
,
0100
0010
0100
0010
1000
0100
0010
0001
1000
0001
1000
0100
0010
0001
1000
0010
,
0002
0010
0000
1000
0000
0010
0000
1000
,
0000
0010
0000
1000
1003
0100
0010
0100
,
0001
0010
2000
0010
0000
0001
0000
0010
,
0000
0000
0001
0000
3001
0000
0100
0000
1000
0001
1000
0000
0010
0000
0100
0010
,
0100
0001
0020
1000
0000
0001
0000
1000
,
0000
0001
0000
1030
0010
0100
0010
0001
,
1000
0010
0200
0001
0000
1000
0000
0001
,
0000
0000
0310
1000
0001
1000
0100
1000
0001
0100
0001
1000
0001
0010
0100
0000
;
