#TITLE:朱く染めて心臓;
#SUBTITLE:;
#ARTIST:大渕野々花;
#TITLETRANSLIT:Akaku Somete Shinzo;
#SUBTITLETRANSLIT:;
#ARTISTTRANSLIT:Obuchi Nonoka;
#GENRE:ANIME;
#CREDIT:;
#MUSIC:Akaku Somete Shinzo.ogg;
#BANNER:Akaku Somete Shinzo.png;
#BACKGROUND:Akaku Somete Shinzo-bg.png;
#CDTITLE:;
#SAMPLESTART:52.896;
#SAMPLELENGTH:10.099;
#SELECTABLE:YES;
#OFFSET:1.163;
#BPMS:0.000=202.000;
#STOPS:;
#LASTBEATHINT:0.488099;
#BGCHANGES:4.000=Akaku Somete Shinzo.avi=1.000=0=0=0=StretchNoLoop====,
99999.000=-nosongbg-=1.000=0=0=0=StretchNoLoop====
;
#FGCHANGES:;

//--------------- dance-single - ----------------
#NOTES:
     dance-single:
     :
     Hard:
     12:
     0,0,0,0,0:
0000
0000
0000
0000
,
0000
0000
0000
0000
,
0001
0000
0000
1000
0100
1000
0100
0000
0000
1000
0000
0000
,
0001
0000
0000
0100
0001
0100
0001
0000
0000
1000
0000
0000
,
0001
0000
0000
0010
0100
0010
0100
0000
0000
1000
0000
0000
,
0001
0000
0000
1000
0010
1000
0010
0000
0000
0100
0000
0000
,
0001
0000
0000
0001
0010
0001
0010
0000
0000
0100
0000
0000
,
1000
0000
0000
0010
1000
0010
1000
0000
0000
0010
0000
0000
,
0100
0000
0000
0001
1000
0001
1000
0000
0000
0001
0000
0000
,
0010
0000
0000
0100
0010
0100
0010
0000
0000
0100
0000
0000
,
0200
0000
0000
0000
,
0310
0000
0000
0000
0000
0000
0000
0001
0000
0000
0000
0000
0000
0000
0000
1000
0000
0000
0000
0000
0000
0000
0000
0001
0000
0000
0000
0000
0000
0000
0000
1000
0000
0000
0000
0000
0000
0000
0000
0000
0000
0000
0000
0000
0000
0000
0000
0110
0000
0000
0000
0000
0000
0000
0000
0000
0000
0000
0000
0000
0000
0000
0000
0000
,
0001
1000
0100
1000
0001
1000
0100
1000
,
0001
1000
0000
2100
0000
0001
0000
0100
,
0000
3001
0000
0001
0100
0001
1000
0001
,
0100
0001
0000
0102
0000
1000
0000
0100
,
0000
1003
0000
1000
0010
1000
0001
1000
,
0010
1000
0000
0110
0000
0001
0010
0100
,
1000
0000
1001
0000
0001
0000
1000
0100
,
0001
0000
0000
0000
,
0001
0100
0000
0100
0010
0100
0000
0100
,
0001
1000
0000
1000
0001
1000
0000
1000
,
0100
0010
0000
0010
0100
0010
0000
0010
,
0001
0000
1000
0000
0000
0000
1000
0000
0010
0000
0000
0010
0000
0000
0100
0000
,
0001
0000
0101
0000
0001
0010
0100
1000
,
0000
1000
0001
0000
0100
0000
0010
0000
,
0110
0000
1000
0001
0000
0011
0000
1100
,
0000
1000
0020
0000
0230
0000
0302
0000
,
1003
0100
0000
0100
0010
0100
0000
0100
,
1000
0001
0000
0001
1000
0001
0000
0001
,
0100
0010
0000
0010
0100
0010
0000
0010
,
1000
0001
0000
0001
0100
0010
1000
0001
,
0010
0011
0011
1001
,
1100
1100
1001
1100
,
1001
0000
0001
0100
0010
0000
0100
0001
,
0000
1000
0100
0010
0001
1000
0010
0000
,
0210
0000
0001
0301
1000
0000
1000
0100
,
0000
1000
0001
0100
0010
0100
0001
0010
,
0200
0000
1000
1300
0001
0000
0001
0100
,
0000
0100
0010
0000
1000
0000
0001
0010
,
0200
0000
0010
0310
0001
0000
0001
0100
,
1000
0000
0001
0010
0000
0010
1000
0000
,
1001
0000
0001
0100
0000
0100
1000
0000
,
0000
0100
0010
1000
0100
0010
0100
1000
,
1100
0000
0000
0101
0000
0000
1001
0000
,
0110
0000
0000
0000
,
0010
0000
1001
0000
0001
0010
0100
0000
,
1100
0000
0011
0000
0001
0100
0010
0000
,
0110
0000
1010
0000
1000
0001
0100
0000
,
0101
0000
1100
0000
1000
0100
0010
0000
,
0110
0000
1001
0000
0001
0010
1000
0000
,
0110
0000
1000
0010
0000
0010
0100
0001
,
1000
0000
1100
0000
0101
0000
1000
0001
,
1000
0110
0001
0010
,
0100
0000
1100
0000
1000
0010
0100
0000
,
0101
0000
1001
0000
0001
0010
0100
0000
,
0110
0000
0011
0000
0010
0001
1000
0000
,
1010
0000
0011
0000
0001
0100
0010
1000
,
1100
0101
0010
0011
,
0100
1100
0010
1001
,
0110
0000
0110
0000
1000
0000
0001
0010
,
0100
0000
1001
0000
0001
0100
1000
0001
,
0020
0000
1000
0000
1030
0001
0020
0000
,
0100
0000
1030
0010
0001
0010
0100
1000
,
0001
0000
1000
0000
0010
0100
0010
0000
,
1000
0000
1000
0000
0001
0100
0001
0000
,
0100
0001
0000
0001
0010
0100
1000
0100
,
0010
0001
0000
0011
0000
1100
0000
0011
,
0000
1000
0000
1000
0010
0100
0001
0100
,
0010
1000
0000
1010
0000
0101
0000
1010
,
0000
0001
0000
0001
0100
1000
0100
0001
,
0010
0110
0000
0110
0000
1001
0000
1000
,
0001
0000
0101
0000
1010
0000
1000
0010
,
0100
0001
0010
0100
,
1000
0000
1100
0000
0011
0000
0001
0010
,
0110
0000
0000
0000
;

//--------------- dance-single - ----------------
#NOTES:
     dance-single:
     :
     Challenge:
     16:
     0.952244,1.084979,0.033273,0,0.244003,601,598,3,0,0,0,0.952244,1.084979,0.033273,0,0.244003,601,598,3,0,0,0:
0000
0000
0000
0000
,
0000
0000
0000
0000
,
0001
0000
0000
0000
0000
0000
0000
0000
0000
0000
0000
0000
1000
0000
0000
0100
0000
0000
1000
0000
0000
0100
0000
0000
1000
0000
0000
0000
0000
0000
0001
0000
0000
0000
0000
0000
1000
0000
0000
0000
0100
0000
0000
0000
0010
0000
0000
0000
,
0001
0000
0000
0000
0000
0000
1000
0000
0000
0000
0000
0000
0001
0000
0000
0100
0000
0000
0001
0000
0000
0100
0000
0000
0001
0000
0000
0000
0000
0000
0000
0000
0000
0000
0000
0000
1000
0000
0000
0000
0010
0000
0000
0000
0100
0000
0000
0000
,
0001
0000
0000
0000
0000
0000
0010
0000
0000
0000
0000
0000
0100
0000
0000
1000
0000
0000
0100
0000
0000
1000
0000
0000
0001
0000
0000
0100
0000
0000
0001
0000
0000
0100
0000
0000
0010
0000
0000
0000
1000
0000
0000
0000
0001
0000
0000
0000
,
0010
0000
0000
0000
0000
0000
0100
0000
0000
0000
0000
0000
1000
0000
0000
0001
0000
0000
1000
0000
0000
0001
0000
0000
1000
0000
0000
0000
0000
0000
0000
0000
0000
0000
0000
0000
0010
0000
0000
0000
0100
0000
0000
0000
0001
0000
0000
0000
,
0010
0000
0000
0010
0100
1000
0010
0000
0000
0010
0100
0001
,
1000
0000
0000
0000
0100
0000
0000
0000
0010
0000
0000
0000
0001
0000
0000
1000
0000
0000
0001
0000
0000
1000
0000
0000
0001
0000
0000
0000
0000
0000
0000
0000
0000
0000
0000
0000
1000
0000
0000
0000
0100
0000
0000
0000
0010
0000
0000
0000
,
0001
0000
0000
0000
0000
0000
1000
0000
0000
0000
0000
0000
0010
0000
0000
0100
0000
0000
0010
0000
0000
0100
0000
0000
0010
0000
0000
0000
0000
0000
1000
0000
0000
0000
0000
0000
0001
0000
0000
0000
0010
0000
0000
0000
0100
0000
0000
0000
,
1000
0000
0000
0000
0000
0000
0001
0000
0000
0000
0000
0000
1000
0000
0000
0100
0000
0000
1000
0000
0000
0100
0000
0000
1000
0000
0000
0000
0000
0000
0000
0000
0000
0000
0000
0000
0010
0000
0000
0000
0000
0000
0000
0000
0100
0000
0000
0000
,
0010
0000
0000
0000
,
0010
0000
0000
0000
0000
0000
0000
1001
0000
0000
0000
0000
0000
0000
0000
1001
0000
0000
0000
0000
0000
0000
0000
1001
0000
0000
0000
0000
0000
0000
0000
1001
0000
0000
0000
0000
0000
0000
0000
0000
0000
0000
0000
0000
0000
0000
0000
0110
0000
0000
0000
0000
0000
0000
0000
0000
0000
0000
0000
0000
0000
0000
0000
0000
,
0001
0100
0001
1000
0001
0100
0001
1000
,
0100
0000
1100
0000
0000
0000
2100
0000
0000
0000
0001
0000
3000
0000
0001
0100
,
0001
1000
0100
1000
0001
1000
0100
1000
,
0001
0000
0101
0000
0000
0000
0101
0000
0000
0000
0100
0010
0100
0010
0100
0000
,
0000
0010
1000
0010
0100
0010
1000
0010
,
0100
0000
0101
0000
0000
0000
0101
0000
0000
0000
0001
0000
0010
0000
0100
1000
,
0001
0000
1001
0000
0001
0010
0100
1000
,
0001
1000
0001
1000
,
0001
0010
0100
0010
0001
0010
0100
0100
,
1000
0100
0010
0100
1000
0100
0010
0010
,
0001
1000
0100
1000
0001
1000
0010
0010
,
0100
0000
0001
0000
1000
0000
0001
0000
0100
0000
0000
0100
0000
0000
0010
1000
,
0001
0010
0100
0010
0001
0010
0100
0100
,
1000
0001
0010
0001
1000
0001
0010
0010
,
0001
1000
0001
1000
0001
1000
0100
0000
0000
0000
0011
0000
0000
0000
1001
0000
,
0000
0000
0001
1000
0020
0000
0000
0000
0230
0000
0000
0000
0302
0000
0000
0000
,
1003
0100
0001
0100
1000
0100
0001
0001
,
1000
0010
0001
0010
1000
0010
0001
0001
,
1000
0010
0001
0010
1000
0010
0001
0001
,
1000
0000
0100
0000
0001
0000
0100
0000
1000
0000
0100
0000
0001
0000
0100
0010
,
0100
1100
1100
0101
,
0101
0011
1010
1100
,
1001
0000
0110
0000
1001
0000
0100
0110
,
0000
0000
0010
0100
0001
0010
0100
0000
1000
0000
0001
0000
0100
0000
0000
0000
,
0010
0000
1100
1100
0001
0000
1000
0100
,
0000
0100
0010
0001
1000
0010
0100
0001
,
1000
0000
0101
0101
1000
0000
0001
0010
,
0000
0010
0100
1000
0001
1000
0010
0100
,
0001
0000
0110
0110
1000
0000
0001
0100
,
1000
0000
0100
0010
0000
0100
0001
1000
,
1100
0000
0001
0101
0000
0100
0110
0000
,
0000
0000
0010
1000
0001
0000
0010
0000
0100
0000
1000
0000
0001
0000
0010
0000
,
0011
0000
0000
1100
0000
0000
1001
0000
,
0110
0000
0000
0000
,
0001
1000
1100
0100
0010
0011
0001
1000
,
1001
0000
1001
0000
0001
0100
0010
1000
,
0001
0010
0011
0001
1000
1100
0100
0010
,
0110
0000
0110
0000
0010
0001
1000
0001
,
0110
0000
1001
0100
0010
0000
0101
0000
,
1100
0000
0000
0000
0001
0000
0100
0000
0000
0000
0010
0000
0100
0000
0001
1000
,
0001
0000
0011
0000
0110
0000
1100
0001
,
1000
0000
0000
0000
1001
0000
0000
0000
0001
0000
0100
0010
0100
0000
0010
0100
,
0010
0000
0110
1000
0001
0110
1000
0010
,
1001
0000
1001
0000
0101
0001
0010
0100
,
1100
0000
0110
0001
1000
0110
0001
0010
,
1001
0000
1001
0000
1100
1000
0010
0100
,
0101
0000
0101
0001
1000
0000
0100
1000
,
1100
0000
1100
1000
0001
0000
1000
0010
,
0110
0000
0110
0100
0010
1000
0001
0010
,
0110
0000
1001
0000
0001
0100
1000
0100
,
0002
0000
1000
0000
1003
0100
0020
0000
,
0100
0000
0031
1000
0001
0010
0100
1000
,
1100
0000
0101
0000
0001
0100
0010
0000
,
0010
0000
1000
0100
0010
0000
0100
1000
0010
0000
0100
0001
0010
0100
1000
0010
,
0100
0101
0000
0101
0001
1000
0100
0010
,
0001
0000
0110
0000
0000
0000
0110
0000
0000
0000
1000
0000
0001
0000
0100
0001
,
1000
1100
0000
1100
1000
0010
0100
0001
,
1000
0000
0110
0000
0000
0000
0110
0000
0001
0000
1000
0000
0010
0100
0010
0000
,
1000
1001
0000
1001
0001
0010
0100
1000
,
0001
0000
0110
0000
0000
0000
0110
0000
1000
0000
0001
0000
1000
0000
0010
0100
,
0010
0000
0110
0000
0110
0001
0100
1000
,
0100
0000
0001
0100
0010
0000
0100
0000
0001
0100
1000
0000
0100
0000
0001
0010
,
0100
0000
0110
0000
0110
1000
0001
0100
,
0110
0000
0000
0000
;
