#TITLE:愛の唄;
#SUBTITLE:;
#ARTIST:Myuk;
#TITLETRANSLIT:Ai no Uta;
#SUBTITLETRANSLIT:;
#ARTISTTRANSLIT:Myuk;
#GENRE:POP;
#CREDIT:;
#MUSIC:Ai no Uta.ogg;
#BANNER:Ai no Uta.png;
#BACKGROUND:Ai no Uta-bg.png;
#CDTITLE:;
#SAMPLESTART:60.357;
#SAMPLELENGTH:12.353;
#SELECTABLE:YES;
#OFFSET:1.408;
#BPMS:0.000=85.000
,36.000=170.000
,44.000=85.000
,45.000=170.000
,136.000=85.000
,137.500=170.000
,216.500=85.000
,218.000=170.000
;
#STOPS:;
#LASTBEATHINT:0.538322;
#BGCHANGES:3.500=Ai no Uta.avi=1.000=0=0=0=StretchNoLoop====,
99999.000=-nosongbg-=1.000=0=0=0=StretchNoLoop====
;
#FGCHANGES:;

//--------------- dance-single - ----------------
#NOTES:
     dance-single:
     :
     Hard:
     12:
     0.539598,0.716216,0.443372,0.392214,0.072474,443,391,52,46,0,0,0.539598,0.716216,0.443372,0.392214,0.072474,443,391,52,46,0,0:
0000
0000
0000
0000
,
0000
0000
0000
0000
,
0000
0000
0000
0000
,
0000
0000
0000
0000
,
0000
0000
0000
0000
,
0000
0000
0101
1100
,
0001
0100
0001
1000
0100
0010
0100
0000
0000
1000
0001
1000
0010
0100
0010
1000
,
0001
0000
0000
0000
0000
0001
0010
0100
1000
0000
0000
0000
0001
0000
0000
0000
,
0100
0010
0100
0001
0010
0000
0100
0000
1000
0001
0100
0010
1000
0010
0100
0001
,
0101
1100
0101
1100
,
0011
0000
1010
0000
0011
0000
0001
0010
,
0200
0300
0000
0000
0000
0000
0000
0000
0000
0000
0000
0000
0000
0000
0000
0000
0000
0000
0000
0000
0000
0000
0000
0000
0000
0000
0000
0000
0000
0000
0000
0000
0000
0000
0000
0000
0000
0000
0000
0000
0000
0000
0000
0000
0000
0000
0000
0000
1000
0000
0000
0000
0000
0000
0000
0000
0000
0000
0000
0000
0000
0000
0000
0000
0000
0000
0000
0000
0000
0000
0000
0000
0100
0000
0000
0000
0000
0000
0000
0000
0000
0000
0000
0000
0000
0000
0000
0000
0000
0000
0000
0000
0000
0000
0000
0000
0010
0000
0000
0000
0000
0000
0000
0000
0000
0000
0000
0000
0000
0000
0000
0000
0000
0000
0000
0000
0000
0000
0000
0000
0001
0000
0000
0000
0000
0000
0000
0000
0000
0000
0000
0000
0000
0000
0000
0000
0000
0000
0000
0000
0000
0000
0000
0000
0000
0000
0000
0000
0000
0000
0000
0000
0000
0000
0000
0000
0000
0000
0000
0000
0000
0000
0000
0000
0000
0000
0000
0000
1001
0000
0000
0000
0000
0000
0000
0000
0000
0000
0000
0000
0000
0000
0000
0000
0000
0000
0000
0000
0000
0000
0000
0000
,
0000
0100
0000
1000
0010
0100
0001
0000
,
1000
0000
0001
1000
0010
0100
0000
1001
,
0000
0101
0000
1010
0000
1000
0001
0000
,
0110
0000
0001
0010
0100
1000
0000
1001
,
0000
0010
0000
1000
0001
0010
0100
0000
,
1100
0000
1000
0001
0100
0010
0000
0110
,
0000
1001
0000
0110
0000
0001
0010
0000
,
0100
0000
1000
0010
0100
0000
0010
1000
,
0001
0000
0010
0100
1000
0000
0010
0000
,
1001
0000
0001
0100
0010
0000
0010
1000
,
0100
0010
0001
0100
1000
0010
0001
0000
,
1001
0000
1000
0100
0001
0000
0001
0100
,
1000
0000
0001
0100
0010
0000
0010
1000
,
0001
0010
0100
0000
1000
0000
0010
0100
,
0020
0000
0130
0000
0001
1000
1100
0000
,
0101
0000
0011
0000
1001
0000
2000
3020
,
0230
0302
0023
0230
2300
0000
3001
0100
,
1000
0100
0001
1000
0010
0001
0010
1000
,
0100
0020
0000
0130
1000
0001
0100
0000
,
0110
0000
1000
0000
1001
0000
0001
0010
,
0100
1000
0020
0000
0130
0000
0100
0001
,
0100
0001
1000
0100
1000
0001
0100
0000
,
0220
0330
0000
0000
0000
0000
0000
0000
0000
0000
0000
0000
0000
0000
0000
0000
0000
0000
0000
0000
0000
0000
0000
0000
0000
0000
0000
0000
0000
0000
0000
0000
0000
0000
0000
0000
0000
0000
0000
0000
0000
0000
0000
0000
0000
0000
0000
0000
0200
0000
0000
0000
0000
0000
0000
0000
0000
0000
0000
0000
0000
0000
0000
0000
0000
0000
0000
0000
0000
0000
0000
0000
0310
0000
0000
0000
0000
0000
0000
0000
0000
0000
0000
0000
0000
0000
0000
0000
0000
0000
0000
0000
0000
0000
0000
0000
0000
0000
0000
0000
0000
0000
0000
0000
0000
0000
0000
0000
0000
0000
0000
0000
0000
0000
0000
0000
0000
0000
0000
0000
1001
0000
0000
0000
0000
0000
0000
0000
0000
0000
0000
0000
0000
0000
0000
0000
0000
0000
0000
0000
0000
0000
0000
0000
0000
0000
0000
0000
0000
0000
0000
0000
0000
0000
0000
0000
0000
0000
0000
0000
0000
0000
0000
0000
0000
0000
0000
0000
0001
0000
0000
0000
0000
0000
0000
0000
0000
0000
0000
0000
0000
0000
0000
0000
0000
0000
0000
0000
0000
0000
0000
0000
,
0100
1000
0100
0000
0010
1000
0001
0000
,
0001
0000
1000
0100
0000
0110
0000
0001
,
1000
0100
0001
0100
0000
0100
1000
0000
,
1000
0001
0010
0200
0000
0001
0000
1000
,
0000
0001
0000
1000
0000
0001
0000
1300
,
0010
0001
1000
0200
0000
0001
0000
1000
,
0000
0001
0000
1000
0000
0001
0000
1300
,
0100
0001
0010
0100
0000
1001
0000
0001
,
0010
0100
1100
0000
0011
0000
1001
0000
,
1000
0010
0100
0000
0100
0001
0010
0100
,
1000
0001
0100
0000
2001
0000
3010
0000
,
0100
0001
0010
0100
1000
0001
0100
1000
,
0000
1000
0100
0001
0020
0230
2300
3002
,
0203
0320
2030
3002
0103
0001
0010
1000
,
0000
1000
0010
0001
2000
3002
0203
0320
,
2030
3002
0023
0230
1300
0001
0100
1000
,
0000
1000
0100
0101
0000
1100
0000
0101
,
0000
1100
0000
0011
0000
1010
0000
0011
,
0000
1010
0000
1001
0000
0110
0000
1001
,
0000
0000
0000
0000
0000
0000
0000
0000
0000
0000
0000
0000
0000
0000
0000
0000
0000
0000
0000
0000
0000
0000
0000
0000
0020
0030
0000
0000
0000
0000
0000
0000
0000
0000
0000
0000
0000
0000
0000
0000
0000
0000
0000
0000
0000
0000
0000
0000
0200
0000
0000
0000
0000
0000
0000
0000
0000
0000
0000
0000
0000
0000
0000
0000
0000
0000
0000
0000
0000
0000
0000
0000
0000
0000
0000
0000
0000
0000
0000
0000
0000
0000
0000
0000
0000
0000
0000
0000
0000
0000
0000
0000
0000
0000
0000
0000
0301
0000
0000
0000
0000
0000
0000
0000
0000
0000
0000
0000
0000
0000
0000
0000
0000
0000
0000
0000
0000
0000
0000
0000
0010
0000
0000
0000
0000
0000
0000
0000
0000
0000
0000
0000
0000
0000
0000
0000
0000
0000
0000
0000
0000
0000
0000
0000
0100
0000
0000
0000
0000
0000
0000
0000
0000
0000
0000
0000
0000
0000
0000
0000
0000
0000
0000
0000
0000
0000
0000
0000
2000
0000
0000
0000
0000
0000
0000
0000
0000
0000
0000
0000
0000
0000
0000
0000
0000
0000
0000
0000
0000
0000
0000
0000
,
0000
0000
3020
0000
0000
0000
0130
0000
0001
0000
0010
0000
0100
0000
1000
0001
,
1000
0000
0010
0000
0100
0001
0010
2000
,
0000
3020
0000
0032
0000
0203
0000
0301
,
1000
0000
1001
0000
1000
0010
0100
0002
,
0000
0000
0023
0000
0000
0000
0130
0000
0000
0000
1000
0000
0001
0000
0100
0010
,
0100
0000
0010
1000
0001
0100
1000
0200
,
0000
0302
0000
1003
0100
0010
0100
1000
,
0001
1001
0100
0110
,
0001
0010
0100
1000
0010
0000
0100
0001
,
1000
0000
1001
0000
0001
0100
1000
0100
,
0001
0000
1000
0000
0001
0010
1000
0010
,
0001
1001
0010
0110
,
1000
0100
0001
0100
1000
0000
0010
0000
,
0100
0001
1000
0001
0010
1000
0001
0100
,
1000
0001
1000
0010
0001
1000
0200
0000
,
0310
0000
0000
0000
;

//--------------- dance-single - ----------------
#NOTES:
     dance-single:
     :
     Challenge:
     16:
     0.766157,0.835586,0.554215,0.503057,0.50732,629,564,65,59,0,0,0.766157,0.835586,0.554215,0.503057,0.50732,629,564,65,59,0,0:
0000
0000
0000
0000
,
0000
0000
0000
0000
,
0000
0000
0000
0000
,
0000
0000
0000
0000
,
0000
0000
0000
0000
,
0000
0000
0101
1100
,
0101
0100
0001
0010
0100
1000
0010
0000
1010
0010
0100
0001
1000
0100
0010
0001
,
0011
0000
0000
0000
0000
0001
1000
0100
1100
0000
0000
0000
0101
0000
0000
0000
,
1001
0001
0100
0010
1000
0100
0010
0000
0011
0001
1000
0010
0100
0010
1000
0001
,
0101
1100
0101
1100
,
0101
0000
0001
0000
1100
0000
1000
0000
0010
1000
0010
1000
0001
0010
0001
0010
,
0200
0000
1300
0001
1000
0010
0000
1010
,
1000
0000
0010
0000
0100
0000
0001
0000
1000
0001
0010
0100
1000
0000
0010
0000
,
0100
0001
0100
1000
0100
0001
0000
0011
,
1000
0000
0001
0000
0100
0000
0001
0000
1000
0010
0100
0001
1000
0000
0000
0000
,
0110
0000
0001
1000
0100
1000
0000
1001
,
0001
0000
0100
0000
0010
0000
0100
0000
0001
0010
0100
1000
0010
0000
0100
0000
,
0010
1000
0001
0010
0100
1100
0000
0101
,
0000
0000
1100
0000
0000
0000
1001
0000
0001
0100
0010
0100
0010
0000
1000
0000
,
0001
0000
0010
0000
0100
0000
1000
0001
0000
0001
0100
0000
0010
0000
1000
0010
,
0000
0010
0100
0000
0001
0000
0001
0000
1000
0100
1000
0100
0010
0000
0100
0000
,
1000
0000
0001
0000
0100
0000
0010
0100
0000
0000
0101
0000
1000
0000
0100
0000
,
0001
0000
0100
0000
1000
0010
0001
0000
1000
0100
0001
0010
1000
0000
0010
0000
,
0001
0000
1000
0000
0010
0000
0100
0001
0000
0001
1000
0000
0100
0000
0010
0000
,
0100
0000
1000
0000
0001
0000
0010
0000
0001
1000
0100
1000
0100
0000
0010
0000
,
0001
0010
1000
0001
0100
1000
0010
0100
,
0210
0000
0000
0000
0310
0000
0000
0000
0001
1000
0010
0100
0010
0000
0100
0001
,
0010
0000
1000
0010
0100
0000
0010
0001
1000
0000
0010
0100
0002
0000
0023
0000
,
0230
0000
2300
0000
3020
0000
0230
0000
0301
0010
0001
0010
0100
0000
1000
0001
,
1000
0000
0010
0000
0100
0000
0001
1000
0001
0000
0010
0000
0100
0000
1000
0001
,
1000
0000
0200
0000
0000
0000
0310
0000
0001
1000
0100
1000
0001
0000
0001
0010
,
0200
0000
0000
0000
1300
0000
1000
0010
0200
0000
0000
0000
0301
0000
1000
0100
,
0010
0000
0001
0010
0100
0000
1000
0100
0010
0001
0010
0100
1000
0000
0001
0100
,
0010
0000
0100
0001
0010
0000
0100
1000
0001
0000
0100
0010
0100
0000
0000
0000
,
2002
3003
0000
0000
0000
0000
0000
0000
0000
0000
0000
0000
0000
0000
0000
0000
0000
0000
0000
0000
0000
0000
0000
0000
0000
0000
0000
0000
0000
0000
0000
0000
0000
0000
0000
0000
0000
0000
0000
0000
0000
0000
0000
0000
0000
0000
0000
0000
0200
0000
0000
0000
0000
0000
0000
0000
0000
0000
0000
0000
0000
0000
0000
0000
0000
0000
0000
0000
0000
0000
0000
0000
0310
0000
0000
0000
0000
0000
0000
0000
0000
0000
0000
0000
0000
0000
0000
0000
0000
0000
0000
0000
0000
0000
0000
0000
0000
0000
0000
0000
0000
0000
0000
0000
0000
0000
0000
0000
0000
0000
0000
0000
0000
0000
0000
0000
0000
0000
0000
0000
1001
0000
0000
0000
0000
0000
0000
0000
0000
0000
0000
0000
0000
0000
0000
0000
0000
0000
0000
0000
0000
0000
0000
0000
0000
0000
0000
0000
0000
0000
0000
0000
0000
0000
0000
0000
0000
0000
0000
0000
0000
0000
0000
0000
0000
0000
0000
0000
1100
0000
0000
0000
0000
0000
0000
0000
0000
0000
0000
0000
0000
0000
0000
0000
0000
0000
0000
0000
0000
0000
0000
0000
,
1000
0010
0100
0000
0101
0000
0000
0000
1100
0000
0001
0000
1000
0010
0100
0000
,
0001
0000
1000
0100
0010
0001
1000
0000
0010
0000
0110
0000
0000
0000
1001
0000
,
1000
0000
0010
0000
0100
0000
0001
0000
0010
0100
0010
0000
0001
0000
1000
0000
,
0010
0100
0001
0010
0100
1000
0010
0000
0200
0000
0002
0000
0003
0000
2000
0000
,
3000
0302
0023
2000
3000
0002
0003
2030
,
3010
0000
0001
0100
0010
1000
0100
0000
0020
0000
0002
0000
0003
0000
2000
0000
,
3000
0032
0203
2000
3000
0002
0003
2300
,
3100
0000
0001
0010
0100
1000
0010
0000
0000
0000
1001
0000
0000
0000
0110
0000
,
0001
0010
0100
0000
2100
0000
3000
0000
0102
0000
0003
0000
0120
0000
0000
0000
,
0130
0000
0010
1000
0001
0010
0100
0000
1000
0000
0001
0000
0201
0000
0000
0000
,
0301
1000
1200
0000
0310
0002
1003
0000
,
1001
0000
0001
0000
0100
0000
1000
0000
0100
0010
0100
0000
0001
0010
0001
0000
,
1000
0100
1000
0000
0001
0010
1000
0000
0020
0000
0032
0000
2003
0000
3020
0000
,
0032
0000
2003
0000
3200
0000
0302
0000
0013
0100
0010
0000
0100
1000
0100
0000
,
0010
0001
0010
0000
0001
0100
1000
0000
0100
0000
0002
0000
0023
0000
2030
0000
,
3002
0000
0203
0000
2300
0000
3020
0000
0130
0001
0010
0000
0100
1000
0010
0000
,
0100
0001
1000
0000
0100
0000
0011
0000
0000
0000
1100
0000
0000
0000
0011
0000
,
0000
1100
0000
1010
0000
0101
0000
1010
,
0000
0101
0000
0110
0000
1001
0000
0110
,
0000
0000
0000
0000
0000
0000
0000
0000
0000
0000
0000
0000
0000
0000
0000
0000
0000
0000
0000
0000
0000
0000
0000
0000
0002
0003
0000
0000
0000
0000
0000
0000
0000
0000
0000
0000
2000
3000
0000
0000
0000
0000
0000
0000
0000
0000
0000
0000
0200
0000
0000
0000
0000
0000
0000
0000
0000
0000
0000
0000
0000
0000
0000
0000
0000
0000
0000
0000
0000
0000
0000
0000
0000
0000
0000
0000
0000
0000
0000
0000
0000
0000
0000
0000
0000
0000
0000
0000
0000
0000
0000
0000
0000
0000
0000
0000
1300
0000
0000
0000
0000
0000
0000
0000
0000
0000
0000
0000
0000
0000
0000
0000
0000
0000
0000
0000
0000
0000
0000
0000
0010
0000
0000
0000
0000
0000
0000
0000
0000
0000
0000
0000
0000
0000
0000
0000
0000
0000
0000
0000
0000
0000
0000
0000
0100
0000
0000
0000
0000
0000
0000
0000
0000
0000
0000
0000
0000
0000
0000
0000
0000
0000
0000
0000
0000
0000
0000
0000
0102
0000
0000
0000
0000
0000
0000
0000
0000
0000
0000
0000
0000
0000
0000
0000
0000
0000
0000
0000
0000
0000
0000
0000
,
0000
0000
1003
0100
0010
0000
0100
0000
1000
0000
0001
0000
0100
0010
0100
0001
,
0010
0100
1000
0001
0100
0010
1000
2100
,
0000
0000
3001
0010
0100
0000
0010
0000
0001
0000
1000
0000
0010
0100
0001
0010
,
1000
0010
0001
1000
0001
0100
0010
2010
,
0000
0000
3010
0100
0001
0000
0010
0000
0100
0000
1000
0000
0010
0100
0010
1000
,
0001
0010
0100
1000
0010
1000
0001
0012
,
0000
0000
0013
0100
1000
0000
0010
1000
0001
0000
0010
0000
0100
0010
0001
0100
,
0010
0100
1001
0000
1001
0010
0100
0000
,
0110
0000
1000
0001
0100
0000
0001
1000
0010
0000
0100
0001
0010
0000
0100
0000
,
1000
0001
0101
0000
1100
1000
0101
0001
,
1100
0000
1000
0001
0100
0000
0010
0000
0100
0000
0001
0000
1000
0100
0001
0100
,
1000
0001
0110
0000
0110
1000
0001
0000
,
1001
0000
0001
0100
0010
0000
0100
0001
1000
0000
0001
0010
0100
0000
0000
0000
,
1000
0001
0100
1000
0100
0001
1000
0100
,
0001
0000
0100
1000
0010
0000
0100
0001
0010
0000
0100
0000
1000
0010
0100
0001
,
1000
0000
0000
0000
;
