#TITLE:愛のシュプリーム!;
#SUBTITLE:;
#ARTIST:fhana;
#TITLETRANSLIT:Ai no Supreme!;
#SUBTITLETRANSLIT:;
#ARTISTTRANSLIT:fhana;
#GENRE:ANIME;
#CREDIT:;
#MUSIC:Ai no Supreme!.ogg;
#BANNER:Ai no Supreme!.png;
#BACKGROUND:Ai no Supreme!-bg.png;
#CDTITLE:;
#SAMPLESTART:52.418;
#SAMPLELENGTH:14.222;
#SELECTABLE:YES;
#OFFSET:0.915;
#BPMS:0.000=135.000;
#STOPS:;
#BGCHANGES:2.000=Ai no Supreme!.avi=1.000=0=0=0=StretchNoLoop====,
99999.000=-nosongbg-=1.000=0=0=0=StretchNoLoop====
;
#FGCHANGES:;

//--------------- dance-single - ----------------
#NOTES:
     dance-single:
     :
     Hard:
     11:
     0,0,0,0,0:
0000
0000
0000
0000
,
0001
0000
0100
0000
0002
0000
0000
0003
1000
0000
0100
0000
2000
0000
0000
0000
,
3001
0010
0002
0000
1003
0010
2000
0000
,
3001
0100
0020
0000
1030
0100
0020
0000
,
0031
0010
0200
0000
1300
0010
0200
0000
,
0301
0000
1000
0000
0020
0000
0000
0100
0000
0130
0001
0000
2000
0000
0000
0000
,
3001
0000
0010
0000
0200
0000
0000
0010
0000
0310
0001
0000
2000
0000
0000
0000
,
3010
0000
0100
0000
0002
0000
0000
1000
0000
1003
0100
0000
0020
0000
0000
0000
,
0031
0000
0100
0000
0020
0000
0000
1000
0000
1030
0100
0000
0010
0000
0100
0000
,
1001
0000
0110
0000
0001
0001
0001
0000
,
0100
0010
0100
0000
0001
1000
1001
0000
,
1000
0001
0010
0100
1000
0001
0010
1000
,
0001
0100
0010
0001
1000
0010
0110
0000
,
1001
1100
1010
0011
,
0101
0000
0000
0000
0100
0000
0001
0000
1000
0000
0010
0200
0000
0000
0000
0000
,
0310
1000
1010
0000
1000
0100
1100
0000
,
0100
0001
0101
0000
0001
0010
0011
0000
,
1001
0000
0010
1000
0000
0001
0100
0010
,
0000
0000
1000
0000
0001
0000
0000
0000
0001
0000
1000
0100
0000
0000
0010
0000
,
0001
0100
0010
0100
1000
0100
0010
0001
,
0010
1000
0100
1000
0001
0100
0001
0000
0000
1001
0000
0000
,
1000
0001
0000
0001
0000
0100
0000
0100
0010
0000
0000
1000
0000
0000
0001
0000
,
0001
0010
0000
0010
0000
0100
0000
0100
1000
0000
0000
1000
0001
0000
0100
0000
,
0110
0000
0000
0000
0110
0000
0000
0000
0001
0000
1000
0001
0000
0001
0010
0000
,
0100
1000
0000
0000
0001
0000
1000
0000
0001
0100
0000
0100
0001
0000
0010
0000
,
0001
0000
1000
0000
0100
0000
0100
0000
0010
0000
0010
0001
0000
0000
1000
0000
,
1000
0000
0010
0000
0010
0000
0100
0000
0001
0000
0001
1000
0000
0000
0100
0000
,
0110
0000
0000
0000
1001
0000
0000
0000
1000
0000
0001
0100
0000
0000
1010
0000
,
1000
0000
0001
0000
1000
0000
0001
0000
1000
0000
0001
0000
0100
0000
0000
0010
0000
0000
2000
0000
0000
0002
0000
0000
,
0000
3003
1001
1001
,
2100
0000
3001
0000
0001
0100
0001
1000
,
0100
0000
1000
0001
0100
0000
0110
0000
,
0102
0000
1003
0000
1000
0100
1000
0000
,
0001
0010
0100
0000
1000
0010
0100
0000
,
0101
0000
1100
0000
0001
0100
0010
1000
,
1010
0101
0011
1100
,
1000
0000
0000
0100
0000
0000
0110
0000
0010
0000
0000
0001
0000
0000
0101
0000
,
1010
1000
0100
0000
0011
0001
0100
0000
,
0020
0000
0130
0000
0010
1000
0100
0010
,
0011
0101
1100
1010
,
0020
0000
0130
0000
0010
1000
0100
0001
,
1000
0010
0001
1000
0020
0000
0230
0000
,
0310
0000
0000
1010
0000
0000
1000
0000
0100
0000
0000
0011
0000
0000
1000
0000
,
0001
0000
1000
0000
0010
0000
0001
0000
1000
0000
0000
1100
0000
0000
0101
0000
,
0001
1000
0010
0101
0000
0001
0010
1100
,
0000
1000
0010
0100
0010
0000
0110
0000
,
1010
0000
1100
0100
1000
0000
0001
0100
,
0001
0000
1000
0100
0010
0001
1000
0100
,
0011
0000
0101
0001
1000
0000
0001
1000
,
0010
0100
0010
0220
0000
0000
0000
0000
,
0330
0000
0000
0000
;

//--------------- dance-single - ----------------
#NOTES:
     dance-single:
     :
     Challenge:
     15:
     0.614923,0.4656,0,0,0,388,388,0,0,0,0,0.614923,0.4656,0,0,0,388,388,0,0,0,0:
0000
0000
0000
0000
,
0001
0000
0100
0000
0002
0000
0000
0010
0000
0013
0100
0000
1000
0000
0001
0000
,
0100
0000
0010
0000
2000
0000
0000
0010
0000
3010
0100
0000
0001
0000
0010
0000
,
0100
0000
1000
0000
0200
0000
0000
0010
0000
0310
0001
0000
0100
0000
0010
0000
,
1000
0000
0001
0000
0020
0000
0000
0100
0000
0130
1000
0000
0100
1000
0010
0000
,
0110
0000
0001
0000
0010
0000
0100
1000
0000
1000
0001
0000
0101
0000
1010
0000
,
0010
0000
1000
0000
0100
0000
0010
0001
0000
0001
1000
0000
1100
0000
0011
0000
,
0010
0000
0001
0000
1000
0000
0010
0100
0000
0100
0001
0000
0011
0000
1100
0000
,
0100
0000
1000
0000
0001
0000
0100
0010
0000
0010
1000
0000
1000
0001
0100
0000
,
0101
0000
0000
0000
1010
0000
0000
1000
0010
0000
0010
0000
0110
0000
0100
0001
,
0000
1001
0000
1000
0100
0000
0010
0000
0011
0000
1100
0000
0011
0000
1000
0010
,
0000
0100
0001
0000
0010
0000
0100
0000
0001
0000
0100
1000
0000
0001
0100
0000
,
0010
0100
0000
0100
0001
1000
0000
1000
1010
0000
0101
0000
1001
0000
1000
0100
,
0010
0001
0000
1000
0001
0000
1000
0100
0000
0100
0001
0000
0010
0000
1000
0100
,
0010
0001
1000
0010
0000
0110
0000
0100
0001
0100
0001
0010
0000
0000
0000
0010
,
0100
1000
0001
0000
1001
0000
0000
0001
0100
0010
1000
0000
1001
0000
0000
0001
,
1000
0100
0010
0001
0011
0000
0000
1010
0000
0010
0100
0000
0110
0000
0010
1000
,
0001
0000
0100
0001
0010
0000
1000
0000
0010
0000
0001
0100
0010
0000
0010
1000
,
0010
1000
0001
0010
0001
0010
0100
1000
0001
0100
0010
2000
0000
0000
3100
0010
,
0001
0000
1000
0100
0010
0000
0001
0100
0010
0000
0100
0010
1000
0000
0010
0100
,
0010
0000
0000
0000
1000
0000
0000
0000
0001
0000
0000
0000
1000
0000
0000
0000
0001
0000
0000
0000
0100
0000
0000
0000
0001
0000
0000
0100
0000
0000
0010
0000
0000
2000
0000
0000
0000
0000
0000
0000
0000
0000
0000
0000
0000
3100
0000
0000
,
0010
0100
0000
0001
0000
0200
0000
0000
1300
0010
0000
0110
0000
0100
0001
0010
,
0100
0010
0000
0011
0000
1100
0000
1000
0010
0200
0000
0000
0301
0000
0100
1000
,
0100
0000
0100
0001
0100
0010
0000
0010
1000
0010
0100
0001
0010
0100
0000
0100
,
1000
0200
0000
0000
0301
0000
0100
1000
0001
1000
0000
0010
0100
0000
0010
1000
,
0002
0000
0013
0100
0010
0100
1000
0100
0010
0000
0010
0002
0000
0000
1003
0010
,
1000
0000
1000
0010
0100
0010
1000
0001
0010
0000
0010
0002
0000
0000
1003
0100
,
1000
0000
0001
0100
0001
0000
0010
0000
0100
1000
0100
0010
0000
0000
1001
0000
,
0001
0000
0100
0000
0100
0000
1000
0000
0010
0000
0010
0000
0002
0000
0000
0203
0000
0000
0302
0000
0000
2000
0000
0000
,
0000
0000
0000
0000
0000
0000
3003
0000
0001
1000
0000
0000
1001
0000
0000
0000
,
2100
0000
0000
0000
0001
0000
3010
0100
0010
0000
0100
0000
0001
0000
0010
0000
,
0100
0000
1000
0100
0000
0000
1000
0100
0010
0000
0011
0000
1001
0000
0100
0000
,
0102
0000
0000
0000
1000
0000
0013
0100
0010
0000
0100
0000
1000
0000
0001
0000
,
0100
0000
0010
1000
0010
0000
0100
0010
0100
0000
0001
0100
0001
0000
1000
0001
,
2000
0000
0000
0000
0001
0000
3100
0010
0100
0000
0010
0000
0001
0000
1000
0000
,
0110
0000
0000
0100
0001
0000
1001
0000
1000
0000
0001
0100
0001
0000
0010
0000
,
0100
1000
0000
0101
0000
0000
1010
0000
0100
0001
0000
1100
0000
0000
0011
0000
,
1001
0000
1000
0010
0100
0000
0001
0010
0100
0000
1000
0100
0010
0000
0001
0100
,
0020
0000
1000
0000
0130
0000
0100
0001
0010
0000
0100
0000
1000
0000
0001
0000
,
0110
0000
1000
0010
0000
0100
0010
0000
1000
0100
0010
0001
1000
0000
0001
0000
,
0020
0000
0001
0000
0100
0000
0130
1000
0010
0000
0100
0000
0001
0000
0010
0000
,
1001
0000
1000
0000
0100
0010
0000
0001
1000
0010
0100
0001
0010
0100
1000
0001
,
0100
0010
0000
1010
0000
0100
0001
0000
1000
0100
0000
0011
0000
0001
1000
0000
,
1001
0000
1000
0001
0010
0000
0001
1000
0010
0000
0000
0110
0000
0000
0101
0000
,
1010
1000
0100
0011
0000
0001
0100
1010
,
0000
0000
1000
0000
0001
0000
1000
0010
0100
0001
0000
0000
0101
0000
0000
0000
,
1010
1000
0000
0000
1100
0000
0100
0010
0000
0011
0000
0000
0001
0000
0100
0000
,
0010
0000
1010
1000
0100
0000
0110
0000
0001
0000
1000
0100
0000
0000
0110
0000
,
0011
0001
0000
0000
0101
0000
0100
0010
0000
1010
0000
0100
0001
0000
0010
0100
,
0010
0001
0100
0000
0010
0000
0220
0000
0000
0000
0000
0000
0000
0000
0000
0000
,
0330
0000
0000
0000
;
