#TITLE:愛言葉V feat. 初音ミク;
#SUBTITLE:;
#ARTIST:DECO*27;
#TITLETRANSLIT:Ai kotoba V;
#SUBTITLETRANSLIT:;
#ARTISTTRANSLIT:DECO*27;
#GENRE:POP;
#CREDIT:;
#MUSIC:Ai kotoba V.ogg;
#BANNER:Ai kotoba V.png;
#BACKGROUND:Ai kotoba V-bg.png;
#CDTITLE:;
#SAMPLESTART:63.265;
#SAMPLELENGTH:13.813;
#SELECTABLE:YES;
#OFFSET:-0.028;
#BPMS:0.000=139.000
,144.000=69.500
,146.000=139.000
,205.500=69.500
,207.500=139.000
,238.500=69.500
,239.000=139.000
;
#STOPS:205.500=0.216;
#BGCHANGES:3.250=Ai kotoba V.avi=1.000=0=0=0=StretchNoLoop====,
99999.000=-nosongbg-=1.000=0=0=0=StretchNoLoop====
;
#FGCHANGES:;

//--------------- dance-single - ----------------
#NOTES:
     dance-single:
     :
     Medium:
     12:
     0.520042,0.700881,0.297012,0.297012,0.08758,478,439,39,39,0,0,0.520042,0.700881,0.297012,0.297012,0.08758,478,439,39,39,0,0:
0000
0000
0000
0000
,
0000
0000
0000
0000
,
0000
0000
0000
0000
,
0000
0000
0000
0000
,
0000
0000
0000
0000
,
0001
1000
0010
0100
0000
0100
0001
0011
,
0000
1010
0000
1100
0000
0101
0000
0110
,
1000
0001
0010
0100
0000
0100
2000
0010
,
0000
0001
0000
0100
0000
0001
0000
3010
,
1000
0001
0010
0100
0000
0100
1000
1010
,
0000
0011
0000
0101
0000
1100
0000
0110
,
1000
0100
0010
0001
0000
0001
1000
0020
,
0000
0001
0000
0100
0000
1030
0001
0000
,
0010
0000
0010
0100
0000
1000
0100
0010
,
0001
0010
0100
1000
0001
0000
0200
0000
,
0010
0000
0000
0000
0000
0310
1000
0001
,
0100
0010
1000
0001
0010
0100
2000
0000
,
0001
0000
0000
0000
0000
3001
1000
0010
,
0100
0001
0010
0100
2000
0000
3001
0000
,
0011
0000
1100
0000
1000
0010
0001
0010
,
0000
0010
1000
0100
0001
0000
0100
1000
,
0000
0000
0001
0000
0100
0000
1000
0000
0100
0000
0001
1000
0000
0000
0100
0000
,
0000
0000
0010
0000
0001
0000
1000
0000
0001
0000
0010
0100
0000
0000
1100
0000
,
0000
0011
0001
1000
0010
0100
0001
0010
,
0000
0010
0100
1000
0000
0000
0001
0200
,
0000
0000
1300
0000
0100
0000
0001
0000
1000
0000
0100
0010
0000
0000
0020
0000
,
0000
0000
0031
0000
1000
0000
0010
0000
0001
0000
0010
0100
0000
0000
0101
0000
,
0000
1100
0100
1000
0010
0100
0010
1000
,
0000
0001
0010
0100
1000
0000
1000
0000
,
0001
0010
0001
0100
0010
1000
0100
1000
,
0010
0100
0001
1000
0001
0000
1000
0001
,
0100
1000
0001
1000
0100
0001
1000
0001
,
0010
1000
0010
0001
1000
0000
0001
0100
,
0000
0000
0100
0000
0010
0000
1000
0000
0001
0000
0000
0100
0000
0000
0010
0000
,
0000
0010
1000
0001
0000
0010
0100
0000
,
1000
0000
0001
0010
0000
0100
1000
0001
,
2000
3000
0000
0000
0000
0000
0000
0000
0000
0000
0000
0000
0000
0000
0000
0000
0000
0000
0000
0000
0000
0000
0000
0000
0000
0000
0000
0000
0000
0000
0000
0000
0000
0000
0000
0000
0000
0000
0000
0000
0000
0000
0000
0000
0000
0000
0000
0000
0000
0000
0000
0000
0000
0000
0000
0000
0000
0000
0000
0000
0001
0000
0000
0000
0000
0000
0000
0000
0000
0000
0000
0000
0010
0000
0000
0000
0000
0000
0000
0000
0000
0000
0000
0000
0100
0000
0000
0000
0000
0000
0000
0000
0000
0000
0000
0000
2000
3000
0000
0000
0000
0000
0000
0000
0000
0000
0000
0000
0000
0000
0000
0000
0000
0000
0000
0000
0000
0000
0000
0000
0010
0000
0000
0000
0000
0000
0000
0000
0000
0000
0000
0000
0000
0000
0000
0000
0000
0000
0000
0000
0000
0000
0000
0000
0100
0000
0000
0000
0000
0000
0000
0000
0000
0000
0000
0000
0000
0000
0000
0000
0000
0000
0000
0000
0000
0000
0000
0000
0001
0000
0000
0000
0000
0000
0000
0000
0000
0000
0000
0000
1000
0000
0000
0000
0000
0000
0000
0000
0000
0000
0000
0000
,
0000
0000
1000
0000
0010
0000
0100
0000
0001
0000
0010
0000
0100
0000
1000
0001
,
0000
0000
0100
0000
0010
0000
0000
0000
0010
0000
1000
0000
0100
0000
1000
0010
,
0000
0100
0001
0010
0100
1000
0001
0100
,
0000
0110
0000
1001
0001
0010
1000
0001
,
0100
0000
1000
0000
0010
0000
0001
0000
1000
0000
0100
0000
0001
1000
0000
0100
,
0000
0010
0001
1000
0100
0010
0001
0100
,
0010
1000
0001
0010
0000
0010
0100
0000
,
0010
0000
0001
0000
1000
0000
0001
0000
0100
0000
1000
0000
0100
0000
0001
1000
,
0000
0000
1000
0000
0001
0000
1000
0000
0100
0000
0001
0000
0100
0000
1000
0001
,
0000
0000
0100
0000
0110
0000
0000
0000
0001
0000
1000
0000
0100
0000
0001
0100
,
0000
0100
1000
0001
0100
0010
1000
0001
,
0000
0011
0000
1100
1000
0010
0001
1000
,
0100
0000
0001
0000
0010
0000
1000
0000
0001
0000
0100
0000
1000
0001
0000
0100
,
0000
0010
1000
0100
0010
0001
1000
0010
,
0100
0000
0000
0000
0000
0000
0000
0000
0000
0000
0000
0000
0000
0000
0000
0000
0000
0000
0000
0000
0000
0000
0000
0000
0010
0000
0000
0000
0000
0000
0000
0000
0000
0000
0000
0000
0000
0000
0000
0000
0000
0000
0000
0000
0000
0000
0000
0000
0100
0000
0000
0000
0000
0000
0000
0000
0000
0000
0000
0000
0000
0000
0000
0000
0000
0000
0000
0000
0000
0000
0000
0000
0002
0003
0000
0000
0000
0000
0000
0000
0000
0000
0000
0000
0000
0000
0000
0000
0000
0000
0000
0000
0000
0000
0000
0000
1000
0000
0000
0000
0000
0000
0000
0000
0000
0000
0000
0000
0000
0000
0000
0000
0000
0000
0000
0000
0000
0000
0000
0000
0100
0000
0000
0000
0000
0000
0000
0000
0000
0000
0000
0000
0000
0000
0000
0000
0000
0000
0000
0000
0000
0000
0000
0000
0010
0000
0000
0000
0000
0000
0000
0000
0000
0000
0000
0000
0001
0000
0000
0000
0000
0000
0000
0000
0000
0000
0000
0000
0202
0303
0000
0000
0000
0000
0000
0000
0000
0000
0000
0000
0000
0000
0000
0000
0000
0000
0000
0000
0000
0000
0000
0000
,
0000
1100
0000
0101
0000
0001
0010
0100
,
1000
0000
0010
0000
0100
0000
0001
0100
,
1000
0100
0001
0000
0001
0010
0100
0110
,
0000
1001
0000
1000
0010
0100
0001
0201
,
0000
0000
0302
0000
0100
0000
2003
0000
0100
3000
0002
0000
0100
0000
0013
0000
,
0000
0110
0000
1001
1000
0010
1000
0001
,
0100
0100
0100
0100
0100
0100
0100
0110
,
0000
0000
0000
0000
0000
0000
0000
0000
0000
0000
0000
0000
0000
0000
0000
0000
0000
0000
0000
0000
0000
0000
0000
0000
1001
0000
0000
0000
0000
0000
0000
0000
0000
0000
0000
0000
0000
0000
0000
0000
0000
0000
0000
0000
0000
0000
0000
0000
0000
0000
0000
0000
0000
0000
0000
0000
0000
0000
0000
0000
0000
0000
0000
0000
0000
0000
0000
0000
0000
0000
0000
0000
0110
0000
0000
0000
0000
0000
0000
0000
0000
0000
0000
0000
0000
0000
0000
0000
0000
0000
0000
0000
0000
0000
0000
0000
0000
0000
0000
0000
0000
0000
0000
0000
0000
0000
0000
0000
0000
0000
0000
0000
0000
0000
0000
0000
0000
0000
0000
0000
2002
3003
0000
0000
0000
0000
0000
0000
0000
0000
0000
0000
0000
0000
0000
0000
0000
0000
0000
0000
0000
0000
0000
0000
2000
3000
0000
0000
0000
0000
0000
0000
0000
0000
0000
0000
0000
0000
0000
0000
0000
0000
0000
0000
0000
0000
0000
0000
0001
0000
0000
0000
0000
0000
0000
0000
0000
0000
0000
0000
0100
0000
0000
0000
0000
0000
0000
0000
0000
0000
0000
0000
,
0001
0000
1000
0100
1000
0000
0001
0000
0011
0000
1100
0000
0001
0000
1000
0100
,
1000
0000
0001
0000
0100
0000
0010
0000
1010
0000
0101
0000
1000
0000
0010
0100
,
0010
0000
1000
0000
0001
0000
0010
0100
0010
0000
0001
0000
1000
0000
0001
0000
,
0010
0100
2000
0000
3020
0000
0230
0000
,
0301
0010
0000
0100
0000
1100
0000
0011
,
0000
0020
0032
2003
,
0010
3002
0023
0230
,
2300
0000
3001
0100
0010
2000
0000
0000
,
0000
0000
0000
0000
0000
3010
0100
0001
,
1000
0001
0010
0100
1000
0020
0000
0100
,
0000
1000
0000
0100
0000
0001
0000
0100
,
0000
0001
0000
0100
0000
1030
0200
0010
,
0000
0001
0000
0010
0000
1300
0020
0230
,
0302
0023
0230
2300
3002
0103
0000
0000
;

//--------------- dance-single - ----------------
#NOTES:
     dance-single:
     :
     Hard:
     15:
     0.737633,0.869092,0.297012,0.297012,0.586408,678,639,39,39,0,0,0.737633,0.869092,0.297012,0.297012,0.586408,678,639,39,39,0,0:
0000
0000
0000
0000
,
0000
0000
0000
0000
,
0000
0000
0000
0000
,
0000
0000
0000
0000
,
0001
0000
1000
0100
0000
0000
0110
0000
0000
0000
0001
0000
1001
0000
0000
0000
,
0001
0100
0001
0000
1000
0000
0100
0010
0100
0000
1000
0000
0001
0100
0010
0000
,
1000
0001
1000
0000
0001
0010
0001
0010
0100
0000
1000
0010
1000
0010
0100
0000
,
0001
0100
0001
0000
1000
0000
0100
0010
0100
0000
1000
0000
0001
0000
2000
0000
,
3010
0000
0200
0000
0310
0000
0002
0000
0013
0000
2000
0000
3100
0010
0100
0000
,
1000
0100
1000
0000
0001
0000
0010
0100
0010
0000
0001
0000
1000
0001
1000
0001
,
0100
0000
0010
0000
1000
0000
0001
0010
0100
0000
1000
0001
1000
0100
0010
0000
,
0100
1000
0100
0000
1000
0000
0001
0100
0001
0000
1000
0000
0010
0000
0200
0000
,
0000
1000
0000
0010
0000
0301
2000
0000
,
3100
0010
0001
2000
0000
3010
0100
0001
,
1000
0100
0010
0001
2000
0000
3002
0000
,
0100
0000
0103
0010
1000
0100
0010
0100
,
1000
0001
0100
0001
0010
0100
2000
0000
,
0010
0000
0010
0000
3001
1000
0001
0010
,
0100
1000
0001
1000
0020
0000
0130
0000
,
0110
0000
0000
0000
1001
0000
0000
0000
0001
0000
1000
0000
0001
0000
1000
0010
,
0100
0000
0000
0110
0000
0000
0110
0000
0000
1000
0001
0000
0010
0000
0100
1000
,
0001
0000
0100
0010
0100
0000
0001
0000
1000
0000
0001
1000
0000
0010
0100
0000
,
0001
0000
1000
0100
0010
0000
0100
1000
0001
0000
1000
0010
0000
0000
0110
0000
,
0000
0000
0101
0000
0001
0000
1000
0100
0010
0000
0100
0000
1000
0000
0001
0000
,
0000
0000
0001
0000
1000
0000
0010
0000
0100
0001
0100
0001
1000
0000
0200
0000
,
0000
0000
0310
0000
0001
0000
1000
0000
0001
0000
0100
0010
0000
0000
0020
0000
,
0000
0000
1030
0000
0001
0000
0010
0000
0100
0000
1000
0001
0000
0000
0101
0000
,
0000
0000
1100
0000
1000
0000
0100
1000
0010
0000
0100
0000
0001
0000
0010
0000
,
0000
0100
1000
0001
1000
0001
0100
0000
,
0001
0100
0001
1000
0100
1000
0001
0100
0010
0000
0100
0001
1000
0010
0100
0001
,
0010
0001
1000
0100
0010
0000
0011
0000
1100
0000
0000
0000
1000
0100
0010
0001
,
1000
0001
0010
0100
1000
0010
1000
0100
0010
0001
1000
0001
0100
0001
0010
0100
,
1000
0001
1000
0001
0100
0000
0101
0000
1100
0000
0000
0000
0001
0000
0010
0000
,
0000
0000
0010
0000
0100
0000
1000
0000
0001
0000
0100
1000
0000
0000
0200
0000
,
0000
0000
0301
0000
1000
0000
0001
0000
0100
0000
0001
1000
0200
0000
0000
0000
,
0310
0000
0001
0010
0000
0100
1000
0001
,
2000
3000
0000
0000
0000
0000
0000
0000
0000
0000
0000
0000
0001
0000
0000
0000
0000
0000
0100
0000
0000
0000
0000
0000
0000
0000
0000
0000
0000
0000
0000
0000
0000
0000
0000
0000
0101
0000
0000
0000
0000
0000
0000
0000
0000
0000
0000
0000
0000
0000
0000
0000
0000
0000
0000
0000
0000
0000
0000
0000
0001
0000
0000
0000
0000
0000
0000
0000
0000
0000
0000
0000
0010
0000
0000
0000
0000
0000
0000
0000
0000
0000
0000
0000
0100
0000
0000
0000
0000
0000
0000
0000
0000
0000
0000
0000
2000
3000
0000
0000
0000
0000
0000
0000
0000
0000
0000
0000
0000
0000
0000
0000
0000
0000
0000
0000
0000
0000
0000
0000
0001
0000
0000
0000
0000
0000
0000
0000
0000
0000
0000
0000
0010
0000
0000
0000
0000
0000
0000
0000
0000
0000
0000
0000
0001
0000
0000
0000
0000
0000
0000
0000
0000
0000
0000
0000
0000
0000
0000
0000
0000
0000
0000
0000
0000
0000
0000
0000
1000
0000
0000
0000
0000
0000
0000
0000
0000
0000
0000
0000
0100
0000
0000
0000
0000
0000
0000
0000
0000
0000
0000
0000
,
0000
0010
0001
0000
1000
0000
1000
0000
0001
0000
1000
0010
1000
0000
0001
0100
,
0000
0010
1000
0000
1100
0000
0000
0000
1000
0000
0001
0100
0001
0000
1000
0100
,
0000
0010
0001
0000
0010
0000
0100
0000
1000
0001
0100
0001
0100
0010
1000
0001
,
0010
0000
0110
0000
0000
0000
1001
0000
0001
0010
0100
2000
0001
0000
3100
0000
,
1000
0010
0100
0002
1000
0000
0013
0000
1000
0100
0010
0001
1000
0010
0000
0100
,
0000
0000
0010
0000
1000
0000
0001
0000
0010
0000
0100
1000
0001
0000
0010
0001
,
1000
0000
0010
1000
0001
0000
0010
0000
0100
1000
0100
1000
0001
0000
0001
0010
,
0100
0000
1000
0000
0001
0000
0010
0000
0100
0000
1000
0100
1000
0000
0010
0100
,
0000
0010
1000
0100
0010
0001
1000
0000
0010
0000
0100
0001
0100
0000
0010
1000
,
0000
0001
0010
0000
0011
0000
0001
0010
0100
0000
1000
0010
0100
0000
1000
0100
,
0000
0001
0010
0000
0100
1000
0100
0010
0100
1000
0100
0010
0001
0010
1000
0000
,
0010
0000
0011
0000
0000
0000
1100
0000
0100
1000
0010
0100
1000
0000
0100
0001
,
0010
0100
1000
0010
0001
0000
0010
0000
0100
0001
0010
1000
0001
0100
0000
1000
,
0000
1000
0010
0100
0001
1000
0001
0010
,
0100
0000
0000
0000
0000
0000
0000
0000
0000
0000
0000
0000
0000
0000
0000
0000
0000
0000
0000
0000
0000
0000
0000
0000
0010
0000
0000
0000
0000
0000
0000
0000
0000
0000
0000
0000
0000
0000
0000
0000
0000
0000
0000
0000
0000
0000
0000
0000
0100
0000
0000
0000
0000
0000
0000
0000
0000
0000
0000
0000
0000
0000
0000
0000
0000
0000
0000
0000
0000
0000
0000
0000
2000
3000
0000
0000
0000
0000
0000
0000
0000
0000
0000
0000
0000
0000
0000
0000
0000
0000
0000
0000
0000
0000
0000
0000
0001
0000
0000
0000
0000
0000
0000
0000
0000
0000
0000
0000
0000
0000
0000
0000
0000
0000
0000
0000
0000
0000
0000
0000
0100
0000
0000
0000
0000
0000
0000
0000
0000
0000
0000
0000
0000
0000
0000
0000
0000
0000
0000
0000
0000
0000
0000
0000
0001
0000
0000
0000
0000
0000
0000
0000
0000
0000
0000
0000
0010
0000
0000
0000
0000
0000
0000
0000
0000
0000
0000
0000
0200
0300
0000
0000
0000
0000
0000
0000
0000
0000
0000
0000
0000
0000
0000
0000
0000
0000
0000
0000
0000
0000
0000
0000
,
1000
0100
0010
0000
0001
0010
0100
0000
1000
0100
0010
0000
0001
0000
1000
0000
,
0010
0000
0000
0000
0100
0000
0001
1000
0000
0001
0000
0010
0100
0000
1000
0000
,
0010
0100
0010
1000
0001
0000
1000
0000
0001
0010
0001
0000
1000
0000
0001
0000
,
1000
0010
0100
0000
0001
0100
0010
0000
1000
0000
0100
0000
0010
0000
0120
0000
,
0000
0032
0010
2003
0001
3200
0001
1300
,
0000
0110
0000
0101
0001
1000
0100
0010
,
1001
1001
1001
1001
1001
1001
1001
0110
,
0001
0000
0000
0000
0000
0000
0000
0000
0000
0000
0000
0000
0010
0000
0000
0000
0000
0000
0000
0000
0000
0000
0000
0000
0100
0000
0000
0000
0000
0000
0000
0000
0000
0000
0000
0000
0000
0000
0000
0000
0000
0000
0000
0000
0000
0000
0000
0000
1000
0000
0000
0000
0000
0000
0000
0000
0000
0000
0000
0000
0100
0000
0000
0000
0000
0000
0000
0000
0000
0000
0000
0000
0010
0000
0000
0000
0000
0000
0000
0000
0000
0000
0000
0000
0000
0000
0000
0000
0000
0000
0000
0000
0000
0000
0000
0000
0001
0000
0000
0000
0000
0000
0000
0000
0000
0000
0000
0000
0010
0000
0000
0000
0000
0000
0000
0000
0000
0000
0000
0000
0200
0300
0000
0000
0000
0000
0000
0000
0000
0000
0000
0000
0000
0000
0000
0000
0000
0000
0000
0000
0000
0000
0000
0000
2000
3000
0000
0000
0000
0000
0000
0000
0000
0000
0000
0000
0000
0000
0000
0000
0000
0000
0000
0000
0000
0000
0000
0000
0001
0000
0000
0000
0000
0000
0000
0000
0000
0000
0000
0000
0100
0000
0000
0000
0000
0000
0000
0000
0000
0000
0000
0000
,
0001
0000
1000
0010
1000
0000
0001
0100
0001
0000
1000
0000
0100
0000
0010
0001
,
0010
0000
0100
1000
0100
0000
0010
0001
0010
0000
0100
0000
1000
0000
0001
0100
,
0001
0000
1000
0100
1000
0000
0001
0010
0100
1000
0001
0010
0100
0000
1000
0000
,
0100
0010
0012
0013
2100
3100
1002
1003
,
0100
0110
0000
0011
0000
1100
0000
1000
,
0010
0000
0100
0000
0001
0000
0010
0100
1000
0000
0001
0100
1000
0000
0100
0000
,
0010
0000
1000
0100
0001
0000
0100
1000
0001
0100
0010
0000
1000
0000
0001
0010
,
0100
0000
1000
0001
1000
0001
0100
0010
1000
0001
0020
0000
0000
0000
0000
0000
,
0000
0000
0000
0000
0000
0000
0000
0000
0000
0000
0130
1000
0001
0000
0010
0000
,
0100
1000
0001
0100
0010
2010
0000
0001
,
0000
0100
0000
0001
0000
3010
1000
0001
,
1000
0100
1000
0001
1000
0010
0100
0001
,
0100
0000
0010
0000
0100
0000
1000
0000
0100
0000
0001
0010
0200
0000
2300
0000
,
3002
0023
0230
2300
3002
0103
0000
0000
;

//--------------- dance-single - ----------------
#NOTES:
     dance-single:
     :
     Challenge:
     16:
     0.846429,0.897127,0.297012,0.297012,0.852956,778,739,39,39,0,0,0.846429,0.897127,0.297012,0.297012,0.852956,778,739,39,39,0,0:
0000
0000
0000
0000
,
0000
0000
0000
0000
,
0000
0000
0000
0000
,
0000
0000
0000
0000
,
0001
0000
0010
0100
0000
0000
0110
0000
0000
0000
1000
0000
1001
0000
0000
0000
,
0001
0010
0100
0000
0010
0001
1000
0010
0100
0000
0010
0000
0100
0001
1000
0000
,
0100
0000
0010
0000
0001
0010
1000
0010
0001
0000
1000
0000
0001
0100
1000
0100
,
0001
0010
0100
0000
0010
0001
1000
0010
0100
0000
0001
0000
0010
0000
2000
0000
,
3010
0000
0002
0000
0103
0000
2000
0000
3100
0000
0020
0000
1030
0100
0010
0001
,
0010
0100
1000
0000
0001
0000
1000
0010
0100
0000
1000
0000
0100
0010
1000
0000
,
0001
0000
0010
0100
0001
0000
0100
0010
0001
0000
1000
0000
0001
0010
0100
1000
,
0001
1000
0010
0000
0100
0000
0001
0010
0100
0000
1000
0010
0100
0000
0020
0000
,
0000
1000
0000
0001
0000
0130
0110
0000
,
0001
0010
0100
1000
0001
0100
0010
1000
,
0001
0100
1000
0100
0001
0010
2000
0000
,
3010
0001
0100
0001
1000
0010
0100
1000
,
0100
0010
1000
0100
0001
0100
2000
0000
,
3001
1000
0100
0010
0100
1000
0001
1000
,
0010
0001
1000
0100
0001
0010
0100
0000
,
0110
0000
0000
0000
1001
0000
0000
0000
0001
0000
1000
0000
0001
0000
1000
0010
,
0100
0000
0000
0000
0000
0000
0000
0000
0000
0010
0000
0000
0000
0000
0000
0000
0000
0000
0100
0000
0000
0000
0000
0000
0000
0000
0000
0001
0000
0000
1000
0000
0100
0000
1000
0000
0100
0000
0000
0000
0000
0000
0010
0000
0000
0001
0000
0000
,
1000
0000
0000
0000
0000
0000
0001
0000
0000
0100
0000
0000
0010
0000
0000
0000
0000
0000
0100
0000
0000
0000
0000
0000
0001
0000
0000
0000
0000
0000
1000
0000
0100
0000
0010
0000
0001
0000
0000
0000
0000
0000
1000
0000
0000
0000
0000
0000
,
0001
0000
0000
1100
0000
0000
0100
0000
0000
0101
0000
0000
1000
0000
0000
0001
0010
0100
1000
0000
0000
0010
0000
0000
,
0100
0000
0000
0000
0000
0000
0001
0000
0000
1000
0000
0000
0100
0000
0000
0000
0000
0000
0010
0000
0000
0000
0000
0000
0001
0000
0000
0000
0000
0000
1000
0000
0001
0000
0100
0000
0010
0000
0000
0000
0000
0000
1000
0000
0000
0000
0000
0000
,
0001
0000
0000
1010
0000
0000
0010
0000
0000
0011
0000
0000
1000
0000
0000
0001
0100
0010
1000
0000
0000
0100
0000
0000
,
1000
0000
0000
0000
0000
0000
0100
0000
0000
0100
0000
0000
0001
0000
0000
0000
0000
0000
0010
0000
0000
0000
0000
0000
0100
0000
0000
0000
0000
0000
1000
0000
0100
0000
0100
0000
0001
0000
0000
0000
0000
0000
1000
0000
0000
0000
0000
0000
,
0010
0000
0000
0101
0000
0000
0100
0000
0000
1100
0000
0000
0001
0000
0000
1000
0010
0100
0001
0000
0000
1000
0000
0000
,
0001
0000
0000
0000
0000
0000
0100
0000
0000
0100
0000
0000
1000
0000
0000
0000
0000
0000
0010
0000
0000
0000
0000
0000
0100
0000
0000
0000
0000
0000
0001
0000
0100
0000
0100
0000
1000
0000
0000
0000
0000
0000
0010
0000
0000
0000
0000
0000
,
0100
0000
0000
0001
0000
0000
0010
0000
0000
0100
0000
0000
1000
0000
0000
0001
1000
0001
1000
0000
0000
0001
0010
0100
,
1000
0010
0100
0010
1000
0001
0100
0010
0100
1000
0001
0010
0100
0010
1000
0010
,
0100
0001
0010
0100
1000
0000
0010
0000
0110
0000
0100
0000
0001
0010
0100
1000
,
0001
0100
1000
0100
0001
0010
1000
0010
0001
1000
0100
0001
0100
1000
0010
0001
,
0010
1000
0010
1000
0001
0000
0011
0000
1100
0000
1000
0000
0001
0010
0100
0000
,
1000
0010
1000
0010
0100
0000
1000
0100
0010
0000
1000
0100
0000
0010
0001
0000
,
1000
0000
0001
0010
0100
1000
0010
0000
0001
0010
1000
0100
0020
0000
0000
0000
,
0130
0000
1000
0001
0000
0010
0100
1000
,
0002
0003
0000
0000
0000
0000
0000
0000
0000
0000
0000
0000
1000
0000
0000
0000
0000
0000
0100
0000
0000
0000
0000
0000
0000
0000
0000
0000
0000
0000
0000
0000
0000
0000
0000
0000
0110
0000
0000
0000
0000
0000
0000
0000
0000
0000
0000
0000
0000
0000
0000
0000
0000
0000
0000
0000
0000
0000
0000
0000
1000
0000
0000
0000
0000
0000
0000
0000
0000
0000
0000
0000
0100
0000
0000
0000
0000
0000
0000
0000
0000
0000
0000
0000
0010
0000
0000
0000
0000
0000
0000
0000
0000
0000
0000
0000
0002
0003
0000
0000
0000
0000
0000
0000
0000
0000
0000
0000
0010
0000
0000
0000
0000
0000
0000
0000
0000
0000
0000
0000
1000
0000
0000
0000
0000
0000
0000
0000
0000
0000
0000
0000
0000
0000
0000
0000
0000
0000
0000
0000
0000
0000
0000
0000
0010
0000
0000
0000
0000
0000
0000
0000
0000
0000
0000
0000
0001
0000
0000
0000
0000
0000
0000
0000
0000
0000
0000
0000
0100
0000
0000
0000
0000
0000
0000
0000
0000
0000
0000
0000
0010
0000
0000
0000
0000
0000
0000
0000
0000
0000
0000
0000
,
0000
1000
0001
0000
1000
0010
0100
0010
0100
0001
1000
0100
0001
0000
0100
0010
,
0000
0100
1000
0000
1100
0000
0001
1000
0001
0100
0010
0000
0100
0000
0001
0010
,
0000
0100
1000
0001
0100
0000
0010
1000
0001
0100
1000
0100
0010
1000
0100
0010
,
0001
0000
0101
0000
0000
0000
1010
0000
0010
1000
0100
0002
0100
0000
0103
1000
,
0010
0001
1000
0200
0001
0000
0010
0000
0310
1000
0100
0001
1000
0010
0000
0100
,
0000
0000
1000
0100
0010
0001
1000
0010
0100
0000
0001
0010
0100
0000
1000
0100
,
0010
0000
0001
0010
0100
0000
1000
0000
0001
1000
0100
1000
0001
0000
1000
0010
,
0100
0000
0010
0000
1001
0000
0000
0000
1000
0100
0010
0100
1000
0000
0001
0100
,
1000
0100
0010
0100
0001
0000
1000
0001
1000
0100
0010
0100
1000
0000
0001
0100
,
0000
0001
1000
0010
0001
0000
0010
1000
0001
0010
0100
0010
0001
0000
1000
0001
,
0000
1000
0001
0010
1000
0010
0001
0100
1000
0100
0010
0100
1000
0100
0010
1000
,
0001
0000
0011
0000
1000
0000
1100
0000
0100
0010
0001
0100
2000
0000
0001
3010
,
1000
0100
0001
2000
0010
0000
0010
3001
1000
0010
0001
0010
1000
0001
0010
0200
,
1000
0000
0010
0000
0001
0000
1300
0000
0001
0100
0010
0100
0010
1000
0001
1000
,
0100
0000
0000
0000
0000
0000
0000
0000
0000
0000
0000
0000
0010
0000
0000
0000
0000
0000
0000
0000
0000
0000
0000
0000
0100
0000
0000
0000
0000
0000
0000
0000
0000
0000
0000
0000
1000
0000
0000
0000
0000
0000
0000
0000
0000
0000
0000
0000
0001
0000
0000
0000
0000
0000
0000
0000
0000
0000
0000
0000
0010
0000
0000
0000
0000
0000
0000
0000
0000
0000
0000
0000
0200
0300
0000
0000
0000
0000
0000
0000
0000
0000
0000
0000
0000
0000
0000
0000
0000
0000
0000
0000
0000
0000
0000
0000
1000
0000
0000
0000
0000
0000
0000
0000
0000
0000
0000
0000
0000
0000
0000
0000
0000
0000
0000
0000
0000
0000
0000
0000
1000
0000
0000
0000
0000
0000
0000
0000
0000
0000
0000
0000
0000
0000
0000
0000
0000
0000
0000
0000
0000
0000
0000
0000
0001
0000
0000
0000
0000
0000
0000
0000
0000
0000
0000
0000
0010
0000
0000
0000
0000
0000
0000
0000
0000
0000
0000
0000
0202
0303
0000
0000
0000
0000
0000
0000
0000
0000
0000
0000
0000
0000
0000
0000
0000
0000
0000
0000
0000
0000
0000
0000
,
1000
0010
1100
0000
0001
0010
0101
0000
1000
0010
0100
0000
0001
1000
0100
0010
,
0001
1000
0010
0000
0100
0001
0010
0100
0000
0100
0000
1000
0001
0000
0100
0000
,
0001
0010
1000
0000
0010
0000
0001
0000
1000
0010
0001
0010
1000
0001
0010
0000
,
0100
1000
0010
0000
0100
0001
0010
0000
0100
0000
1000
0000
0010
0000
0200
0000
,
0301
0010
0200
0000
1000
0310
0200
0000
0001
0310
0200
0000
1000
0310
0001
0000
,
0000
0000
0010
0000
1000
0000
0001
0000
0010
0100
0010
0000
0100
0010
0100
0000
,
1001
1001
1001
1001
1001
1001
1001
1001
,
0001
0000
0000
0000
0000
0000
0000
0000
0000
0000
0000
0000
0100
0000
0000
0000
0000
0000
0000
0000
0000
0000
0000
0000
1000
0000
0000
0000
0000
0000
0000
0000
0000
0000
0000
0000
0000
0000
0000
0000
0000
0000
0000
0000
0000
0000
0000
0000
0001
0000
0000
0000
0000
0000
0000
0000
0000
0000
0000
0000
0010
0000
0000
0000
0000
0000
0000
0000
0000
0000
0000
0000
1000
0000
0000
0000
0000
0000
0000
0000
0000
0000
0000
0000
0000
0000
0000
0000
0000
0000
0000
0000
0000
0000
0000
0000
0001
0000
0000
0000
0000
0000
0000
0000
0000
0000
0000
0000
0010
0000
0000
0000
0000
0000
0000
0000
0000
0000
0000
0000
0200
0300
0000
0000
0000
0000
0000
0000
0000
0000
0000
0000
0000
0000
0000
0000
0000
0000
0000
0000
0000
0000
0000
0000
2000
3000
0000
0000
0000
0000
0000
0000
0000
0000
0000
0000
0000
0000
0000
0000
0000
0000
0000
0000
0000
0000
0000
0000
0001
0000
0000
0000
0000
0000
0000
0000
0000
0000
0000
0000
0010
0000
0000
0000
0000
0000
0000
0000
0000
0000
0000
0000
,
0100
0000
1000
0100
0010
0000
0001
0010
1000
0000
0010
0000
0001
0000
1000
0010
,
0100
0000
0001
0100
0010
0000
1000
0010
0001
0000
0010
0000
1000
0001
0010
0100
,
1000
0000
0001
0100
1000
0000
0100
0001
0010
0100
1000
0100
0002
0000
0203
0000
,
2300
3010
0102
1003
2100
3001
0210
1000
,
0301
0100
0010
1001
0100
0011
0010
0110
,
1000
0000
0001
1000
0100
0001
0100
1000
0001
1000
0010
0001
1000
0000
0100
0001
,
0010
0000
0100
1000
0001
0010
1000
0001
0100
0000
1000
0010
0100
0000
1000
0100
,
0001
1000
0100
0010
0001
1000
0010
0001
1000
0100
0020
0000
0000
0000
0000
0000
,
0000
0000
0000
0000
0000
0000
0000
0000
0000
0000
0000
0000
0000
0000
0000
1030
0100
0010
0001
0000
0000
0010
0000
0000
,
0100
1000
0100
0010
0001
1002
0000
0100
,
0000
1000
0000
0010
0000
0103
0010
1000
,
0010
0100
0010
0001
0010
1000
0100
0010
,
0100
0000
0000
0001
0000
0000
0100
0000
0000
1000
0000
0000
0100
0000
0000
0010
0001
1000
0200
0000
0000
0320
0000
0000
,
0032
2003
3200
0320
0032
1003
0000
0000
;
