#TITLE:愛言葉IV feat. 初音ミク -Full song-;
#SUBTITLE:;
#ARTIST:DECO*27;
#TITLETRANSLIT:Ai kotoba IV;
#SUBTITLETRANSLIT:;
#ARTISTTRANSLIT:DECO*27;
#GENRE:POP;
#CREDIT:;
#MUSIC:Ai kotoba IV -Full song-.ogg;
#BANNER:Ai kotoba IV -Full song-.png;
#BACKGROUND:Ai kotoba IV -Full song--bg.png;
#CDTITLE:;
#SAMPLESTART:62.192;
#SAMPLELENGTH:14.460;
#SELECTABLE:YES;
#OFFSET:1.045;
#BPMS:0.000=139.000
,143.000=69.500
,144.750=34.750
,145.000=139.000
,206.500=69.500
,207.500=139.000
,280.000=69.500
,288.000=139.000
,302.000=69.500
,303.000=139.000
,333.000=69.500
,335.000=139.000
,431.000=69.500
,431.500=139.000
;
#STOPS:19.000=0.216
,309.500=0.432
,316.500=0.432
;
#LASTBEATHINT:0.104250;
#BGCHANGES:2.000=Ai kotoba IV -Full song-.avi=1.000=0=0=0=StretchNoLoop====,
99999.000=-nosongbg-=1.000=0=0=0=StretchNoLoop====
;
#FGCHANGES:;

//--------------- dance-single - ----------------
#NOTES:
     dance-single:
     :
     Beginner:
     3:
     0,0,0,0,0:
0000
0000
0000
0000
,
0001
0000
0000
0000
,
1000
0000
0000
0000
,
0100
0000
0000
0000
,
0010
0000
0000
0000
0000
0000
0000
0000
0000
0000
0000
0000
0000
0000
0000
0000
0000
0000
0000
0000
0000
0000
0000
0000
0000
0000
0000
0000
0000
0000
0000
0000
0000
0000
0000
0000
0000
0000
0000
0000
0000
0000
0000
0000
0000
0000
0000
0000
0000
0000
0000
0000
0000
0000
0000
0000
0000
0000
0000
0000
0000
0000
0000
0000
0000
0000
0000
0000
0000
0000
0000
0000
0000
0000
0000
0000
0000
0000
0000
0000
0000
0000
0000
0000
0000
0000
0000
0000
0000
0000
0000
0000
0000
0000
0000
0000
0000
0000
0000
0000
0000
0000
0000
0000
0000
0000
0000
0000
0000
0000
0000
0000
0000
0000
0000
0000
0000
0000
0000
0000
0000
0000
0000
0000
0000
0000
0000
0000
0000
0000
0000
0000
0000
0000
0000
0000
0000
0000
0000
0000
0000
0000
0000
0000
2002
3003
0000
0000
0000
0000
0000
0000
0000
0000
0000
0000
0000
0000
0000
0000
0000
0000
0000
0000
0000
0000
0000
0000
0000
0000
0000
0000
0000
0000
0000
0000
0000
0000
0000
0000
0000
0000
0000
0000
0000
0000
0000
0000
0000
0000
0000
0000
,
0000
0001
0000
0000
0000
1000
0000
0000
,
0000
0001
0000
0000
0000
1000
0000
0000
,
0000
0010
0000
0000
0000
0100
0000
0000
,
0000
0010
0000
0000
0000
0100
0000
0000
,
0000
0001
0000
0000
0000
1000
0000
0000
,
0000
0100
0000
0000
0000
0010
0000
0000
,
0000
0001
0000
0000
0000
1000
0000
0000
,
0000
0010
0000
0000
0000
0100
0000
0100
,
0000
0000
0000
0000
0000
0000
0000
0001
,
0000
0000
0000
0000
0000
1000
0000
1000
,
0000
0000
0000
0000
0000
0000
0000
0010
,
0000
0000
0000
0000
0000
0100
0000
0100
,
0000
0000
0000
0000
0000
0000
0000
0001
,
0000
0000
0000
0000
0000
1000
0000
1000
,
0000
0000
0000
0000
0000
0000
0000
0001
,
0000
0000
0000
1000
0000
0000
0000
0002
,
0000
0000
0000
0100
0000
0000
0000
1000
,
0000
1003
0000
0000
0000
0000
0000
2000
,
0000
0000
0000
0100
0000
0000
0000
0001
,
0000
3001
0000
0000
0000
0000
0000
0002
,
0000
0000
0000
1000
0000
0000
0000
0100
,
0000
0103
0000
0000
0000
0000
0000
2000
,
0000
0000
0000
3020
0000
0000
0000
0230
,
0000
0000
0000
0000
0000
0301
0000
0002
,
0000
0000
0000
2003
0000
0000
0000
3010
,
0000
0000
0000
0000
0000
0010
0000
0010
,
0000
0000
0000
0000
0000
0000
0000
0100
,
0000
0000
0000
0000
0000
0020
0000
0030
,
0000
1000
0000
0000
0000
1000
0000
0000
,
0000
0001
0000
0000
0000
0001
0000
0000
,
0000
1000
0000
0000
0000
0002
0000
0000
,
0000
1003
1000
1000
,
0000
0001
0001
0001
,
0000
0100
0100
0100
,
0000
0010
0010
0020
,
0000
1030
0000
1000
,
0000
0001
0000
0001
,
0000
2000
0000
0000
,
0000
3001
0000
1000
,
0000
0001
0001
0001
,
0000
1000
1000
1000
,
0000
0010
0010
0010
,
0000
0100
0100
0200
,
0000
0301
0000
0001
,
0000
1000
0000
1000
,
0000
0001
0000
1000
,
0000
0000
0020
0000
0000
0000
0000
0030
,
0000
0000
0000
0000
,
0000
0000
0000
0000
,
1000
0000
0000
0000
,
0001
0000
1000
0000
,
0001
0000
0000
0000
,
1000
0000
0001
0000
,
1000
0000
0000
0000
,
0010
0000
0100
0000
,
0010
0000
1000
0000
,
0001
0000
1000
0000
,
0002
0000
2003
0000
,
3010
0000
0010
0000
,
0200
0000
0320
0000
,
0130
0000
0100
0000
,
0001
0000
0000
0000
,
1000
0000
0000
0000
,
0100
0000
0100
0000
,
0010
0000
0020
0000
,
0032
0000
0000
0000
,
2003
0000
0000
0000
,
3001
0000
0000
0000
,
1000
0000
0000
0000
,
0001
0000
1000
0000
,
0001
0000
2000
3001
,
0000
0001
0000
0001
,
0000
2000
3001
0000
,
0001
0000
0001
0000
,
2000
3001
0000
1000
,
0000
0001
0000
1000
,
0000
0010
0000
0100
,
0000
0010
0000
0200
,
0000
0320
0000
1030
,
1000
1000
0000
0001
,
0001
0001
0000
0100
,
0100
0100
0000
0010
,
0010
0020
0000
1030
,
0000
1000
0000
0001
,
0000
0001
0000
2000
,
0000
0000
0000
3001
,
0000
1000
0000
0001
,
0001
0001
0000
1000
,
1000
1000
0000
0010
,
0010
0010
0000
0100
,
0100
0200
0000
0301
,
0000
0001
0000
1000
,
0000
1000
0000
0001
,
0000
1000
0000
0020
,
0000
0000
0000
0030
0000
0000
1000
0000
,
0000
0001
0001
0000
,
0001
0000
1000
1000
,
0000
1000
0000
0010
,
0010
0000
0100
0100
,
0000
0001
0000
1000
,
0000
0001
0000
0010
,
0000
0010
0000
0100
,
0000
0100
0000
2000
,
0000
3001
0000
0000
0000
1000
0000
1000
,
0000
1000
0000
0000
0000
0010
0000
0000
,
0000
0100
0000
0000
0000
0001
0000
0001
,
0000
0002
0000
0000
0000
1003
0000
0000
,
0000
0001
0000
0000
0000
0100
0000
0000
,
0000
0010
0000
0000
0000
2000
0000
0000
,
0000
3200
0000
0000
0000
0320
0000
0000
,
0000
0032
0000
0000
0000
2003
0000
0000
,
0000
0000
0000
3001
0000
0001
0000
0000
,
0000
1000
0000
0000
0001
0000
0000
0000
,
1000
0000
0010
0000
,
0100
0000
0001
0000
,
1000
0000
0100
0000
,
0010
0000
1001
0000
;

//--------------- dance-single - ----------------
#NOTES:
     dance-single:
     :
     Easy:
     6:
     0,0,0,0,0:
0000
0000
0000
0000
,
0001
0100
0000
0001
,
1000
0100
0000
0010
,
0001
1000
0000
0010
,
1000
0000
0000
0000
0000
0000
0000
0000
0000
0000
0000
0000
0000
0000
0000
0000
0000
0000
0000
0000
0000
0000
0000
0000
0000
0000
0000
0000
0000
0000
0000
0000
0000
0000
0000
0000
0000
0000
0000
0000
0000
0000
0000
0000
0000
0000
0000
0000
1001
0000
0000
0000
0000
0000
0000
0000
0000
0000
0000
0000
0000
0000
0000
0000
0000
0000
0000
0000
0000
0000
0000
0000
0000
0000
0000
0000
0000
0000
0000
0000
0000
0000
0000
0000
0000
0000
0000
0000
0000
0000
0000
0000
0000
0000
0000
0000
0001
0000
0000
0000
0000
0000
0000
0000
0000
0000
0000
0000
0000
0000
0000
0000
0000
0000
0000
0000
0000
0000
0000
0000
0000
0000
0000
0000
0000
0000
0000
0000
0000
0000
0000
0000
0000
0000
0000
0000
0000
0000
0000
0000
0000
0000
0000
0000
2002
3003
0000
0000
0000
0000
0000
0000
0000
0000
0000
0000
0000
0000
0000
0000
0000
0000
0000
0000
0000
0000
0000
0000
0000
0000
0000
0000
0000
0000
0000
0000
0000
0000
0000
0000
0000
0000
0000
0000
0000
0000
0000
0000
0000
0000
0000
0000
,
0100
0001
1000
0100
,
0010
0100
1000
0001
,
0100
0010
1000
0010
,
0100
0001
1000
0100
,
0001
0100
1000
0010
,
0100
0001
0100
0010
,
1000
0001
0100
1000
,
0100
0000
0001
0000
1000
0000
0001
0100
,
0000
0000
0100
0000
0000
0100
0000
0001
,
0000
1000
0000
0100
0000
1001
0000
0001
,
0000
0000
0001
0000
0000
0001
0000
1000
,
0000
0010
0000
0100
0000
0110
0000
1000
,
0000
0000
1000
0000
0000
1000
0000
0001
,
0000
0010
0000
0100
0000
0110
0000
0010
,
0000
0000
0010
0000
0000
0010
0000
0011
,
0000
0100
0000
1100
0000
1000
0000
0002
,
0000
0000
0000
0100
0000
0000
0000
1003
,
0000
1001
0000
0000
0000
0001
0000
2000
,
0000
0000
0000
0100
0000
0000
0000
3001
,
0000
1001
0000
0000
0000
0001
0000
0200
,
0000
0000
0000
0010
0000
0000
0000
0310
,
0000
0110
0000
0000
0000
0010
0000
0200
,
0000
0000
0000
1000
0000
0000
0000
0301
,
0000
1000
0000
0100
0000
0110
0000
2000
,
0000
0000
0000
3002
0000
0000
0000
1003
,
0000
0100
0000
0010
0000
0001
0000
1000
,
0000
1000
0000
0001
0000
0000
0000
0100
,
0000
0010
0000
0010
0000
0200
0000
0301
,
0000
0100
0000
0010
0000
1000
0000
0000
,
0000
1000
0000
0001
0000
0010
0000
0000
,
0000
0100
0000
1000
0000
0002
0000
0000
,
0000
0103
0010
1000
,
1010
0001
0010
0100
,
1100
1000
0100
0010
,
0011
0001
1000
0001
,
1001
0100
0000
0010
,
0000
1000
0001
1000
,
0000
0001
0010
0100
,
1000
0001
0100
0010
,
1001
1000
0100
0010
,
0011
0001
0100
0010
,
1010
1000
0001
0010
,
0110
0100
1000
0001
,
1001
1000
0000
0001
,
0000
0010
0100
0010
,
0000
0001
1000
0010
,
0100
0001
0000
1000
0000
0002
0000
1003
,
0100
0000
0000
0010
0000
0000
0100
0000
,
0000
1000
0000
0000
0001
0000
0100
0000
,
0001
0000
0000
0001
0000
0000
0001
0000
,
0010
0100
1000
1100
,
0010
0000
0000
0010
0000
0000
0010
0000
,
0001
0001
0100
0101
,
1000
0000
0000
1000
0000
0000
1000
0000
,
0010
0010
0100
1001
,
0001
1000
0000
1000
,
0001
0100
0010
0110
,
2000
0000
3002
0000
,
0013
0100
1000
0001
,
0200
0000
0320
0000
,
1030
0001
1000
1001
,
0000
0001
0010
1000
,
0000
0001
0100
1000
,
0000
0010
0000
0100
,
0000
0001
2000
0000
,
3002
0100
0100
1000
,
2003
0100
0100
0001
,
3001
1000
0000
0010
,
0100
0010
0000
0100
,
0001
0100
0010
1000
,
0001
0010
0200
1300
,
1000
0001
0001
0200
,
0000
0000
0301
2000
3001
0000
0001
0000
,
1000
1000
0020
0000
,
1030
0002
0013
0000
0010
0000
0100
0000
,
1000
0001
0001
0100
,
0010
1000
0001
1000
,
0001
0000
0010
0000
0100
0000
1000
0002
,
0000
0203
0010
0310
,
1000
0100
1001
0001
,
0100
0010
1001
1000
,
0001
0010
0110
0001
,
1000
0010
0110
1000
,
0100
0001
0100
1000
,
0001
0100
1000
0100
,
0100
0010
0110
1000
,
0001
1000
1001
0001
,
0010
0100
0011
1000
,
0010
0100
1010
0001
,
1000
0010
0101
1000
,
0001
0010
1100
1000
,
0100
0001
0100
1000
,
0010
0001
0010
1000
,
1000
0000
0001
0000
0001
0200
0000
0010
,
0000
1000
0000
0010
0000
0301
0010
0000
,
0010
0100
0100
1000
,
1001
0001
0100
0010
,
0010
0100
0100
0010
,
1001
0010
0100
0110
,
0001
0000
0001
0000
1000
0100
0000
0100
,
0000
0100
0000
1000
0001
0000
0100
0000
,
0010
1000
0001
1000
,
0100
0000
0010
0000
0001
0000
0200
0310
,
0000
1000
0000
0001
0000
1000
0000
1000
,
0000
0001
0000
0100
0000
0020
0000
0130
,
0000
0200
0000
0310
0000
0010
0000
1000
,
0000
0002
0000
0010
0000
1000
0000
0103
,
0100
0010
1000
0001
,
0001
0010
0000
0100
0000
2000
0000
3200
,
0000
0320
0000
0032
0000
2003
0000
3020
,
0000
0230
0000
0302
0000
2003
0000
3001
,
0000
0000
0000
0001
0000
0100
0000
0010
,
0000
1000
0000
0001
0010
0000
0100
0000
,
0010
0001
1000
0010
,
0100
0010
1000
1000
,
0001
0010
0100
0010
,
0001
1000
1001
0000
;

//--------------- dance-single - ----------------
#NOTES:
     dance-single:
     :
     Medium:
     12:
     0,0,0,0,0:
0000
0000
0000
0000
,
0001
0100
0000
0010
0000
0100
0000
0001
,
0000
0010
0000
0100
0000
0100
0000
1000
,
0001
1000
0000
0010
0000
0100
0000
0001
,
1000
0000
0000
0000
0000
0000
0000
0000
0000
0000
0000
0000
0000
0000
0000
0000
0000
0000
0000
0000
0000
0000
0000
0000
0010
0000
0000
0000
0000
0000
0000
0000
0000
0000
0000
0000
0000
0000
0000
0000
0000
0000
0000
0000
0000
0000
0000
0000
0010
0000
0000
0000
0000
0000
0000
0000
0000
0000
0000
0000
0000
0000
0000
0000
0000
0000
0000
0000
0000
0000
0000
0000
0000
0000
0000
0000
0000
0000
0000
0000
0000
0000
0000
0000
0000
0000
0000
0000
0000
0000
0000
0000
0000
0000
0000
0000
0100
0000
0000
0000
0000
0000
0000
0000
0000
0000
0000
0000
0000
0000
0000
0000
0000
0000
0000
0000
0000
0000
0000
0000
0100
0000
0000
0000
0000
0000
0000
0000
0000
0000
0000
0000
0000
0000
0000
0000
0000
0000
0000
0000
0000
0000
0000
0000
2002
3003
0000
0000
0000
0000
0000
0000
0000
0000
0000
0000
0000
0000
0000
0000
0000
0000
0000
0000
0000
0000
0000
0000
0001
0000
0000
0000
0000
0000
0000
0000
0000
0000
0000
0000
0000
0000
0000
0000
0000
0000
0000
0000
0000
0000
0000
0000
,
0010
0100
0000
0100
1000
0001
0000
0001
,
0100
1000
0100
0001
1000
0100
0000
1000
,
0100
0010
0000
0010
0001
1000
0000
1000
,
0010
0100
0010
0001
0010
1000
0000
0001
,
0010
0100
0000
0100
1000
0001
0000
1000
,
0010
0001
1000
0100
0001
0010
0000
0100
,
1000
0001
0000
0001
0010
0100
1100
0000
,
0110
0000
1001
0010
0100
0010
0100
0001
,
0000
0001
0000
0010
0000
0010
0000
0100
,
0000
0100
1000
0010
0000
1010
0000
1000
,
0000
1000
0000
0010
0000
0010
0000
0100
,
0001
0000
0001
1000
0000
1001
0000
0001
,
0000
0010
0000
0100
0000
0010
0001
1000
,
0100
0010
0100
1000
0000
1010
0000
0100
,
0000
0100
0001
0000
0001
0100
0010
1010
,
0000
0110
0000
0101
0000
0001
1000
0010
,
0000
0100
0010
0100
0000
0010
1000
0100
,
0000
1000
0001
0000
0010
0100
0010
0011
,
0000
1001
0000
0001
1000
0100
0010
0000
,
0010
0100
1000
0000
0001
0100
0010
1000
,
0000
0100
0010
0100
0000
0010
0001
1000
,
0010
0100
0001
0000
1000
0010
1000
0100
,
0000
0110
0000
1001
0000
1000
0001
0000
,
0001
1000
0001
0100
0000
0110
0000
0010
,
0010
0000
0010
0100
0100
0000
0100
0001
,
0000
1000
0100
0000
0000
1000
0010
0000
0000
1000
0001
0000
0000
0000
1000
0000
,
0001
0100
0010
0100
0010
0000
0010
1000
,
0000
0001
0100
0000
0000
0001
1000
0000
0000
0001
0020
0000
0000
0000
0031
0000
,
1000
0001
0010
0100
0010
0100
1000
0000
,
0001
0100
0001
0000
1000
0010
1000
0001
,
0000
0000
0010
0000
0100
0000
1000
0000
0001
0000
0010
0000
0002
0000
1000
2003
,
0000
0010
3010
0000
0100
0000
0001
0000
1000
0000
0100
0010
0000
0000
0000
0000
,
0100
0000
1000
0000
0001
0000
0100
0000
0001
0000
1000
0010
0000
0000
0000
0000
,
0100
0000
0001
0000
0010
0000
1000
0000
0010
0000
0001
1000
0000
0000
0000
0000
,
0001
0000
0100
0000
1000
0000
0100
0000
0001
0000
0010
0200
0000
0000
0000
0000
,
0001
0000
1300
0010
0100
0002
0000
0010
,
0013
0200
0000
1300
0001
0200
0000
0310
,
1000
0001
0000
0010
0100
0010
0100
1000
,
0001
2000
0000
0010
3010
0000
0100
0001
,
0010
0000
0000
0000
0100
0000
0010
0000
0001
0000
1000
0010
0000
0000
0000
0000
,
0010
0000
1000
0000
0001
0000
0010
0000
0100
0000
1000
0001
0000
0000
0000
0000
,
0100
0000
0010
0000
0100
0000
1000
0000
0100
0000
0001
1000
0000
0000
0000
0000
,
0100
0000
0010
0000
0100
0000
0001
0000
0100
0000
1000
0002
0000
0000
0000
0000
,
0100
0000
0013
0100
1000
0020
0000
0100
,
0130
0002
0000
1003
0100
0020
0000
0031
,
1000
0010
0000
0100
0001
0100
0001
1000
,
0100
0020
0000
0031
0100
0020
1000
0130
,
0100
0000
0000
0100
0000
0000
0001
0000
0000
0001
0000
0000
1000
0000
0000
1000
,
0000
0001
0010
0100
1000
0001
0010
0100
,
1000
1000
0010
0010
,
0100
0000
0100
0001
1000
0000
1100
0000
,
0001
0001
0010
0010
,
0100
0000
0100
1000
0010
0000
0110
0000
,
1000
1000
0001
0001
,
0100
0000
0100
0010
1010
0000
1001
0000
,
0001
0000
0010
0100
0000
0100
1000
0010
,
0001
0010
0000
0100
0000
0100
0001
0000
,
1000
1000
0000
1000
0001
0001
0000
0001
,
0100
0000
0000
0100
0010
0000
0000
0100
1000
0000
0000
0100
0001
0000
0000
0000
,
0001
1000
0001
1000
0100
0010
0000
0001
,
0010
0000
0000
0010
0100
0000
0000
0010
1000
0000
0000
0010
0001
0000
0000
0000
,
1000
0100
0001
0100
1000
0010
1000
0100
,
0000
0100
1000
0001
0000
0001
0100
0010
,
1000
0000
1000
0001
0100
0001
0010
0200
,
1000
0010
2300
0000
,
3002
0003
0000
0000
0000
0000
0000
0000
0000
0000
0000
0000
0100
0000
0000
0000
0000
0000
0000
0000
0000
0000
0000
0000
0001
0000
0000
0000
0000
0000
0000
0000
0000
0000
0000
0000
0100
0000
0000
0000
0000
0000
0000
0000
0000
0000
0000
0000
0000
0000
0000
0000
0000
0000
0000
0000
0000
0000
0000
0000
0010
0000
0000
0000
0000
0000
0000
0000
0000
0000
0000
0000
0000
0000
0000
0000
0000
0000
0000
0000
0000
0000
0000
0000
1000
0000
0000
0000
0000
0000
0000
0000
0000
0000
0000
0000
0000
0000
0000
0000
0000
0000
0000
0000
0000
0000
0000
0000
0001
0000
0000
0000
0000
0000
0000
0000
0000
0000
0000
0000
0000
0000
0000
0000
0000
0000
0000
0000
0000
0000
0000
0000
0010
0000
0000
0000
0000
0000
0000
0000
0000
0000
0000
0000
0000
0000
0000
0000
0000
0000
0000
0000
0000
0000
0000
0000
0100
0000
0000
0000
0000
0000
0000
0000
0000
0000
0000
0000
0000
0000
0000
0000
0000
0000
0000
0000
0000
0000
0000
0000
1000
0000
0000
0000
0000
0000
0000
0000
0000
0000
0000
0000
,
0010
0100
0010
0100
0000
0001
0000
1000
0000
0001
0000
0100
0000
0010
1000
0010
,
1000
0000
1000
0000
0001
0100
0001
0100
,
0010
0000
0010
0000
1000
0100
1000
0100
,
0010
0100
1000
0000
0001
0100
0001
0000
,
1000
0000
0000
0000
0000
0000
0000
0000
0000
0000
0000
0000
0000
0000
0000
0000
0000
0000
0000
0000
0000
0000
0000
0000
0001
0000
0000
0000
0000
0000
0000
0000
0000
0000
0000
0000
0000
0000
0000
0000
0000
0000
0000
0000
0000
0000
0000
0000
1000
0000
0000
0000
0000
0000
0000
0000
0000
0000
0000
0000
0000
0000
0000
0000
0000
0000
0000
0000
0000
0000
0000
0000
0001
0000
0000
0000
0000
0000
0000
0000
0000
0000
0000
0000
0000
0000
0000
0000
0000
0000
0000
0000
0000
0000
0000
0000
2000
3000
0000
0000
0000
0000
0000
0000
0000
0000
0000
0000
0010
0000
0000
0000
0000
0000
0000
0000
0000
0000
0000
0000
1000
0000
0000
0000
0000
0000
0000
0000
0000
0000
0000
0000
0100
0000
0000
0000
0000
0000
0000
0000
0000
0000
0000
0000
0010
0000
0000
0000
0000
0000
0000
0000
0000
0000
0000
0000
0000
0000
0000
0000
0000
0000
0000
0000
0000
0000
0000
0000
0000
0000
0000
0000
0000
0000
0000
0000
0000
0000
0000
0000
0000
0000
0000
0000
0000
0000
0000
0000
0000
0000
0000
0000
,
0010
0001
1000
0000
1000
0010
0100
0000
,
0100
0000
0001
2000
3001
0000
0010
0100
,
0010
0000
0001
1000
0001
0000
1000
0000
,
1000
0002
1003
0000
1000
0010
0100
0001
,
1000
0000
0001
0000
0001
0010
0100
1000
,
0001
0000
0100
0000
1000
0100
0001
0000
,
1000
0100
0001
0000
1000
0010
0001
1000
,
0000
0000
0000
0000
0000
0000
0000
0000
0000
0000
0000
0000
0000
0000
0000
0000
0000
0000
0000
0000
0000
0000
0000
0000
0000
0000
0000
0000
0000
0000
0000
0000
0000
0000
0000
0000
0000
0000
0000
0000
0000
0000
0000
0000
0000
0000
0000
0000
0020
0030
0000
0000
0000
0000
0000
0000
0000
0000
0000
0000
1000
0000
0000
0000
0000
0000
0000
0000
0000
0000
0000
0000
0010
0000
0000
0000
0000
0000
0000
0000
0000
0000
0000
0000
0100
0000
0000
0000
0000
0000
0000
0000
0000
0000
0000
0000
0010
0000
0000
0000
0000
0000
0000
0000
0000
0000
0000
0000
1000
0000
0000
0000
0000
0000
0000
0000
0000
0000
0000
0000
0001
0000
0000
0000
0000
0000
0000
0000
0000
0000
0000
0000
0010
0000
0000
0000
0000
0000
0000
0000
0000
0000
0000
0000
0100
0000
0000
0000
0000
0000
0000
0000
0000
0000
0000
0000
0000
0000
0000
0000
0000
0000
0000
0000
0000
0000
0000
0000
0010
0000
0000
0000
0000
0000
0000
0000
0000
0000
0000
0000
0000
0000
0000
0000
0000
0000
0000
0000
0000
0000
0000
0000
,
0001
0000
1000
0010
0000
0000
0000
0000
0100
0000
0001
0000
0010
0000
0001
0000
,
1000
0000
0010
0100
0000
0000
0000
0000
0010
0000
1000
0000
0100
0000
0010
0000
,
0001
0000
1000
0010
0000
0000
0000
0000
0110
0000
0000
0000
0010
0000
1000
0000
,
0001
0000
0010
0100
0000
0000
0000
0000
1100
0000
0000
0000
1000
0000
0100
0000
,
0010
0001
0000
0001
1000
0010
0000
0010
,
0100
0001
0000
0001
1000
0100
0000
0010
,
0001
0100
0010
0100
0001
1001
0000
1000
,
0010
0000
0010
0100
1001
0000
0001
0100
,
1000
0000
0100
0001
0000
0000
0000
0000
1000
0000
0100
0000
0001
0000
0100
0000
,
1000
0000
0010
0100
0000
0000
0000
0000
0001
0000
0100
0000
1000
0000
0001
0000
,
0010
0000
1000
0001
0000
0000
0000
0000
1000
0000
0100
0000
0001
0000
1000
0000
,
0010
0000
0001
1000
0000
0000
0000
0000
0110
0000
0000
0000
0100
0000
0001
0000
,
1000
2000
0000
3001
0010
0200
0000
1300
,
0001
0200
0000
0310
1000
0001
0000
1000
,
0100
0010
0100
1000
0001
0200
0000
1000
,
0000
0001
0000
0010
0000
0301
1000
0000
,
1000
0000
0100
0010
0100
0110
0000
1001
,
0000
0001
0100
0100
1000
0001
0010
0000
,
1001
0000
0001
0010
0100
1000
0000
1010
,
0000
0100
0001
1000
0100
0000
1100
0000
,
1000
0010
0100
0010
0100
0101
0000
1100
,
0000
1001
0000
0001
0010
0100
0001
0100
,
0000
0100
1000
0010
0001
0020
0000
1000
,
0000
0000
0000
0000
0000
0000
0000
0000
0000
0000
0000
0000
0000
0000
0000
0000
0000
0000
0000
0000
0000
0000
0000
0000
0130
0000
0000
0000
0000
0000
0000
0000
0000
0000
0000
0000
0000
0000
0000
0000
0000
0000
0000
0000
0000
0000
0000
0000
0100
0000
0000
0000
0000
0000
0000
0000
0000
0000
0000
0000
0000
0000
0000
0000
0000
0000
0000
0000
0000
0000
0000
0000
0001
0000
0000
0000
0000
0000
0000
0000
0000
0000
0000
0000
0000
0000
0000
0000
0000
0000
0000
0000
0000
0000
0000
0000
1000
0000
0000
0000
0000
0000
0000
0000
0000
0000
0000
0000
0000
0000
0000
0000
0000
0000
0000
0000
0000
0000
0000
0000
0100
0000
0000
0000
0000
0000
0000
0000
0000
0000
0000
0000
0000
0000
0000
0000
0000
0000
0000
0000
0000
0000
0000
0000
0220
0330
0000
0000
0000
0000
0000
0000
0000
0000
0000
0000
0000
0000
0000
0000
0000
0000
0000
0000
0000
0000
0000
0000
1001
0000
0000
0000
0000
0000
0000
0000
0000
0000
0000
0000
0000
0000
0000
0000
0000
0000
0000
0000
0000
0000
0000
0000
,
0000
0000
0001
0000
0000
1000
0000
0000
0010
0000
0000
0000
0010
0000
0000
0000
,
0100
0000
0001
0000
0000
1000
0000
0000
0200
0000
0000
0000
0310
0000
0100
0000
,
0010
0000
0100
0000
0000
0100
0000
0000
1000
0000
0000
0000
0001
0000
0100
0000
,
0010
2000
0000
0010
0000
0001
0000
3100
,
0110
0011
1100
1001
,
0001
0100
0000
0010
0000
0100
0001
1000
,
0100
0020
0000
0032
0000
0023
0000
0230
,
0000
1300
0010
0100
0001
1000
0001
0100
,
2000
0000
3100
0001
0010
0100
1000
0010
,
0100
1000
0001
0010
2000
0000
0100
0000
,
0001
0010
0100
0001
,
0100
0010
0100
3002
,
0100
1000
0010
0100
,
1000
0000
0103
0010
0110
0000
0000
0000
;

//--------------- dance-single - ----------------
#NOTES:
     dance-single:
     :
     Hard:
     15:
     0.768067,0.942707,0.177998,0.177998,0.680045,1178,1139,39,39,0,0,0.768067,0.942707,0.177998,0.177998,0.680045,1178,1139,39,39,0,0:
0000
0000
0000
0000
,
0001
0000
0010
0100
0010
0000
0001
0000
1000
0010
1000
0000
0100
0000
0010
0000
,
0100
0000
1000
0001
1000
0000
0010
0000
0100
0010
0000
1000
0100
0010
0000
0001
,
1000
0000
0010
0100
0010
0000
0100
0000
0001
0000
1000
0000
0001
0000
0010
0100
,
0020
0000
0000
0000
0000
0000
0000
0000
0000
0000
0000
0000
0000
0000
0000
0000
0000
0000
0000
0000
0000
0000
0000
0000
0100
0000
0000
0000
0000
0000
0000
0000
0000
0000
0000
0000
0000
0000
0000
0000
0000
0000
0000
0000
0000
0000
0000
0000
0130
0000
0000
0000
0000
0000
0000
0000
0000
0000
0000
0000
0000
0000
0000
0000
0000
0000
0000
0000
0000
0000
0000
0000
2000
0000
0000
0000
0000
0000
0000
0000
0000
0000
0000
0000
0000
0000
0000
0000
0000
0000
0000
0000
0000
0000
0000
0000
0001
0000
0000
0000
0000
0000
0000
0000
0000
0000
0000
0000
0000
0000
0000
0000
0000
0000
0000
0000
0000
0000
0000
0000
3001
0000
0000
0000
0000
0000
0000
0000
0000
0000
0000
0000
0000
0000
0000
0000
0000
0000
0000
0000
0000
0000
0000
0000
0220
0330
0000
0000
0000
0000
0000
0000
0000
0000
0000
0000
0000
0000
0000
0000
0000
0000
0000
0000
0000
0000
0000
0000
1000
0000
0000
0000
0000
0000
0000
0000
0000
0000
0000
0000
0000
0000
0000
0000
0000
0000
0000
0000
0000
0000
0000
0000
,
0010
0100
0010
0000
1000
0000
0001
0000
0010
0100
0010
0000
0001
0000
1000
0000
,
0001
0100
0001
0000
1000
0010
1000
0000
0001
0010
0100
0000
0010
0000
0001
0000
,
1000
0100
1000
0000
0001
0000
0100
0000
0010
1000
0010
0000
0100
0000
0001
0000
,
1000
0100
1000
0000
0001
0010
0001
0000
1000
0010
0100
0000
0010
0000
1000
0000
,
0001
0010
0100
0000
0010
0000
0001
0000
1000
0010
0100
0000
0010
0000
1000
0000
,
0001
0010
0001
0000
0100
0010
0100
0000
0010
1000
0001
0000
0010
0000
0100
0000
,
0100
1000
0010
0000
0010
0000
0100
0000
0100
0001
0010
0000
0010
0000
0100
0000
,
1000
0001
1000
0001
0100
0000
0010
1000
0001
1000
0001
0010
0100
1000
0010
0000
,
0000
0010
0100
0001
0000
0001
0010
0100
,
1000
0010
0100
0101
0000
1010
0000
1000
,
0000
1000
0100
0010
0000
0010
0001
1000
,
0010
0000
0010
0110
0000
1001
0000
0001
,
0010
1000
0010
0001
0100
0001
0010
0100
,
1000
0010
0100
0101
0000
1001
0000
0001
,
0000
0000
0001
0000
0010
0000
0100
0000
0000
0000
0100
0000
1000
0000
0010
0100
,
0000
0000
0100
0001
0000
0000
0001
0010
0100
0000
1000
0000
0001
1000
0010
0000
,
0100
0010
0100
0000
0010
1000
0001
0000
0010
0000
0100
0000
0100
0000
1000
0000
,
0010
0000
0001
0000
0020
0000
0000
0000
1030
0100
0010
0000
0100
0000
1100
0000
,
0000
0000
0011
0000
0010
0000
0001
0000
1000
0010
0100
0000
0010
0000
1000
0000
,
0001
1000
0100
0000
0010
0001
0010
0001
1000
0100
0010
0000
0100
0000
1000
0000
,
0001
0100
0001
0000
0010
0000
0100
0000
1000
0010
1000
0000
0001
0000
0100
0000
,
0010
1000
0002
0000
0013
0100
1000
0010
,
0000
0010
1000
0000
0000
1000
0001
0000
0010
0000
1000
0000
0001
0000
0100
0000
,
0010
0001
1000
0001
1000
0000
0010
0000
0100
0000
0110
0000
0000
0000
0010
0000
,
0010
0000
0000
0000
0000
0000
0000
0000
0000
0100
0000
0000
0001
0000
0000
1000
0000
0000
0100
0000
0000
0000
0000
0000
0100
0000
0000
0000
0000
0000
0000
0000
0000
0000
0000
0000
0100
0000
0000
0010
0000
0000
0100
0000
0000
0000
1000
0000
,
0000
0000
0000
0001
0000
0000
0100
0000
0000
0000
0010
0000
0000
0000
0000
0100
0000
0000
0001
0000
0000
0000
1000
0000
0000
0000
0000
0001
0000
0000
1000
0000
0000
0000
0000
0000
0000
0000
0000
0010
0000
0000
0100
0000
0000
0001
0000
0000
,
1000
0100
0001
0100
1000
0000
0001
0100
0010
1000
0000
1000
0001
0010
0100
0000
,
0000
0000
0000
0100
0000
0000
1000
0000
0000
0000
0010
0000
0000
0000
0000
0100
0000
0000
0010
0000
0000
0000
1000
0000
0000
0000
0000
0001
0000
0000
0020
0000
0000
0000
0000
0000
0000
0000
0000
0000
0000
0000
0130
0000
0000
0000
0000
0000
,
1000
0000
0001
0000
1000
0100
1000
0000
1000
0010
0100
0000
0010
0000
1000
0000
,
0001
0100
0001
0000
0001
0010
0100
0000
1000
0000
0010
0000
1000
0100
0010
0001
,
0100
0010
1000
0100
0010
0001
0100
0010
1000
0100
0010
0001
2000
0000
0010
3020
,
0000
0100
0130
0000
0001
0000
1000
0000
0001
0000
0100
0010
0000
0000
1000
0000
,
0010
0000
0100
0000
0010
0000
1000
0000
0001
0000
0010
0100
0000
0000
1000
0000
,
0001
0000
0100
0000
1000
0000
0100
0000
0001
0000
1000
0100
0000
0000
1000
0000
,
0010
0000
0100
0001
0010
0000
1000
0000
0001
0000
0100
2000
0000
0000
0010
0000
,
0001
3010
0010
0100
0001
0020
0000
0100
,
0130
2000
0000
3001
0100
0020
0000
0130
,
0001
0000
1000
0000
0000
0001
0010
0100
1000
0001
1000
0001
0100
0010
1000
0001
,
0010
0000
0020
0000
0000
0000
0130
1000
0010
0000
0100
0001
0010
0000
0100
0000
,
0100
1000
0010
0000
0100
0000
0010
0000
1000
0000
0001
0100
0000
0000
0010
0000
,
1000
0000
0001
0000
0010
0000
1000
0000
0010
0000
0001
0100
0000
0000
1000
0000
,
0100
0010
0100
0000
0001
0000
1000
0000
0100
0000
0010
0001
0000
0000
1000
0010
,
0100
0000
0010
1000
0001
0000
0010
0000
0100
0000
1000
0002
0000
0000
0010
0000
,
1000
0013
0010
0100
1000
0020
0000
0100
,
0130
0002
0000
0013
0100
2000
0000
3001
,
0100
0000
0010
0000
0000
0010
1000
0100
0010
0100
1000
0001
0100
0001
0100
0010
,
1000
0002
0000
0013
0100
2000
0001
3100
,
0100
0000
0000
0100
0000
0000
1000
0000
0000
1000
0000
0000
0001
0000
0000
0001
,
0000
0000
0100
0000
0010
0000
1000
0100
0010
0001
1000
0000
0010
0000
0100
0000
,
0001
0000
0001
0100
0010
0000
0010
1000
,
0100
0010
0100
1000
1100
0000
0011
0000
,
1000
0000
1000
0100
0010
0000
0010
0001
,
1000
0010
0100
0001
0101
0000
1010
0000
,
0001
0000
0100
0000
1000
0000
0100
0000
0001
0000
0010
0000
1000
0000
0010
0001
,
0100
1000
0100
0010
0110
0000
1001
0000
,
0001
0000
0001
0000
0010
0000
0100
0000
0000
0000
0100
1000
0001
0000
0100
0000
,
0010
0000
0100
0000
0000
0000
0100
0000
0001
0000
1000
0000
0001
0010
0100
1000
,
0001
0000
0001
0000
1000
0010
1000
0010
0100
0000
0100
0000
0001
0010
0001
0010
,
0100
0000
0000
0000
1000
0000
0000
0000
0000
0100
0000
0000
0010
0000
0000
0000
0100
0000
0000
0000
0000
1000
0000
0000
0010
0000
0000
0000
0100
0000
0000
0000
0000
0001
0000
0000
1000
0000
0000
0000
0000
0000
0000
0000
0000
0000
0000
0000
,
0010
0100
0010
0100
0001
1000
0001
1000
0100
0010
0001
0100
0000
0100
1000
0100
,
0001
0000
0000
0000
0010
0000
0000
0000
0000
0100
0000
0000
1000
0000
0000
0000
0100
0000
0000
0000
0000
0001
0000
0000
1000
0000
0000
0000
0010
0000
0000
0000
0000
0001
0000
0000
0100
0000
0000
0000
0000
0000
0000
0000
0000
0000
0000
0000
,
0100
0000
0010
1000
0100
0000
0010
0000
0100
0000
0010
0001
0100
0000
1000
0000
,
0000
1000
0100
0001
0000
0001
0010
0100
,
1000
0001
0100
0001
1000
0000
0010
0000
0100
0001
0010
0000
0100
0000
1000
0000
,
0001
0000
0000
0001
0100
0000
0100
0000
0010
1000
0001
0000
0011
0000
0000
0000
,
0002
0003
0000
0000
0000
0000
0000
0000
0000
0000
0000
0000
1000
0000
0000
0000
0000
0000
0000
0000
0000
0000
0000
0000
0001
0000
0000
0000
0000
0000
0100
0000
0000
0000
0000
0000
0001
0000
0000
0000
0000
0000
0000
0000
0000
0000
0000
0000
1000
0000
0000
0000
0000
0000
0001
0000
0000
0000
0000
0000
1000
0000
0000
0000
0000
0000
0000
0000
0000
0000
0000
0000
0010
0000
0000
0000
0000
0000
0000
0000
0000
0000
0000
0000
1000
0000
0000
0000
0000
0000
0000
0000
0000
0000
0000
0000
0100
0000
0000
0000
0000
0000
0000
0000
0000
0000
0000
0000
0010
0000
0000
0000
0000
0000
0000
0000
0000
0000
0000
0000
0000
0000
0000
0000
0000
0000
0000
0000
0000
0000
0000
0000
0001
0000
0000
0000
0000
0000
0000
0000
0000
0000
0000
0000
0000
0000
0000
0000
0000
0000
0000
0000
0000
0000
0000
0000
0100
0000
0000
0000
0000
0000
0000
0000
0000
0000
0000
0000
0000
0000
0000
0000
0000
0000
0000
0000
0000
0000
0000
0000
0010
0000
0000
0000
0000
0000
0000
0000
0000
0000
0000
0000
,
0000
0000
1000
0010
1000
0010
1000
0100
0000
0100
0010
0000
0001
0000
1000
0000
0001
0000
0100
0000
0000
0000
0010
0000
1000
0001
1000
0000
0010
0000
0010
0000
,
0100
0000
0010
1000
0010
0000
0100
0000
0001
0000
0010
0000
0100
0000
1000
0000
,
0100
0000
0010
0001
0010
0000
0100
0000
1000
0000
0010
0000
0100
0000
0001
1000
,
0001
0000
0100
0000
0010
0000
1000
0000
0001
0010
0100
1000
0001
1000
0100
0010
,
0001
0000
0000
0000
0000
0000
0000
0000
0000
0000
0000
0000
0000
0000
0000
0000
0000
0000
0000
0000
0000
0000
0000
0000
0001
0000
0000
0000
0000
0000
0000
0000
0000
0000
0000
0000
0000
0000
0000
0000
0000
0000
0000
0000
0000
0000
0000
0000
1000
0000
0000
0000
0000
0000
0000
0000
0000
0000
0000
0000
0000
0000
0000
0000
0000
0000
0000
0000
0000
0000
0000
0000
1000
0000
0000
0000
0000
0000
0000
0000
0000
0000
0000
0000
0000
0000
0000
0000
0000
0000
0000
0000
0000
0000
0000
0000
0002
0003
0000
0000
0000
0000
0000
0000
0000
0000
0000
0000
0100
0000
0000
0000
0000
0000
0000
0000
0000
0000
0000
0000
0010
0000
0000
0000
0000
0000
0000
0000
0000
0000
0000
0000
0100
0000
0000
0000
0000
0000
0000
0000
0000
0000
0000
0000
0001
0000
0000
0000
0000
0000
0000
0000
0000
0000
0000
0000
0000
0000
0000
0000
0000
0000
0000
0000
0000
0000
0000
0000
0010
0000
0000
0000
0000
0000
0000
0000
0000
0000
0000
0000
0100
0000
0000
0000
0000
0000
0000
0000
0000
0000
0000
0000
,
0010
0000
0001
0000
1000
0000
0010
0100
0010
0000
1000
0000
0001
0000
0010
0100
,
0010
0000
1000
0000
0001
0000
0200
0000
1300
0000
0010
0100
0010
0000
1000
0000
,
0001
0000
0010
0100
0010
0000
0001
0000
1000
0000
0010
0100
0010
0000
0001
0000
,
1000
0000
0200
0000
0301
0000
1000
0100
0010
0100
1000
0010
1000
0100
1000
0001
,
0100
0000
1000
0000
0100
0000
0001
0010
0100
0010
0001
0100
0001
0010
0001
1000
,
0100
0000
0010
0000
0100
0000
0001
0100
1000
0000
0010
0100
1000
0000
0001
0010
,
0100
0000
0001
0010
0100
1000
0001
0010
0001
1000
0010
0100
0001
0000
1000
0000
,
0001
0000
0000
0000
0000
0000
0000
0000
0000
0000
0000
0000
0000
0000
0000
0000
0000
0000
0000
0000
0000
0000
0000
0000
1000
0000
0000
0000
0000
0000
0000
0000
0000
0000
0000
0000
0000
0000
0000
0000
0000
0000
0000
0000
0000
0000
0000
0000
0020
0030
0000
0000
0000
0000
0000
0000
0000
0000
0000
0000
0100
0000
0000
0000
0000
0000
0000
0000
0000
0000
0000
0000
0010
0000
0000
0000
0000
0000
0000
0000
0000
0000
0000
0000
1000
0000
0000
0000
0000
0000
0000
0000
0000
0000
0000
0000
0010
0000
0000
0000
0000
0000
0000
0000
0000
0000
0000
0000
0001
0000
0000
0000
0000
0000
0000
0000
0000
0000
0000
0000
0010
0000
0000
0000
0000
0000
0000
0000
0000
0000
0000
0000
1000
0000
0000
0000
0000
0000
0000
0000
0000
0000
0000
0000
0100
0000
0000
0000
0000
0000
0000
0000
0000
0000
0000
0000
0010
0000
0000
0000
0000
0000
0000
0000
0000
0000
0000
0000
0100
0000
0000
0000
0000
0000
0000
0000
0000
0000
0000
0000
0000
0000
0000
0000
0000
0000
0000
0000
0000
0000
0000
0000
,
1000
0000
0001
0100
0000
0000
0100
0001
1000
0000
0100
0000
0001
0000
1000
0000
,
0010
0000
0100
1000
0000
0000
0001
0100
0010
0000
0100
0000
0001
0000
1000
0100
,
0010
0000
0001
1000
0000
0000
1100
0000
0011
0000
0001
1000
0010
0000
0100
0000
,
0010
0000
1000
0002
0000
0000
0010
0000
1000
0000
0013
0000
0010
0000
0100
1000
,
0010
0000
0001
0000
1000
0000
0100
0001
0010
0000
0100
0000
0001
0000
0100
1000
,
0010
0000
0100
0000
1000
0000
0100
0000
0001
0000
1000
0000
0000
0100
0010
0100
,
1000
0100
0010
0100
0001
0100
1000
0010
0100
0000
0110
0000
0000
0000
0010
1000
,
0100
0000
0010
0001
0100
0000
0100
0000
0001
0000
1000
0000
1001
0000
0001
0100
,
0010
0000
0010
0100
0000
0000
0110
0000
0010
1000
0001
0000
1000
0000
1000
0100
,
0010
0000
0010
0100
0000
0000
1000
0010
0001
0000
0010
0000
0100
0000
0010
1000
,
0001
0000
0001
0010
0000
0000
0100
1000
0010
0000
0100
0001
0010
0000
0100
0000
,
1000
0000
0001
0100
0000
0100
1000
0000
0100
0000
0001
0000
0010
0000
0100
0000
,
1000
2000
0000
3010
0100
0020
0000
0130
,
0001
0000
0020
0000
0000
0000
0130
0000
1000
0000
0001
0000
0000
1000
0010
1000
,
0001
0100
0010
0001
1000
0100
0001
0010
0000
0000
0010
0000
0100
0000
1000
0010
,
1000
0000
0001
0100
0001
1000
0100
0010
0001
0000
0010
0000
0110
0000
0000
0001
,
1000
0000
0010
0000
0001
0000
0010
1000
0100
0000
0110
0000
0000
0000
0010
0001
,
1000
0000
0010
0000
0100
0000
0100
0001
1000
0000
0100
0000
0011
0000
0000
0010
,
0100
0000
0100
1000
0001
0000
0100
0000
1000
0000
0100
0001
0000
1000
0100
0000
,
0010
0000
0001
1000
0100
0000
0010
0000
0110
0000
0000
0000
1001
0000
0001
0000
,
1000
0000
0010
0100
0010
0000
1000
0001
1000
0000
1100
0000
0000
0000
0011
0000
,
0000
0000
1001
0000
0000
0000
0001
0100
0010
0000
0100
0000
0001
0000
1000
0100
,
1000
0000
0001
0000
0100
0000
0010
1000
0001
0000
0011
0000
0000
0000
1000
0000
,
0100
0000
0000
0000
0000
0000
0000
0000
0000
0000
0000
0000
0000
0000
0000
0000
0000
0000
0000
0000
0000
0000
0000
0000
0010
0000
0000
0000
0000
0000
0000
0000
0000
0000
0000
0000
0000
0000
0000
0000
0000
0000
0000
0000
0000
0000
0000
0000
0100
0000
0000
0000
0000
0000
0000
0000
0000
0000
0000
0000
1000
0000
0000
0000
0000
0000
0000
0000
0000
0000
0000
0000
0001
0000
0000
0000
0000
0000
0000
0000
0000
0000
0000
0000
0000
0000
0000
0000
0000
0000
0000
0000
0000
0000
0000
0000
0100
0000
0000
0000
0000
0000
0000
0000
0000
0000
0000
0000
0000
0000
0000
0000
0000
0000
0000
0000
0000
0000
0000
0000
0010
0000
0000
0000
0000
0000
0000
0000
0000
0000
0000
0000
0000
0000
0000
0000
0000
0000
0000
0000
0000
0000
0000
0000
0220
0330
0000
0000
0000
0000
0000
0000
0000
0000
0000
0000
0000
0000
0000
0000
0000
0000
0000
0000
0000
0000
0000
0000
1001
0000
0000
0000
0000
0000
0000
0000
0000
0000
0000
0000
0000
0000
0000
0000
0000
0000
0000
0000
0000
0000
0000
0000
,
0000
0000
0002
0000
0000
0013
0100
0000
2000
0000
0000
0000
3001
0100
0010
0000
,
0100
0000
2000
0000
0000
3100
0001
0000
0020
0000
0000
0000
0130
1000
0020
0000
,
0130
0001
0020
0000
0000
0130
1000
0010
0200
0000
0000
0000
0310
1000
0010
0100
,
0001
1000
0100
0000
0010
0000
0001
0100
0010
1000
0001
0000
0000
0000
0001
0000
,
1100
0000
0000
0000
0001
0010
0100
1000
0001
0010
0100
1000
0010
0000
0100
0001
,
1000
0100
0010
0100
1000
0001
0100
0000
0100
0001
0010
0000
0110
0000
0001
0000
,
1001
0000
0100
0000
0110
0000
0001
0000
1001
0000
1000
0000
0100
1000
0010
0000
,
0100
0000
0010
1000
0100
0010
0100
1000
0001
0000
1000
0000
0001
0100
0010
0000
,
2000
0000
0000
0000
3001
0000
0001
0000
0010
0000
0100
0000
1000
0100
0010
0000
,
0100
0000
1000
0000
0001
0010
0100
0000
1000
0000
0001
0000
0100
0000
0001
0000
,
0010
0001
1000
0010
0100
0010
0001
0010
,
1000
0100
0001
0100
1000
0001
0100
0001
,
1000
0010
1000
0100
0010
0100
0001
0100
,
1000
0010
0001
0010
0110
0000
0000
0000
;

//--------------- dance-single - ----------------
#NOTES:
     dance-single:
     :
     Challenge:
     17:
     0,0,0,0,0:
0000
0000
0000
0000
0000
0000
0000
0000
0000
0000
0000
0000
0000
0000
0001
0010
,
0100
0000
1000
0100
0010
0000
0100
0000
1000
0001
1000
0010
0100
0000
1000
0000
,
0100
0000
0000
0000
0000
0000
0001
0000
0000
0010
0000
0000
0100
0000
0000
0010
0000
0000
0001
0000
0100
0000
0001
0000
0100
0000
0000
0010
0000
0000
0000
0000
0000
0010
0000
0000
1000
0000
0000
0001
0000
0000
0000
0000
0000
0001
0000
0000
,
0010
0000
0000
0000
0000
0000
0100
0000
1000
0000
0100
0000
1000
0000
0000
0000
0000
0000
0001
0000
0000
1000
0000
0000
0010
0000
0000
0000
0000
0000
0100
0000
0000
0000
0000
0000
0001
0000
0000
0000
0000
0000
1000
0000
0000
0001
0000
0000
,
0020
0000
0000
0000
0000
0000
0000
0000
0000
0000
0000
0000
0000
0000
0000
0000
0000
0000
0000
0000
0000
0000
0000
0000
0100
0000
0000
0000
0000
0000
0000
0000
0000
0000
0000
0000
0000
0000
0000
0000
0000
0000
0000
0000
0000
0000
0000
0000
0130
0000
0000
0000
0000
0000
0000
0000
0000
0000
0000
0000
0000
0000
0000
0000
0000
0000
0000
0000
0000
0000
0000
0000
1000
0000
0000
0000
0000
0000
0000
0000
0000
0000
0000
0000
0020
0000
0000
0000
0000
0000
0000
0000
0000
0000
0000
0000
0100
0000
0000
0000
0000
0000
0000
0000
0000
0000
0000
0000
0000
0000
0000
0000
0000
0000
0000
0000
0000
0000
0000
0000
0130
0000
0000
0000
0000
0000
0000
0000
0000
0000
0000
0000
0000
0000
0000
0000
0000
0000
0000
0000
0000
0000
0000
0000
2002
3003
0000
0000
0000
0000
0000
0000
0000
0000
0000
0000
0000
0000
0000
0000
0000
0000
0000
0000
0000
0000
0000
0000
1000
0000
0000
0000
0000
0000
0000
0000
0000
0000
0000
0000
0000
0000
0000
0000
0000
0000
0000
0000
0000
0000
0000
0000
,
0010
0100
2000
0000
0100
0000
3100
0001
0010
0100
0020
0000
0001
0000
0031
0000
,
1000
0010
0100
0000
0010
1000
0100
0010
0001
0010
0200
0000
1000
0000
1300
0000
,
0001
0100
0020
0000
0100
0000
0130
0001
0010
0100
2000
0000
0010
0000
3010
0000
,
0100
0001
0020
0000
0100
0000
0130
1000
0001
0100
1000
0000
0100
0001
0010
0000
,
0010
0100
0002
0000
0100
0000
0103
1000
0001
0100
0020
0000
1000
0000
1030
0000
,
0010
0100
0001
0000
0001
0010
1000
0001
0100
1000
0002
0000
1000
0000
1003
0010
,
1000
0010
0200
0000
0001
0000
0301
0010
0001
0010
0200
0000
1000
0000
1300
0100
,
1000
0010
0100
0010
1000
0000
0001
0010
0100
0010
0001
0100
0010
0100
0002
0000
,
0000
0000
0013
0000
0100
0000
2000
0000
0000
0000
3001
0000
0100
0010
2000
0000
,
3200
0000
0302
0000
0203
0000
2300
0000
3010
0100
0020
0000
0000
0000
0230
0000
,
0000
0000
0301
0000
1000
0100
0010
0000
0200
0000
2300
0000
3020
0000
0130
0001
,
0010
0000
0010
0100
0000
0100
1000
0010
0001
1000
0200
0000
0000
0000
0301
0000
,
0001
0010
0100
0000
0100
0010
0002
0000
0000
1003
0010
0100
1000
0000
1000
0100
,
0010
1000
0001
0000
1000
0100
0020
0000
0001
0000
0130
0000
0100
1000
0010
0000
,
0100
0010
1000
0000
0100
0010
2000
0000
3020
0000
0032
0000
2003
0000
3010
0100
,
0000
0000
0000
0000
0000
0000
0100
0000
0000
0001
0000
0000
0000
0000
0000
0000
0000
0000
0001
0000
0000
1000
0000
0000
0200
0000
0000
0000
0000
0000
0320
0000
0000
0000
0000
0000
0031
0000
0000
0000
0000
0000
1000
0000
0010
0000
1000
0000
,
0010
0000
0000
0100
0000
0000
0001
0000
0000
0000
0000
0000
1000
0000
0000
0000
0000
0000
0001
0000
0010
0000
0001
0000
0010
0000
0000
0100
0000
0000
1000
0000
0000
0000
0000
0000
0001
0000
0000
0100
0000
0000
0001
0000
0000
0000
0000
0000
,
1000
0000
0000
0100
0000
0000
1000
0000
0000
0000
0000
0000
0001
0000
0000
0000
0000
0000
0100
0000
0000
0010
0000
0000
0100
0000
0000
0001
0000
0000
1000
0000
0000
0000
0000
0000
0100
0000
0000
0000
0000
0000
0010
0000
0001
0000
0010
0000
,
0001
0000
0000
1000
0000
0000
0001
0000
0000
0000
0000
0000
0100
0000
0000
0000
0000
0000
0010
0000
1000
0000
0010
0000
1000
0000
0000
0001
0000
0000
0010
0000
0000
0000
0000
0000
0100
0000
0000
0000
0000
0000
1000
0000
0000
0000
0000
0000
,
0001
0000
0000
0010
0000
0000
0100
0000
0000
0000
0000
0000
0100
0000
0000
1000
0000
0000
0001
0000
0000
1000
0000
0000
0001
0000
0000
0000
0000
0000
0100
0000
0000
0000
0000
0000
0010
0000
0000
0000
0000
0000
0100
0000
0001
0000
0100
0000
,
0001
0000
0000
1000
0000
0000
0100
0000
0000
0000
0000
0000
0001
0000
0000
0000
0000
0000
0100
0000
1000
0000
0100
0000
1000
0000
0000
0001
0000
0000
0100
0000
0000
0000
0000
0000
1000
0000
0000
0000
0000
0000
0100
0000
0000
0000
0000
0000
,
0100
0001
0010
0000
0100
1000
0010
1000
0010
0000
0100
0000
0010
0100
0001
0000
,
0000
0001
1000
0000
0000
1000
0100
0000
0010
0000
0100
0000
1000
0010
0100
0000
,
0100
0001
1000
0001
2000
0000
0010
0000
3100
0000
0110
0000
0000
0000
0010
0001
,
1000
0000
0010
0000
0100
0001
1000
0000
0100
0010
0100
0001
0100
1000
0001
0000
,
0100
0000
1000
0100
0010
0000
1000
0000
0001
0000
0010
0100
0010
0000
0100
1000
,
0100
0010
0001
0000
0100
0000
1000
0100
0010
1000
0100
0010
0001
1000
0100
0000
,
0100
0000
0010
0000
0001
0000
1000
0000
0010
0000
0001
0000
0010
0000
0000
0000
0100
0000
0001
0000
1000
0000
0100
0010
0100
0000
0001
0000
0100
0000
0000
0000
,
0100
0000
0000
1000
0000
0000
0001
0000
0000
0000
0000
0000
0001
0000
0000
0100
0000
0000
0001
0000
0000
0000
0000
0000
0001
0000
0000
0010
0000
0000
0100
0000
0000
1000
0000
0000
0001
0000
0100
0000
0010
0000
0100
0000
0000
0000
0000
0000
,
0100
0000
0000
0001
0000
0000
1000
0000
0000
0000
0000
0000
1000
0000
0000
0100
0000
0000
1000
0000
0000
0000
0000
0000
1000
0000
0000
0100
0000
0000
0010
0000
0000
0001
0000
0000
1000
0000
0010
0000
0100
0000
0010
0000
0000
0000
0000
0000
,
0010
1000
0100
0010
0001
1000
0001
0100
0010
1000
0001
1000
0002
0000
1003
1100
,
0000
0001
0101
0000
1001
0000
0001
0010
0100
0000
1000
0001
0000
0001
0200
0000
,
2300
0000
3100
0001
0010
0000
0100
1000
0010
0000
0100
0001
0000
0001
0020
0000
,
0230
0000
1300
0001
0100
0000
0010
1000
0100
0000
0100
0001
0000
0001
0100
1000
,
0010
0000
0010
0100
2000
0000
0001
0000
3001
0010
1000
0100
0002
0000
0203
0000
,
2300
0000
3020
0000
0230
0000
0310
1000
0002
0000
0023
0000
0100
0000
0130
1000
,
0002
0000
0203
0000
0010
0000
0310
1000
0002
0000
0023
0000
0100
0000
0130
1000
,
0002
0000
0203
0000
0000
1300
0100
0010
1000
0001
1000
0001
0010
1000
0001
0100
,
2000
0000
0000
0000
3002
0000
0000
0000
0103
0000
0000
0000
0010
0000
1000
0100
1000
0000
0000
0000
0100
0000
0010
0000
0100
0000
0000
0000
0010
0000
0001
0100
,
0001
0000
0100
0000
0110
0000
0010
1000
0001
0000
0001
0010
0000
0100
1000
0000
,
0010
0100
1000
0100
0010
0000
1000
0000
0001
0000
0001
0010
0000
0100
0010
0001
,
1000
0000
0010
0000
0110
0000
0100
0001
0010
0000
0100
0010
0000
1000
0010
0001
,
1000
0000
1000
0010
0001
0000
1000
0100
0001
0000
0001
2000
0000
0000
0001
0000
,
0100
0000
3001
0000
0002
0000
0013
0100
2000
0000
3020
0000
0100
0000
0130
0001
,
2000
0000
3200
0000
0010
0000
0310
0001
2000
0000
3002
0000
0100
0000
0203
0000
,
0320
0000
0000
0000
0230
0000
0000
0000
0000
0000
0301
0000
1000
0000
0100
0000
0010
0000
0001
0000
1000
0000
0001
0100
0001
0000
1000
0100
1000
0000
0001
1000
,
0001
0200
0001
0302
0010
0023
0100
0130
,
0110
0000
0010
0001
0000
0001
1000
0000
1000
0010
0000
0010
0100
0000
0100
0001
,
0000
0000
0000
0001
0000
0000
1000
0000
0000
0001
0000
0000
1000
0000
0000
0000
0000
0000
1000
0000
0000
0100
0000
0000
0010
0000
0001
0000
0010
0000
0002
0000
0000
0000
0000
0000
2003
0000
0000
0000
0000
0000
3002
0000
0000
0000
0000
0000
,
0203
0000
0310
1000
0001
0000
0001
0010
,
0100
0000
0100
1000
0001
0000
0100
0010
1000
0000
0001
0000
0010
0000
0001
0000
,
2100
0000
0000
0000
3001
0000
0100
0000
0100
0000
0000
0000
0010
0000
1000
0001
,
0010
0000
0100
0000
1000
0000
0100
0000
0001
0000
0100
0010
0100
0000
0010
0001
,
2000
0000
0000
0000
3010
0000
0100
0010
0100
0000
0100
0000
0110
0000
0010
1000
,
0100
0000
0010
0001
1000
0000
0010
0000
0100
0000
0100
0001
1000
0000
0000
0000
,
0011
0000
0001
0000
0010
0000
0200
0000
0000
0000
0310
0001
1000
0000
0010
0100
,
0010
0000
0010
0100
0010
0000
1000
0000
0001
0000
0010
0000
0100
1000
0100
1000
,
0001
0010
0100
0010
0001
0010
0100
1000
0010
0100
1000
0100
0010
1000
0100
0010
,
0001
1000
0001
1000
0010
0100
0010
0100
0001
0010
0100
1000
0001
0100
0010
0100
,
0001
0010
0100
0010
0001
0010
0100
0010
0001
0100
1000
0001
0010
1000
0100
0010
,
0001
0010
0100
1000
0010
0100
0001
0100
0010
1000
0100
0001
1000
0000
1000
0010
,
0001
0000
0001
0100
0001
0000
0001
0010
0100
0000
1000
0100
0010
0001
1000
0000
,
1001
0000
1000
0010
1000
0000
1000
0100
0010
0000
0001
0100
0010
1000
0001
1000
,
0100
0000
0010
0001
0100
0000
0010
1000
0100
0000
1000
0100
0010
0001
1000
0000
,
0001
0100
0000
0010
0100
0000
1000
0100
0000
0001
1000
0001
1000
0100
0010
0100
,
0020
0030
0000
0000
0000
0000
0000
0000
0000
0000
0000
0000
0001
0000
0000
0000
0000
0000
0000
0000
0000
0000
0000
0000
1000
0000
0000
0000
0000
0000
0010
0000
0000
0000
0000
0000
1000
0000
0000
0000
0000
0000
0010
0000
0000
0000
0000
0000
0000
0000
0000
0000
0000
0000
0100
0000
0000
0000
0000
0000
0001
0000
0000
0000
0000
0000
1000
0000
0000
0000
0000
0000
0001
0000
0000
0000
0000
0000
0000
0000
0000
0000
0000
0000
0010
0000
0000
0000
0000
0000
0000
0000
0000
0000
0000
0000
0100
0000
0000
0000
0000
0000
0000
0000
0000
0000
0000
0000
1100
0000
0000
0000
0000
0000
0000
0000
0000
0000
0000
0000
1000
0000
0000
0000
0000
0000
0000
0000
0000
0000
0000
0000
0101
0000
0000
0000
0000
0000
0000
0000
0000
0000
0000
0000
0001
0000
0000
0000
0000
0000
0000
0000
0000
0000
0000
0000
1010
0000
0000
0000
0000
0000
0000
0000
0000
0000
0000
0000
1000
0000
0000
0000
0000
0000
0000
0000
0000
0000
0000
0000
0011
0000
0000
0000
0000
0000
0000
0000
0000
0000
0000
0000
,
0001
0000
0010
0100
0010
0100
1000
0001
0000
0001
0100
0000
0010
0000
0100
0000
0001
0000
0101
0000
1000
0000
1100
0000
1000
0001
0100
0000
0010
0000
1000
0000
,
1001
0000
0001
1000
0010
0000
0010
0100
0010
1000
0010
1000
0001
0000
1000
0000
,
0001
0000
0001
1000
0100
0000
0100
0010
0100
1000
0001
1000
0001
0100
0001
0100
,
0010
0000
1000
0001
0010
0000
0010
0100
1000
0001
0010
0100
1000
0010
0100
1000
,
0002
0000
0000
0000
0000
0000
0023
0000
0000
0000
0000
0000
0230
0000
0000
0000
0000
0000
0301
0000
0010
0000
0100
0000
2000
0000
0000
3002
0000
0000
0203
0000
0000
0320
0000
0000
2030
0000
0000
0000
0000
0000
3001
0000
0000
0100
0000
0000
,
0002
0000
0103
0000
0010
0000
1000
0100
2000
0000
3100
0000
0010
0000
0001
0100
,
0002
0000
0103
0000
0010
0000
0120
0000
1030
0000
0001
0010
0002
0000
0013
0000
,
0100
0000
1000
0010
2000
0000
3010
0000
0100
0000
0001
0010
0002
0000
0013
0000
,
0100
0000
0000
0000
0000
0000
1002
0000
0000
0000
0000
0000
0103
0000
0000
0000
0000
0000
0010
0000
0000
1000
0000
0000
0100
0000
0000
0010
0000
0000
0001
0000
0100
0000
0001
0000
0100
0000
0000
0010
0000
0000
1000
0000
0000
0100
0000
0000
,
0010
0000
0000
0100
0000
0000
1000
0000
0010
0000
1000
0000
0010
0000
0000
0000
0000
0000
0100
0000
0000
0001
0000
0000
0010
0000
0000
0100
0000
0000
1000
0000
0100
0000
1000
0000
0100
0000
0000
0010
0000
0000
0001
0000
0000
1000
0000
0000
,
0010
0000
0000
0100
0000
0000
0001
0000
0010
0000
0001
0000
0010
0000
0000
0000
0000
0000
0100
0000
0000
1000
0000
0000
0010
0000
0000
0100
0000
0000
0001
0000
1000
0000
0001
0000
1000
0000
0000
0100
0000
0000
0010
0000
0000
0001
0000
0000
,
0100
0000
0000
0010
0000
0000
1000
0000
0001
0000
1000
0000
0001
0000
0000
0000
0000
0000
1000
0000
0000
0100
0000
0000
0010
0000
0000
0100
0000
0000
1000
0000
0010
0000
0100
0000
0001
0000
0000
0010
0000
0000
0100
0000
0000
1000
0000
0000
,
0001
0000
0000
0000
0000
0000
0100
0000
0000
0000
0000
0000
0010
0000
0000
0000
1000
0000
0000
0000
0100
0000
0000
0000
0020
0000
0000
0000
0000
0000
0230
0000
0000
0000
0000
0000
0320
0000
0000
0000
0000
0000
0032
0000
0000
0000
0000
0000
0103
0000
0000
0010
0000
0000
0100
0000
0000
1000
0000
0000
0100
0000
0000
0010
0000
0000
0100
0000
0000
0001
0000
0000
2000
0000
0000
0000
0000
0000
0000
0000
0000
0000
0000
0000
3001
0000
0000
0000
0000
0000
0010
0000
0000
0000
0000
0000
,
1000
0000
0001
0100
0000
0100
1000
0000
0001
0100
0010
0100
1000
0000
0100
0001
,
1000
0000
1000
0100
0000
0100
0001
0000
1000
0010
0001
0100
0010
0000
0100
0001
,
1000
0000
1000
0100
0000
0100
0010
0000
0001
0000
1000
0010
0100
0000
1000
0000
,
0100
0000
0001
0010
0000
0100
0020
0000
2030
0000
3020
0000
0130
0000
0010
0001
,
0200
0000
1000
0000
0310
0000
0010
1000
0200
0000
0001
0000
0310
0000
0010
0001
,
0100
0000
0100
1000
0000
0001
0010
0000
0010
1000
0100
0000
0100
1000
0001
1000
,
0100
0000
0001
0000
1000
0000
0010
0000
0001
0000
0100
0000
0010
0000
0100
0000
2000
0000
0000
0000
3001
0000
0010
0000
0100
0000
0000
0000
0001
0000
0010
0100
,
0010
0000
0000
0000
1000
0000
0001
0000
1000
0000
0000
0000
0001
0000
0100
0010
0100
0000
0000
0000
1000
0000
0000
0000
0001
0000
0000
0000
1000
0000
0010
0000
,
0100
0000
0100
1000
0000
1000
0100
0010
0100
0001
0010
0100
0010
0000
0100
1000
,
0001
0000
0001
0100
0000
0100
1000
0100
0010
0100
0001
0010
0100
0000
0010
0001
,
1000
0000
1000
0010
0000
0100
0001
0010
0100
0010
0100
1000
0010
0000
0100
0001
,
1000
0000
1000
0100
0000
0100
0001
0100
1000
0000
0010
0000
0110
0000
0100
0001
,
0020
0000
1000
0000
0031
0000
0100
1000
0100
0010
0002
0000
1000
0000
1003
0100
,
0020
0000
1000
0000
1030
0000
0100
0010
0001
0010
0100
1000
0000
0001
0100
0001
,
1000
0100
1000
0001
0100
1000
0100
0001
1000
0000
0100
0000
0010
0001
0010
0100
,
1000
0000
0001
0000
1000
0000
0010
0100
0010
0000
1000
0010
1000
0000
0001
1000
0001
0000
0000
0000
0010
0000
0000
0000
0110
0000
0000
0000
0100
0000
1000
0000
,
0001
0000
0100
0000
0010
0000
0100
1000
0100
0000
0010
0100
0010
0000
0100
0001
,
2000
0000
0100
0000
3002
0000
0103
0010
0100
0000
0001
0000
1000
0000
0100
0001
,
0100
0000
0010
0100
0010
0000
0100
1000
0001
0000
0100
1000
0100
0001
1000
0000
,
1100
0000
0100
1000
0010
0000
0100
0001
1000
0000
0001
0000
0101
0000
0100
0000
,
1100
0000
1000
0100
0001
0000
0001
0010
1000
0000
1010
0000
0000
0000
0011
0000
,
0000
0000
1001
0000
1000
0000
0001
0100
0010
0000
0010
1000
0001
0000
1000
0100
,
0010
0000
0010
0001
1000
0000
0010
0100
0010
0000
2000
0000
0010
0000
3002
0000
,
0100
0000
0000
0000
0000
0000
0000
0000
0000
0000
0000
0000
0000
0000
0000
0000
0000
0000
0000
0000
0000
0000
0000
0000
1003
0000
0000
0000
0000
0000
0000
0000
0000
0000
0000
0000
0000
0000
0000
0000
0000
0000
0000
0000
0000
0000
0000
0000
0100
0000
0000
0000
0000
0000
0000
0000
0000
0000
0000
0000
1000
0000
0000
0000
0000
0000
0000
0000
0000
0000
0000
0000
0001
0000
0000
0000
0000
0000
0000
0000
0000
0000
0000
0000
0000
0000
0000
0000
0000
0000
0000
0000
0000
0000
0000
0000
0100
0000
0000
0000
0000
0000
0000
0000
0000
0000
0000
0000
0000
0000
0000
0000
0000
0000
0000
0000
0000
0000
0000
0000
0010
0000
0000
0000
0000
0000
0000
0000
0000
0000
0000
0000
0000
0000
0000
0000
0000
0000
0000
0000
0000
0000
0000
0000
0220
0330
0000
0000
0000
0000
0000
0000
0000
0000
0000
0000
0000
0000
0000
0000
0000
0000
0000
0000
0000
0000
0000
0000
1001
0000
0000
0000
0000
0000
0000
0000
0000
0000
0000
0000
0000
0000
0000
0000
0000
0000
0000
0000
0000
0000
0000
0000
,
0001
0010
0200
0000
0310
0001
1000
0010
0200
0000
1000
0000
0301
0010
0100
0000
,
0010
0000
0021
0000
0130
1000
0010
0000
0210
0000
0010
0000
0310
1000
0200
0000
,
0310
0001
0200
0000
1300
0100
0001
0010
2000
0000
0001
0000
3001
0100
1000
0010
,
0100
0000
0000
1000
0000
0000
0001
0000
0000
0010
0000
0000
1000
0000
0000
0100
0000
0000
0010
0000
0001
0000
1000
0000
0100
0000
0010
0000
0001
0000
2000
0000
0000
0000
0000
0000
0100
0000
0000
0000
0000
0000
0001
0000
0000
0000
0000
0000
,
0100
0000
0000
0000
0010
0000
0000
0000
3001
0000
0010
0000
0100
0000
1000
0000
0001
0000
0010
0000
0100
0000
1000
0000
0010
0000
0000
0000
1000
0000
0001
0100
,
0010
0000
0100
0010
1000
0000
0001
0000
0010
0000
0100
0000
1000
0000
0010
0000
0100
0000
0000
0000
0120
0000
0000
0000
0130
0000
0000
0000
2001
0000
0000
0000
,
3001
0000
0000
0000
0210
0000
0000
0000
0310
0000
0000
0000
1002
0000
0000
0000
1003
0000
0000
0000
0210
0000
0000
0000
0310
0000
1000
0010
1000
0000
0000
0000
,
0001
0000
0100
0000
0001
0000
1000
0000
0001
0000
0010
0001
0010
0000
0001
0000
0100
0000
0010
0000
2000
0000
0000
0000
3010
0000
0100
0000
0020
0000
0000
0000
,
2030
0000
0001
0000
3002
0000
0023
0000
0230
0000
2300
0000
3001
0100
2000
0000
,
3200
0000
0302
0000
1003
0010
0100
0000
0010
0000
0100
0000
1000
0000
0100
0000
,
0010
0000
0100
0001
0010
0000
0100
0000
1000
0100
0010
0100
0001
0000
0100
0000
,
1000
0000
0010
0100
0010
1000
0001
0000
0100
1000
0100
0001
0100
0010
1000
0000
,
1000
0100
0001
0100
1000
0000
0010
0000
0100
0001
0010
0000
0100
1000
0100
0010
,
0001
1000
0010
0000
0100
0000
0010
0000
1001
0000
0000
0000
0000
0000
0000
0000
;
