#TITLE:愛言葉Ⅲ feat. 初音ミク;
#SUBTITLE:;
#ARTIST:DECO*27;
#TITLETRANSLIT:Ai kotoba III;
#SUBTITLETRANSLIT:;
#ARTISTTRANSLIT:DECO*27;
#GENRE:POP;
#CREDIT:;
#MUSIC:Ai kotoba III.ogg;
#BANNER:Ai kotoba III.png;
#BACKGROUND:Ai kotoba III-bg.png;
#CDTITLE:;
#SAMPLESTART:57.180;
#SAMPLELENGTH:14.015;
#SELECTABLE:YES;
#OFFSET:-0.027;
#BPMS:0.000=137.000;
#STOPS:;
#BGCHANGES:2.000=Ai kotoba III.avi=1.000=0=0=0=StretchNoLoop====,
99999.000=-nosongbg-=1.000=0=0=0=StretchNoLoop====
;
#FGCHANGES:;

//--------------- dance-single - ----------------
#NOTES:
     dance-single:
     :
     Hard:
     12:
     0,0,0,0,0:
0000
0000
0000
0000
,
0010
0100
1000
0001
0000
0100
0010
1000
,
0000
0001
0100
0010
0000
0110
0000
1010
,
0000
0001
0010
0100
0000
1000
0001
0010
,
0000
0100
1000
0100
0010
0001
1000
0001
,
0000
1000
0100
0010
0000
0001
1000
0010
,
0000
0100
0001
1000
0000
1010
0000
0110
,
0000
0001
1000
0010
0000
0100
0001
1000
,
0100
0010
0001
0010
0100
1000
0001
1000
,
0001
0100
0001
0000
1000
0010
1000
0000
,
0001
0010
0001
0000
1000
0100
1000
0001
,
0010
0000
0100
1000
0100
0000
0010
0001
,
0010
0000
0001
1000
0001
0100
0010
0000
,
0010
1000
0100
0000
0010
0001
0100
0000
,
0010
1000
0001
0000
1000
0100
1000
0010
,
0100
0000
0100
0001
0010
0000
0010
0100
,
1000
0001
0100
0000
0110
0000
1001
0001
,
0010
0100
1000
0001
0100
0010
1000
0001
,
2000
0100
0000
0001
0000
0100
0000
0001
,
3001
0100
0001
1000
0100
0010
0001
1000
,
0002
0100
0000
1000
0000
0100
0000
1000
,
1003
0010
0001
1000
0100
0001
0010
1000
,
0020
0001
0000
0100
0000
0001
0000
0100
,
0130
1000
0001
0000
0100
0001
1000
0000
,
1000
0010
0100
0001
0010
0100
1000
0001
,
0100
0020
0000
0032
0000
1003
0100
0001
,
0010
0200
0000
0302
0000
1003
0010
0001
,
0200
0000
2300
3002
0000
0013
1000
0200
,
0000
0310
0001
1000
0100
0000
0010
0100
,
0001
0100
1000
0100
0010
0001
0010
0100
,
1000
0010
0100
0010
0001
0010
0100
0010
,
1000
0100
1000
0100
0010
0001
0010
0001
,
1000
0001
1001
0000
2002
0000
0000
0003
,
3001
0100
1000
0100
0001
0100
1000
0100
,
0001
0010
1000
0010
0001
0010
1000
0010
,
0001
0100
0010
1000
0001
0010
0100
1000
,
0001
0100
1000
0001
0010
1000
0001
0010
,
0100
0000
0100
1000
0100
0010
0011
0000
,
0001
0100
0010
1000
0001
0100
1000
0100
,
0001
1000
0001
1000
0100
0010
0100
0010
,
0002
1000
1003
0000
1100
0000
0011
0000
,
1000
0100
0001
0100
1000
0100
0001
0100
,
1000
0010
0001
0010
1000
0010
0001
0010
,
1000
0100
0010
0001
1000
0010
0100
0001
,
1000
0100
0001
1000
0010
0001
1000
0010
,
0100
0000
0100
0001
0100
0010
1010
0000
,
1000
0100
0010
0001
1000
0100
0010
0011
,
0000
1100
0001
1000
0000
0101
1000
0001
,
0000
0100
1001
0000
0000
0000
0000
0000
,
0001
0000
0100
0000
0010
0000
0100
0000
0001
0000
1000
0100
0000
0000
0010
0000
,
0001
0000
1000
0000
0010
0000
1000
0000
0001
0000
0100
0010
0000
0000
0000
0000
,
0010
1000
0100
1000
0010
0100
0001
0010
,
0000
0010
0000
0100
1000
0000
0001
1000
0000
0100
0010
0000
1001
0000
0010
0000
,
1010
0100
0011
0100
1010
0100
0011
0100
,
1010
0000
0001
0000
0101
0000
1000
0010
1000
0000
0001
0100
0001
0000
1001
0000
,
0000
0001
1000
0100
0010
0100
0010
0001
,
0100
1000
0100
0002
2000
0000
3003
0000
,
0100
0000
1001
0010
0100
0000
0100
1000
,
0001
0000
0100
0010
0100
0000
0110
0000
,
0010
1000
0001
0000
0010
0001
0010
2000
,
0000
3020
0000
0031
0200
0000
0320
0000
,
2030
0000
3010
0100
0000
0110
0000
1001
,
0000
0110
0000
1000
0002
0000
0023
0000
,
0130
1000
0001
0000
0100
0001
1000
0000
,
0001
0000
0001
0000
0010
0100
2000
0000
,
3001
0100
0010
1000
0000
1000
0010
0100
,
0000
0001
0010
0100
1000
0010
0100
0110
;

//--------------- dance-single - ----------------
#NOTES:
     dance-single:
     :
     Challenge:
     15:
     0.601787,0.453513,0,0,0,528,528,0,0,0,0,0.601787,0.453513,0,0,0,528,528,0,0,0,0:
0000
0000
0000
0000
,
0001
0100
0010
0100
0001
0100
0010
0100
,
0001
0000
0100
0000
1000
0000
0100
0000
0001
1000
0001
0000
0100
0000
0010
0000
,
1000
0100
0010
0100
1000
0100
0010
0100
,
1000
0000
0100
0000
0001
0000
0100
0000
1000
0001
1000
0000
0001
0000
0100
0000
,
1000
0100
0010
0100
1000
0100
0010
1000
,
0001
0000
0010
0000
0100
0000
0010
0000
0001
1000
0001
0000
0010
0000
0100
0000
,
0001
0000
0100
0000
1000
0000
0001
0000
1000
0000
0010
0000
0001
0010
0100
0000
,
0010
0000
0000
0000
0000
0000
0110
0000
0000
0000
0000
0000
0110
0000
0000
0000
0000
0000
1000
0000
0000
0001
0000
0000
0010
0000
0100
0000
0010
0000
0100
0000
0000
1000
0000
0000
0001
0000
0000
1000
0000
0000
0001
0000
0000
0000
0000
0000
,
1010
0010
0100
0001
0010
0100
0010
0100
,
1000
0010
0100
0001
1000
0010
0100
0001
,
0010
0100
0010
0100
1000
0100
0010
0001
,
0010
0100
1000
0001
1000
0010
0110
0000
,
0010
1000
0100
0010
0001
1000
0001
1000
,
0010
0100
0001
1000
0010
0100
0001
0010
,
0100
0000
0100
1000
0010
0000
0010
0100
,
0001
0000
1000
0000
0001
0000
0010
0000
0110
0000
0001
0000
1000
0100
1000
0000
,
0001
0100
0010
1000
0001
0000
1000
0100
0010
0001
1000
0010
0100
0000
0001
0000
,
1000
1100
0000
0110
0000
0011
0000
1001
,
1000
0100
0010
0001
1000
0000
0001
0100
0010
1000
0001
0010
0100
0000
1000
0000
,
0001
0101
0000
0110
0000
1010
0000
1001
,
0001
0100
0010
1000
0001
0000
1000
0100
0010
0001
1000
0010
0100
0000
0001
0000
,
1000
1100
0000
0101
0000
0110
0000
1001
,
1000
0100
0001
0100
1000
0001
0100
0110
,
1000
0000
1100
0000
0011
0000
0010
0000
0100
0000
1000
0100
0010
0100
1000
0010
,
0200
0000
1000
0000
0000
0000
0010
0000
0000
0000
0301
0010
0100
0010
0001
0100
,
0020
0000
0001
0000
0000
0000
0100
0000
0000
0000
1030
0100
0001
0100
1000
0001
,
0200
0000
0000
0000
1300
0000
0100
0000
0001
0000
1000
0001
0010
0100
0001
1000
,
0010
0000
0001
0000
1000
0000
0001
0000
0100
0000
0010
0000
0100
0001
1000
0000
,
0100
0000
0010
0100
0001
0000
0100
0000
0010
0100
1000
0000
0001
1000
0001
0000
,
0100
0000
0010
0100
1000
0000
0100
0000
0010
0100
0001
0000
1000
0100
0010
0000
,
0100
0000
0000
1000
0000
0000
0100
0000
0000
1000
0000
0000
0001
0000
0010
0000
0100
0000
1000
0000
0000
0010
0000
0000
0100
0000
0000
0001
0000
0000
1000
0000
0000
0100
0000
0000
0010
0000
0000
0100
0000
0000
1000
0000
0000
0100
0000
0000
,
0001
0100
1100
0000
1002
0100
0100
0103
,
0001
0000
0100
0010
0100
0000
1000
0000
0100
0001
0010
0000
0100
0000
1000
0000
,
0001
0000
0010
0100
0010
0000
1000
0000
0010
0001
0100
0000
0010
0000
1000
0000
,
0100
0000
1000
0001
1000
0000
0010
0000
0001
0010
1000
0000
0100
0000
2000
0000
,
3002
0000
0010
0100
2003
0000
0001
0100
3002
0000
1000
0100
0013
0100
2000
0010
,
3200
0000
0000
0000
0310
1000
0010
0001
0010
0000
1010
0000
0101
0000
0000
0000
,
0001
0000
1000
0000
0100
0001
0100
1000
0100
0000
1100
0000
0011
0000
0001
0000
,
1000
0000
1000
0000
0001
0000
0001
0000
0010
0000
0100
0000
1000
0001
1000
0000
,
0001
0000
0000
0000
0000
0000
0011
0000
0000
0000
0000
0000
0011
0000
0000
0000
0000
0000
0100
0000
0000
0000
0000
0000
1000
0000
0100
0000
1000
0000
0100
0000
0000
0010
0000
0000
0001
0000
0000
0010
0000
0000
0100
0000
0000
1000
0000
0000
,
0001
0000
1000
0100
0010
0000
0100
0000
1000
0010
0100
0000
0010
0000
0010
0000
,
1000
0000
0001
0100
0010
0000
0100
0000
0001
0010
0100
0000
0010
0000
0010
0000
,
0100
0000
1000
0010
0001
0000
1000
0000
0001
0010
1000
0000
0100
0000
2000
0000
,
3020
0000
0100
1000
0032
0000
1000
0100
0023
0000
1000
0100
0032
0000
0100
1000
,
0023
0000
0000
0000
1030
0010
0100
0001
0010
0000
0110
0000
1001
0000
0000
0000
,
0001
0000
1000
0000
0001
0010
0100
1000
0010
0000
0110
0000
1001
0000
1000
0000
,
0001
0000
0000
0011
0000
0000
0100
0000
0000
1000
0000
0000
1010
0000
0000
0100
0000
0000
0001
0010
0100
1000
0000
0000
,
0010
0100
1001
0000
0000
0000
0000
0000
,
0001
0000
0100
0000
0010
1000
0010
0100
0001
0000
0010
1000
0000
0000
0010
0000
,
0001
0100
0010
0100
0001
1000
0100
0010
0100
0000
1000
0001
0000
0000
0100
1000
,
0001
0000
0010
0000
1000
0100
0010
0100
0001
0100
1000
0010
0100
0000
1000
0000
,
0100
0001
0000
0100
0010
0000
0100
1000
0000
0100
0001
1000
0001
0000
0010
0000
,
0100
0011
0100
1010
0001
1100
0010
0101
,
0001
0100
1000
0100
0010
0100
1000
0100
0001
0000
1000
0100
0001
0000
0100
0000
,
1000
0001
0001
0001
1000
0010
0100
1000
,
0100
0000
0000
0000
0000
0000
0001
0000
0000
0000
0000
0000
0010
0000
0000
0000
0000
0000
0100
0000
0000
0000
0000
0000
1000
0000
0100
0000
1000
0000
0100
0000
0000
0010
0000
0000
0001
0000
0000
1000
0000
0000
0001
0000
0000
0000
0000
0000
,
0100
0010
0100
0000
1001
0000
0010
0000
1000
0000
0100
0000
0010
0000
0100
0000
,
1000
0001
0100
0000
0010
1000
0010
0000
0100
0001
1000
0000
0001
0010
0001
0000
,
1000
0100
0001
0100
1000
0001
0010
1000
,
0010
0000
0001
0000
0100
0000
1000
0100
0001
1000
0010
0100
0010
1000
0001
0010
,
2000
0000
0000
0000
3010
0000
0001
0000
0100
0000
0010
1000
0001
0000
1000
0000
,
0001
0000
0100
0000
0010
0000
1000
0000
0001
0010
0000
0001
1000
0000
0100
0000
,
0010
0000
0001
0100
0001
0000
0010
0000
0100
0000
1000
0010
1000
0000
0001
0000
,
1000
0000
0010
0100
0010
0000
0100
0001
0010
0100
0000
0100
1000
0000
0010
0000
,
0001
0000
1000
0000
0100
0000
0001
0000
1000
0100
0000
0100
0010
0000
1000
0000
,
0010
0000
0001
0000
0100
0000
0010
0000
1000
0001
1000
0000
0010
0000
0110
0000
;
