#TITLE:アイがあるようでないようである;
#SUBTITLE:;
#ARTIST:ナナヲアカリ;
#TITLETRANSLIT:Ai ga Aru You de Nai You de Aru;
#SUBTITLETRANSLIT:;
#ARTISTTRANSLIT:Nanawo Akari;
#GENRE:POP;
#CREDIT:;
#MUSIC:Ai ga Aru You de Nai You de Aru.ogg;
#BANNER:Ai ga Aru You de Nai You de Aru.png;
#BACKGROUND:Ai ga Aru You de Nai You de Aru-bg.png;
#CDTITLE:;
#SAMPLESTART:38.416;
#SAMPLELENGTH:11.607;
#SELECTABLE:YES;
#OFFSET:-0.023;
#BPMS:0.000=168.000;
#STOPS:;
#BGCHANGES:2.500=Ai ga Aru You de Nai You de Aru.avi=1.000=0=0=0=StretchNoLoop====,
99999.000=-nosongbg-=1.000=0=0=0=StretchNoLoop====
;
#FGCHANGES:;

//--------------- dance-single - ----------------
#NOTES:
     dance-single:
     :
     Hard:
     11:
     0,0,0,0,0:
0000
0000
0000
0000
,
0000
0000
0000
0000
,
0000
0000
0000
0000
,
1001
0000
0001
0100
0000
0001
0000
1000
,
0100
0010
0000
0110
0000
0010
0001
1000
,
0000
0010
0000
0100
0001
0000
0001
0000
,
1000
0100
0000
0100
0010
0000
1001
0000
,
1001
0000
1000
0100
0000
1000
0000
0001
,
0100
0010
0000
0110
0000
0100
0001
1000
,
0000
0100
0000
0001
0100
0000
1000
0001
,
0100
0010
0000
0010
0100
0000
1001
0000
,
0010
0000
0100
0000
0010
1000
0001
0000
,
0010
0000
0100
0000
0010
0001
1000
0000
,
0001
0100
1000
0100
,
0001
0010
0100
1000
0001
0000
1001
0000
,
1000
0000
1000
0010
0000
1000
0001
0000
,
1000
0000
0001
0010
0000
0001
1000
0000
,
0001
0000
0001
0100
0010
0000
1000
0100
,
0010
0001
1001
0110
,
0010
0000
1000
0100
0000
0010
0001
0000
,
1000
0000
0001
0100
0000
0010
1000
0000
,
0001
0001
1000
1000
,
0010
0100
0010
0000
0100
0010
0100
0000
,
0101
0011
0101
1001
,
1100
1010
1100
1001
,
0110
0000
0100
0001
1000
0000
0100
1000
,
0001
0000
0010
0100
0010
0000
1001
0000
,
0001
0100
0001
0100
0010
0000
1001
0000
,
1000
0100
1000
0100
0010
0000
1001
0000
,
0001
0100
1000
0000
1000
0100
0001
0000
,
0001
0100
1000
0100
0001
0000
1001
0000
,
1000
0001
0100
0001
1000
0000
1100
0000
,
0001
1000
0100
1000
0001
0000
0101
0000
,
0100
0001
0010
0000
0100
1000
0010
0000
,
0100
0110
1001
1001
,
0001
0010
0100
1000
0001
0000
0101
0000
,
1000
0010
0100
0001
1000
0000
1100
0000
,
1000
0100
0001
0000
0001
0100
1000
0000
,
1010
0101
1001
1001
,
0001
0100
1000
0100
0001
0000
1001
0000
,
1000
0001
0011
0000
0001
1000
1010
0000
,
0101
0001
0100
0100
,
0011
0000
1100
0000
1000
0100
0010
0000
,
0001
0000
0100
0000
0010
0000
1000
0100
,
1000
0000
0010
0000
0100
0000
0001
0100
,
0001
0000
0010
0000
0100
0000
1000
0001
,
1000
0000
0001
0000
0100
0010
0100
0000
,
0010
1000
0001
0000
0010
0100
1000
0000
,
0001
0100
0010
0000
0100
0001
1000
0000
,
0100
0010
0100
1000
0001
0100
0001
0100
,
1000
0000
0100
0000
0001
0010
0001
1000
,
0010
0010
0100
0100
,
0001
1000
0001
0000
1000
0100
1000
0000
,
0100
0000
0010
0001
0010
0100
1000
0000
,
0001
0100
0010
1000
0000
0001
0100
0000
,
0010
0000
0010
1000
0100
0000
0100
1000
,
0001
0000
0010
0100
0000
2000
0000
0000
,
3002
0203
0320
2030
,
3001
0010
0100
1000
0000
0000
0001
0000
,
1001
1000
0010
0010
,
1001
0001
0100
0100
,
1010
1000
0001
0000
0011
0001
1000
0000
,
0110
0000
1001
0000
1001
0000
0001
0010
,
0100
0000
0100
1000
0001
0000
0110
0001
,
1000
0000
1000
0001
0010
0000
0110
1000
,
0001
0000
0001
0100
1000
0000
1000
0100
,
0001
1000
0100
0001
0100
0000
0110
0000
,
1000
0100
0010
0001
1000
0000
1001
0000
,
0001
0100
0010
1000
0001
0000
1001
0000
,
0001
0100
0010
0000
0010
1000
0001
0000
,
1000
0000
1100
0000
0011
0000
1001
0100
,
0001
0000
0001
1000
0001
0000
1001
0100
,
1000
0000
1000
0001
1000
0000
0110
0010
,
1000
0000
0110
0100
0001
0000
0001
0100
,
1010
0101
1001
1001
,
0001
1000
0001
0010
0100
0000
0110
0000
,
0100
1000
1010
0000
0100
0001
0011
0000
,
0110
1000
0001
1000
,
0101
0000
0011
0000
0001
0010
0100
0000
,
1100
1001
0101
1001
,
0110
0010
1000
0100
0001
0100
1000
0001
,
0100
0000
0000
0110
,
1001
0000
0001
0100
0000
0010
0000
1000
,
0100
0010
0000
0110
0000
0100
1000
0001
,
0000
0100
0000
1000
0100
0000
0001
0000
,
0010
0100
0000
1000
1010
0000
0101
0000
,
1001
0000
1000
0010
0000
0100
0000
0001
,
0010
0100
0000
0110
0000
0010
0001
1000
,
0000
0010
0000
0001
0010
0000
1000
0001
,
0100
0010
0000
0010
0100
0000
1001
0000
;

//--------------- dance-single - ----------------
#NOTES:
     dance-single:
     :
     Challenge:
     16:
     0.788398,0.862311,0.007686,0,0.076863,718,717,1,0,0,0,0.788398,0.862311,0.007686,0,0.076863,718,717,1,0,0,0:
0000
0000
0000
0000
,
0000
0000
0000
0000
,
0000
0000
0000
0000
,
1100
0000
0000
1000
0010
0000
0100
0000
0000
0000
0001
0000
0100
0000
0010
0000
,
1000
0000
0001
0000
0000
0000
1001
0000
0000
0000
1000
0100
1000
0000
0010
0000
,
0000
0000
0100
0000
0001
0000
0100
0000
0010
0000
1000
0001
1000
0000
0001
0000
,
0010
0000
1000
0000
0010
0000
0001
0000
0100
0000
0010
0000
1000
0100
1000
0100
,
0010
0000
0000
0010
0001
0000
1000
0000
0000
0000
0001
0000
0100
0000
0010
0000
,
1000
0000
0001
0000
0000
0000
1001
0000
0000
0000
0001
0100
0001
0000
0100
0000
,
0000
0000
0010
0000
1000
0000
0001
0000
1000
0000
0100
0010
0100
0000
1000
0000
,
0010
0100
0000
0100
0010
0000
1001
0000
,
0010
0000
1000
0000
0100
0000
1000
0000
0010
0000
1000
0010
0100
0000
0001
0000
,
0010
0000
0100
1000
0100
1000
0001
0100
0001
0100
0001
0010
1000
0000
0010
0000
,
0001
0000
0100
1000
0100
0000
0001
0000
0010
0000
1000
0010
1000
0000
0010
0000
,
0001
0000
0100
0000
1000
0100
0000
0100
0001
0000
0001
0010
0100
0000
0000
0000
,
1000
0000
0001
0000
0100
0000
0001
0000
0010
0000
0100
1000
0010
0000
0100
0000
,
1000
0000
0100
0001
0000
0001
0010
0100
1000
0000
0001
0000
1001
0000
0000
0000
,
1000
0000
0000
1010
0000
0000
0100
0000
0001
0000
0010
0100
0010
0000
0001
0000
,
0101
0000
0000
1010
0000
0000
0101
0000
1001
0000
1000
0000
0100
0000
0000
0000
,
0010
0100
0010
0001
1000
0000
0001
1000
0000
0000
0010
0000
0200
0000
0000
0000
,
0301
0100
0010
1000
0001
0000
1000
0001
0000
0000
0010
0000
0200
0000
0000
0000
,
0310
0000
0010
0001
1000
0000
0010
0000
0100
0000
0100
0001
1000
0000
0001
0000
,
0010
0100
1000
2100
0000
0001
3001
0000
,
1001
0000
0001
0000
1000
0100
1000
0000
1001
0000
1000
0100
1000
0000
0001
0000
,
1001
0000
1000
0000
0001
0100
0001
0000
1001
0000
0001
0100
0001
0000
1000
0000
,
1001
0000
0001
0000
0100
0010
0100
0000
1000
0000
0001
0000
0010
0100
0010
0000
,
1000
0000
0001
0000
0010
0100
0010
0100
0010
0000
0000
0000
0110
0000
0001
0000
,
1000
0000
0001
0000
0100
0000
0010
0000
0100
0000
0001
1000
1001
0000
0010
0000
,
0100
0000
1000
0000
0001
0000
1000
0000
0010
0000
1000
0001
1001
0000
0001
0000
,
0010
0000
0100
0000
1000
0000
0001
0000
0010
0000
0100
1000
0100
0000
0010
0000
,
0001
0010
0100
1000
0001
0010
0100
1000
0001
0000
0100
0000
1001
0000
0000
0000
,
0001
0100
0010
0100
0001
0100
0010
0100
0001
0000
0001
0010
0100
0000
0000
0000
,
0110
0000
1000
0100
0010
0100
1000
0100
0010
0100
1000
0010
0100
0000
0000
0000
,
0001
0100
1000
0001
0010
1000
0100
0010
,
0001
0000
0000
0001
0100
0000
1000
0100
0010
1000
0001
0000
1000
0100
1000
0100
,
0001
0000
0100
0000
0010
0000
0001
0000
0100
0000
0010
0100
0110
0000
1000
0000
,
0100
0000
0010
0000
0100
0000
1000
0000
0001
0000
0100
0010
0110
0000
0010
0000
,
1001
0100
0010
0100
1001
0010
0100
0010
,
1010
0100
0101
0010
1001
0100
1001
0000
,
0001
1000
0100
1000
0001
1000
0000
0001
0100
0001
0010
0000
0110
0000
0000
0000
,
1100
1000
1001
0010
0101
0001
1001
0010
,
0110
0001
0001
1000
,
1000
0000
0001
0100
0010
0100
0010
1000
0001
0000
0010
0000
0100
0000
0000
0000
,
1000
0000
1000
0000
0001
0000
0001
1000
,
0100
0000
0100
0000
0010
0000
0010
0001
,
1000
0000
0010
0000
0100
0000
0001
1000
,
0001
0000
1000
0000
0001
0100
0010
0100
,
0001
0010
1000
0010
0100
1000
0100
0001
,
1000
0010
0001
0100
0010
0100
1000
0001
,
0010
0100
0010
1000
0001
0100
0001
1000
,
0100
0000
0010
1000
0010
0000
0100
0000
1000
0010
1000
0000
0001
0000
0100
0000
,
0010
0000
0010
0000
0100
0001
0100
0000
,
0010
0000
1000
0100
0010
0000
0100
0000
1000
0100
0010
0001
1000
0000
0100
0000
,
0010
0000
0000
0000
0010
0001
0100
0010
0100
0001
1000
0100
0010
0100
1000
0100
,
0001
0100
0010
0000
0001
0000
2000
0000
0000
0000
3001
0000
0100
0010
0100
0010
,
1000
0000
0000
0000
0000
0000
0001
0000
0000
0010
0000
0000
0100
0000
0000
0000
0010
0000
0000
0000
0001
0000
0000
0000
1000
0000
0000
0000
0000
0000
0010
0000
0000
0100
0000
0000
0010
0000
0000
0000
0000
0000
1000
0000
0000
0000
0000
0000
,
0001
0100
0010
1000
0000
0001
0010
0000
,
0100
1000
0100
1000
0001
0100
0001
0100
0010
1000
0010
1000
0001
0010
0001
0010
,
0100
0000
1000
0010
0100
0000
0100
1000
0100
0001
1000
0000
1000
0100
0010
0001
,
1000
1000
0100
0100
,
0011
0001
0100
0100
,
1010
1000
0001
0100
1001
1000
0100
0010
,
1001
0000
0100
0000
0110
0000
1000
0000
0001
0100
0001
0100
0001
0000
1000
0000
,
0001
0000
1000
0000
0100
0000
0010
0000
0100
0000
1000
0001
0110
0000
0010
0000
,
0100
0000
0001
0000
1000
0000
0001
0000
0010
0000
0001
1000
0110
0000
1000
0000
,
0010
0000
0100
0000
0001
0000
1000
0000
0010
0000
0100
0001
1000
0000
0010
0000
,
0100
0001
0010
0100
0010
0001
0010
0100
1000
0000
0100
0000
1001
0000
0000
0000
,
1000
0100
0010
0100
1000
0010
0100
0010
1000
0000
1000
0100
0010
0000
0000
0000
,
1001
0000
0001
0100
0010
0100
0001
0010
0100
0010
0001
0100
1000
0000
0000
0000
,
1000
0100
0001
1000
0100
0001
0100
0010
,
1000
0000
0000
1000
0010
0000
0001
0100
0010
0001
1000
0000
0100
0001
0100
0001
,
1000
0000
0001
0000
0100
0000
0010
0000
1000
0000
0010
0100
1001
0000
0001
0000
,
0010
0000
0100
0000
0010
0000
0001
0000
1000
0000
0010
0100
1001
0000
0010
0000
,
0110
1000
0001
1000
0110
0001
1000
0001
,
0011
0100
1100
0010
1001
0100
1001
0000
,
1000
0001
0100
0010
0001
1000
0000
1000
0100
0001
0010
0000
0011
0000
0000
0000
,
1100
1000
1001
0010
0101
0001
1001
0010
,
0110
1000
1000
0001
,
0001
0000
1000
0100
0010
0100
1000
0010
1000
0000
0010
0000
0100
0000
0001
0000
,
0011
0001
1001
1000
1010
1000
1001
0100
,
0110
0000
0010
0000
1000
0000
0100
0000
0010
0000
0001
0000
1000
0100
0010
0001
,
1000
0000
0000
0110
,
0101
0000
0000
0001
0010
0000
0100
0000
0000
0000
1000
0000
0100
0000
0010
0000
,
0001
0000
1000
0000
0000
0000
1001
0000
0000
0000
0001
0100
0001
0000
0010
0000
,
0000
0000
0100
0000
1000
0000
0100
0000
0010
0000
0001
1000
0001
0000
1000
0000
,
0010
0000
0001
0000
0010
0000
1000
0000
0100
0000
0010
0000
0001
0100
0001
0100
,
0010
0000
0000
0010
1000
0000
0001
0000
0000
0000
1000
0000
0100
0000
0010
0000
,
0001
0000
1000
0000
0000
0000
1001
0000
0000
0000
1000
0100
1000
0000
0100
0000
,
0000
0000
0010
0000
0001
0000
1000
0000
0001
0000
0100
0010
0100
0000
0001
0000
,
0010
0100
0000
0100
0010
0000
1001
0000
;
