#TITLE:愛♡スクリ~ム!;
#SUBTITLE:;
#ARTIST:AiScReam;
#TITLETRANSLIT:Ai Scream!;
#SUBTITLETRANSLIT:;
#ARTISTTRANSLIT:AiScReam;
#GENRE:POP;
#CREDIT:;
#MUSIC:Ai Scream!.ogg;
#BANNER:Ai Scream!.png;
#BACKGROUND:Ai Scream!-bg.png;
#CDTITLE:;
#SAMPLESTART:109.114;
#SAMPLELENGTH:14.545;
#SELECTABLE:YES;
#OFFSET:1.795;
#BPMS:0.000=132.000;
#STOPS:;
#LASTBEATHINT:1.703576;
#BGCHANGES:5.000=Ai Scream!.avi=1.000=0=0=0=StretchNoLoop====,
99999.000=-nosongbg-=1.000=0=0=0=StretchNoLoop====
;
#FGCHANGES:;

//--------------- dance-single - ----------------
#NOTES:
     dance-single:
     :
     Medium:
     11:
     0,0,0,0,0:
0000
0000
0000
0000
,
0000
0000
0000
0000
,
0000
0000
0000
0000
,
0000
0000
0000
0000
,
0000
0000
0000
0000
,
0000
0000
0000
0000
,
0001
1000
0100
0000
0100
0000
1000
0000
,
0010
0000
0000
0100
0000
0000
0001
0000
1000
0000
0000
0000
0100
0000
0000
0000
,
1000
0100
1000
0000
0001
0100
0001
0000
,
1001
0000
1001
0000
0000
0110
0000
0001
,
1000
0000
0000
0001
0010
0000
0000
0000
0100
0000
1000
0000
0001
0000
0000
0100
,
0010
1000
0001
0010
0100
0000
1000
0000
,
0001
1000
0000
0100
0100
0100
0100
0000
,
1000
0001
0000
0100
0100
0100
0100
0001
,
1000
0000
0000
0100
0010
0000
0000
0000
0100
0000
1000
0000
0001
0000
0000
1000
,
0100
0010
0001
0010
0100
0000
1000
0000
,
0001
1000
0000
0010
0100
0100
0100
0000
,
1000
0001
0000
0010
0100
0100
0100
0000
,
0101
0000
0000
0100
0001
0000
1000
0000
0100
0000
1000
0000
0100
0000
0000
0000
,
1000
0000
0000
0001
0010
0000
0100
0000
0010
0000
0100
0000
1000
0000
0000
0000
,
0201
0000
0010
0000
1300
0000
0100
0002
,
0000
1000
2003
0000
0001
0000
3100
0000
,
1000
0100
1000
0000
0001
0000
0100
0000
0010
0000
0000
1000
0001
0000
0000
0000
,
1000
0000
0001
0010
0001
0000
0010
0000
0100
0000
0000
1000
0001
0000
0000
0000
,
0010
0000
0100
0000
1000
0000
0001
0100
,
0110
0000
0110
0000
0000
1001
0001
0010
,
0200
0000
0000
1300
0010
0100
0001
0010
,
0000
0010
0100
1000
0001
0000
1000
0000
,
0201
0000
0000
0301
1000
0100
0010
0001
,
0000
0001
1000
0000
1000
0010
0100
0001
,
1002
0000
0013
0100
1000
0010
0001
0010
,
0000
1000
0001
0000
0000
0010
0000
0100
,
1000
0001
0100
0001
1000
0100
1000
0001
,
0100
0000
0001
0010
0100
1000
0001
0000
,
0021
0000
1000
0000
0031
0000
1000
0010
,
0001
0010
1000
0001
0100
1000
0100
0000
,
0201
0000
1000
0000
0301
0000
0001
0010
,
0100
1000
0010
0000
0100
0001
0010
0000
,
0021
0000
1000
0000
0031
0000
1000
0100
,
0010
0001
1000
0000
0010
0000
0100
0000
,
0102
0000
1003
0100
0001
0000
0001
0100
,
2100
0000
3001
0100
1000
0000
0100
0000
,
0001
0000
1000
0000
0000
1000
0000
0000
1000
0000
0000
0010
0000
0000
0010
0100
,
0000
0000
0001
0000
0000
0001
0000
0000
0001
0000
1000
0000
0010
0000
0100
0000
,
0001
1000
0210
0000
,
0301
0010
0100
1000
0001
0000
0100
0000
,
0010
1000
0001
0000
0110
0000
1000
0200
,
0001
0000
1000
0000
0310
0000
1000
0010
,
0100
0001
0120
0000
,
1030
0001
0100
0010
1000
0000
1000
0000
,
0100
0000
1000
0000
0010
0000
0100
0000
0001
0000
0000
1000
0000
0000
0200
0000
,
0001
0000
1000
0000
0310
0000
0010
0100
,
1000
0001
0210
0000
,
0310
1000
0001
0010
0100
0000
0100
0000
,
1000
0000
0100
0000
0010
0000
0100
0000
1000
0000
0000
0001
0000
0000
0200
0000
,
1000
0000
0001
0000
0310
0000
1000
0100
,
0110
0000
0000
0000
2002
0000
0000
3000
,
0103
0010
1000
0001
0020
0000
0100
0000
,
0031
0010
1000
0010
0001
0100
1000
0100
,
0101
0000
1010
0000
1001
0000
0001
1000
,
0001
0000
1000
0100
0010
0001
1000
0000
,
0011
0000
1100
0000
0011
0000
0001
1000
,
0001
0100
1000
0100
0001
1000
0001
0000
,
1010
0000
0101
0000
1010
0000
1000
0010
,
0100
0001
0010
0000
0100
1000
0010
0000
,
0110
0000
1001
0000
0110
0000
0001
1000
,
0010
0100
0001
0000
0010
0000
0100
0000
,
2100
0000
0001
0100
3001
0000
0001
0100
,
0102
0000
1000
0100
1003
0000
0001
1000
,
1010
0000
1000
0001
0011
0000
0001
1000
,
1010
0000
1000
0001
0011
0000
0100
1001
,
0000
0000
0100
0010
1001
0000
0001
1000
,
0000
0101
0000
0100
1001
0010
0110
0000
,
1010
0000
1000
0100
0011
0000
0001
0100
,
1010
0000
1000
0100
0011
0000
0100
1001
,
0000
0000
0010
0100
1001
0000
1000
0001
,
0000
0011
0000
1100
1000
0001
1000
0010
,
0100
0000
0000
0000
;

//--------------- dance-single - ----------------
#NOTES:
     dance-single:
     :
     Hard:
     14:
     0,0,0,0,0:
0000
0000
0000
0000
,
0000
0000
0000
0000
,
0000
0000
0000
0000
,
0000
0000
0000
0000
,
0000
0000
0000
0000
,
0000
0000
0000
0000
,
0011
0000
0000
1001
0000
0000
1100
0000
1000
0010
0000
0100
0000
0001
0000
1000
,
0100
1000
0000
0010
0000
0100
0000
0001
0000
1000
0001
0000
0100
0000
0010
0000
,
1010
0000
0000
1001
0000
0000
0101
0000
0001
0100
0000
0010
0000
1000
0000
0001
,
0010
0000
0110
0000
0000
0110
0000
1000
,
0001
0000
0000
0100
0001
0000
0000
0000
0010
0000
0100
0000
0010
0000
0000
0001
,
1000
0100
0010
0001
1000
0000
0010
0100
,
0101
0021
0000
0100
0100
0100
0130
0000
,
1100
1020
0000
0100
0100
0100
0130
0001
,
1000
0000
0000
0001
0100
0000
0000
0000
0010
0000
1000
0000
0001
0000
0000
0010
,
0100
1000
0001
1000
0001
0000
1000
0100
,
1100
1020
0000
1000
0100
0100
0130
0000
,
0101
0021
0000
0001
0100
0100
0130
0000
,
1001
0000
1000
0100
0020
0000
0001
0000
0100
0000
0001
0000
0130
0000
0000
0000
,
1000
0000
0000
0001
1000
0000
0010
0000
0001
0000
0010
0000
1000
0000
0000
0000
,
1010
0000
0101
0000
0011
0001
1000
1100
,
0000
0000
0110
0000
0110
0000
0000
0000
0001
0000
1000
0001
0100
0000
0010
0000
,
1000
0100
1000
0000
0100
0000
0001
0000
0100
0000
0000
1000
0001
0000
0000
0000
,
0001
0100
0001
0000
0100
0000
1000
0000
0100
0000
0000
0001
1000
0000
0000
0000
,
0001
0000
1000
0100
1000
0000
0010
0000
0100
0000
0001
0010
0001
0000
1000
0000
,
1100
0000
0000
0000
0101
0000
0000
0000
1000
0000
1001
0000
0010
0100
0010
0000
,
0120
0000
0000
0130
0001
1000
0100
0010
,
0000
0010
0001
0000
0001
0010
0100
1000
,
2100
0000
3010
0100
0001
1000
0100
0010
,
0000
0000
0010
0000
0100
0000
0000
0000
1000
0000
0001
0100
0000
0001
0100
0000
,
0210
0000
0310
1000
0001
0100
1000
0100
,
0101
0000
1001
1000
0100
0001
0100
1000
,
0001
0100
0001
0000
1000
0010
1000
0000
0001
0010
0100
1000
0001
0010
0100
1000
,
0010
0000
1000
0001
1000
0001
0110
0000
,
0101
0000
0001
0000
1010
0000
0010
0000
0101
0000
0001
0000
1000
0000
0001
0100
,
0010
0000
0010
1000
0001
0000
0001
0100
0010
0000
0010
1000
0001
0000
0000
0000
,
1100
0000
1000
0000
0011
0000
0010
0000
1100
0000
1000
0000
0001
0000
1000
0100
,
0020
0000
0001
0000
1000
0000
0031
0100
0020
0000
1000
0000
0031
0000
0010
0000
,
1010
0000
0100
0000
0101
0000
0010
0000
1010
0000
0010
0000
0100
0000
0001
1000
,
0100
0000
0100
0010
0001
0000
1000
0010
0100
0000
0100
0001
1000
0000
0010
0000
,
0120
0000
1000
0100
0130
0001
0010
0100
,
0120
0000
0000
0000
0001
0000
0100
0000
0130
0000
1000
0001
0100
0000
0010
0000
,
1010
0000
1000
0000
0000
1000
0000
0000
0010
0000
0000
0100
0000
0000
0001
1000
,
0000
0000
0011
0000
0000
0010
0000
0000
0010
0000
0000
0000
0000
0001
1000
0000
,
1100
0000
1000
0010
0120
0000
1000
0000
,
1030
0000
0100
0000
0010
0000
0001
0000
0010
0100
0000
1000
0001
0000
0000
0000
,
0011
0000
0010
0000
0001
0000
0100
0000
0101
0000
0000
0000
0000
1000
0010
0200
,
0001
0000
0000
0000
1000
0000
0000
0000
0310
0000
1000
0000
0000
0001
0100
0001
,
0100
0000
0010
1000
0210
0000
0001
0000
,
0301
0000
0010
0000
0100
0000
1000
0000
0010
0100
0000
0100
0001
0000
1000
0000
,
0001
0100
0001
0100
0001
0000
0010
0000
0100
1000
0000
0001
0000
1000
0010
0200
,
0001
0000
0000
0000
1000
0000
0000
0000
0310
0000
1000
0000
0000
0000
0001
0010
,
0100
0000
0000
0000
1000
0000
0010
0000
0120
0000
0000
1000
0000
0000
1030
0000
,
0001
0010
0100
1000
1001
0000
0001
0010
,
1000
0000
0010
0000
0001
1000
0001
0000
1000
0010
0000
0100
0000
0001
0010
0200
,
1000
0000
0000
0000
0001
0000
0000
0000
0310
0000
0001
0000
0000
0000
1000
0001
,
0100
0000
0010
0100
1002
0000
0103
0000
,
0101
0010
1100
0010
1001
0000
0001
0000
,
1000
0100
0001
0100
1100
0000
1001
0010
,
0110
0000
1000
0000
1001
0000
0100
0000
0110
0000
0000
0000
0010
0100
0010
0100
,
0010
0000
1000
0001
1000
0001
0110
0000
,
1010
0000
0010
0000
0101
0000
0001
0000
1010
0000
0010
0000
1000
0000
0001
1000
,
0010
0000
0010
0100
0001
0000
0001
1000
0010
0000
0010
0100
0001
0000
0000
0000
,
0011
0000
0010
0000
1100
0000
1000
0000
0011
0000
0010
0000
0001
0000
0010
0200
,
0001
0000
0010
0000
2300
0000
3010
0200
1000
0000
0010
0000
0302
0000
0103
0000
,
0101
0000
0001
0000
1010
0000
1000
0000
0101
0000
0001
0000
1000
0000
0010
1000
,
0100
0000
0100
1000
0010
0000
0100
0001
0010
0000
0010
0001
0100
0000
0010
0000
,
0201
0000
0000
0000
0001
0000
0010
0000
0310
0000
1000
0001
0010
0000
0100
0000
,
1200
0000
0000
0000
1000
0000
0010
0000
0310
0000
1000
0001
0100
0000
0010
0000
,
1010
0000
0000
1000
0001
0000
0010
0000
0011
0000
0000
0001
1000
0000
0010
0000
,
1010
0000
0000
1000
0001
0000
0010
0000
0011
0000
0000
0000
0001
0000
1000
0000
,
0000
1000
0100
0010
1001
0000
1000
1010
,
0000
0000
0011
0000
0000
0000
1100
0000
1000
0100
0010
0000
1001
0000
0000
0000
,
1010
0000
0000
0010
0100
0000
0001
0000
0011
0000
0000
0010
0100
0000
1000
0000
,
1010
0000
0000
0010
0100
0000
0001
0000
0011
0000
0000
0000
0001
0000
1000
0000
,
0000
0001
0100
0010
1001
0000
0001
0011
,
0000
0000
1010
0000
0000
0000
1100
0000
1000
0100
0010
0000
0001
0010
0100
1000
,
0001
0200
0320
2030
,
3002
0023
2030
3020
,
0000
0032
0203
0320
,
2030
3200
0302
0203
,
0000
2300
3002
2003
,
3002
0203
2300
3200
,
0000
0302
0023
0230
,
2300
3020
0032
0013
;

//--------------- dance-single - ----------------
#NOTES:
     dance-single:
     :
     Challenge:
     16:
     0.548762,0.418328,0,0,0,601,601,0,0,0,0,0.548762,0.418328,0,0,0,601,601,0,0,0,0:
0000
0000
0000
0000
,
0000
0000
0000
0000
,
0001
0000
1000
0100
0000
1000
0010
0000
0100
0001
0000
0010
0000
0100
0000
1000
,
0001
0000
0100
0010
1000
0001
0000
0010
0000
0100
0000
1000
0001
0100
1000
0000
,
0100
0000
0001
0100
0000
0001
0010
0000
0100
1000
0000
0010
0000
0100
0000
0001
,
0010
0100
0000
1000
0000
0001
0000
1000
0010
0100
0000
0001
0000
1000
0000
0001
,
0010
0000
0100
0010
0000
0001
1000
0000
0010
0100
0000
0001
0000
1000
0000
0100
,
0010
0001
0000
1000
0000
0010
0000
1000
0001
0100
0000
0010
1000
0100
0001
0000
,
0100
0000
1000
0010
0000
0100
0001
0000
1000
0100
0000
0010
0000
0001
0000
0100
,
0110
0000
0000
0000
0110
0000
0000
0000
0000
0000
1001
0000
0000
0000
0001
0010
,
0100
0000
0000
0000
0000
0000
0000
0000
0000
1000
0000
0000
0001
0000
0000
0000
0000
0000
0100
0000
0000
0000
0010
0000
1000
0000
0000
0000
0001
0000
0100
0000
0000
0000
0000
0000
0101
0000
0000
0000
0000
0000
0000
0000
0000
0000
1000
0000
,
0100
0000
0000
0010
0000
0001
0100
0000
0000
0010
0000
0000
1000
0000
0001
0100
0000
0000
0110
0000
0000
1000
0000
0001
,
0100
0000
0000
0010
0000
1000
0001
0000
0000
0100
0000
0001
0100
0000
0010
0100
0000
1000
0100
0000
0000
0010
0000
1000
,
0001
0000
0000
0010
0000
0001
1000
0000
0000
0100
0000
1000
0100
0000
0010
0100
0000
0001
0100
0000
0000
1000
0000
0010
,
0100
0000
0000
0001
0000
1000
0010
0000
0000
0100
0000
0010
1000
0000
0001
0010
0000
0000
1100
0000
0000
1000
0000
0010
,
0100
0000
0000
0001
0000
0010
0100
0000
0000
1000
0000
0001
0100
0000
0001
1000
0000
0000
0110
0000
0000
1000
0000
0001
,
0010
0000
0000
0100
0000
1000
0001
0000
0000
0100
0000
0001
0010
0000
0100
0010
0000
1000
0010
0000
0000
0001
0000
1000
,
0010
0000
0000
0100
0000
0001
1000
0000
0000
0100
0000
1000
0010
0000
0100
0010
0000
0001
0010
0000
0000
0100
0000
0000
,
1001
0000
1000
0100
0010
0100
1000
0000
0001
0010
0000
0100
0000
0010
0000
0001
,
1000
0000
0001
0100
0010
0100
0000
0001
0010
1000
0000
0010
0001
0000
1000
0000
,
0101
0000
0100
0001
0000
1000
0100
0000
0001
0100
0000
1000
0000
0010
0100
0001
,
0100
1000
0100
0010
1000
0001
0000
0010
0100
1000
0001
1000
0100
0001
0100
1000
,
0001
0010
0100
0000
1100
0000
1000
0010
0100
0001
0000
1000
0001
0010
0000
0100
,
1000
0000
0001
1000
0010
0100
0001
1000
0100
0010
0000
0010
0100
0000
1000
0100
,
0010
0000
0100
1000
0010
0100
0000
0100
0001
0000
0001
0010
0100
1000
0001
0100
,
0110
0000
0000
0000
0110
0000
0000
0000
0000
0000
1001
0000
0001
0010
0001
0010
,
0200
0000
0000
1300
0001
0100
0010
1000
,
0000
0000
1000
0000
0001
0000
0010
0000
0011
0000
0000
1001
0000
0000
1100
0000
,
1020
0000
0000
0130
0001
1000
0100
0001
,
0000
0000
0001
0000
0100
0000
0000
0000
1000
0010
1000
0010
0100
0001
0100
0001
,
1001
1000
0010
0100
0101
0001
0010
0100
,
1100
0000
0000
0000
0000
0000
0010
0000
0000
0000
0000
0000
0101
0000
0000
0000
0000
0000
1000
0000
0000
0000
0000
0000
0001
0000
0000
0100
0000
0000
0001
0000
0000
0000
0000
0000
1000
0000
0000
0000
0000
0000
0001
0000
0010
0000
0001
0000
,
0010
0100
1000
0001
1000
0010
0100
0001
1000
0001
0010
0100
1000
0001
1000
0010
,
0100
0000
0000
0000
0000
0000
0000
0000
0000
0000
0000
0000
0100
0000
0000
0000
0000
0000
0001
0000
1000
0000
0001
0000
1000
0000
0000
0000
0000
0000
0001
0000
0000
0010
0000
0000
0100
0000
0000
0000
0000
0000
0000
0000
0000
0000
0000
0000
,
1001
0000
1000
0100
0010
0000
0001
0010
0100
0000
1000
0100
0010
0001
1000
0010
,
0100
0001
0100
1000
0100
0001
0010
0100
1000
0100
0001
0100
1000
0000
0000
0000
,
1001
0000
0001
0100
0010
0000
1000
0010
0100
0000
0001
0100
0010
1000
0001
0100
,
2000
0100
3100
0010
1000
0001
1000
0010
0002
0010
0013
0100
0001
1000
0010
1000
,
1001
0000
0001
0010
0100
0000
1000
0100
0010
0000
0001
0010
0100
0000
1000
0000
,
0001
0100
0001
0010
1000
0010
0001
1000
0100
1000
0010
0001
0010
1000
0100
0010
,
0002
0000
1000
0000
0100
0000
1003
0010
0100
0000
0100
0001
1000
0100
0010
0001
,
2000
0000
0001
0000
0100
0000
3001
0010
0100
0000
1000
0001
0100
0010
0100
0010
,
1000
0000
0001
0000
0000
0001
0000
0000
0001
0000
0000
0010
0000
0000
0001
1000
,
0000
0000
0000
0000
0000
0000
0001
0000
0000
0000
0000
0000
0001
0000
0000
0010
0000
0000
0000
0000
0000
0001
0000
0000
0010
0000
0000
0000
0100
0000
1000
0000
0000
0000
0000
0000
0001
0000
0000
0000
1000
0000
0010
0000
0000
0000
0100
0000
,
0020
0000
0000
1000
0000
1030
0001
0000
0000
0010
0000
0100
2000
0000
0000
0001
0000
0000
0010
0000
0000
3010
0000
0100
,
0001
0000
0000
1000
0000
0000
1100
0000
0000
0100
0000
1000
0020
0000
0000
1000
0000
0000
0130
0000
0001
1000
0000
0000
,
0110
0000
0000
0001
0000
0010
0100
0000
0000
1000
0000
0000
1100
0000
0000
0000
0000
0000
0001
0000
1000
0010
0000
0100
,
0002
0000
0000
0100
0000
0103
2000
0000
0000
0100
0000
0100
3020
0000
0000
0100
0000
0000
0031
0000
0010
0001
0000
1000
,
0010
0000
0000
0100
0000
0001
1000
0000
0000
1000
0000
0010
0200
0000
0000
0001
0000
0000
0010
0000
0000
0301
0000
1000
,
0100
0000
0000
0010
0000
0001
0100
0000
0000
0010
0000
1000
0100
0000
0000
0010
0000
0000
0001
0000
0000
1000
0000
0010
,
0100
0000
0000
0001
0000
0000
1000
0000
0000
0001
0000
0000
0010
0000
0000
0000
0000
0000
0010
0000
0000
0000
0001
0000
1000
0000
0000
0000
0000
0000
0001
0000
0000
0000
1000
0000
0100
0000
0000
0010
0000
0000
0001
0000
0000
0200
0000
0000
,
1000
0000
0000
0000
0000
0000
1300
0000
0000
0200
0000
0000
0001
0000
0000
0000
0000
0000
0301
0000
0000
0100
0000
0000
0010
0000
0000
0000
1000
0000
0100
0000
0000
0000
1000
0000
0001
0000
0000
0000
0000
0000
0010
0000
0000
0000
0100
0000
,
1000
0000
0000
0000
0000
0000
0010
0000
0000
0100
0000
0000
0000
0000
0000
0010
0000
0000
0100
0000
0000
0000
0000
0000
0002
0000
0000
0010
0000
0000
0000
0000
0000
0100
0000
0000
0000
0000
0000
1000
0000
0000
0000
0000
0003
0100
0000
0000
,
0010
0000
1000
0000
0101
0000
0010
0000
1100
0000
0001
0010
0100
0000
1000
0000
,
0011
0000
1100
0000
1000
0010
0100
0000
0001
1000
0000
0100
0000
0010
0001
1000
,
2010
0000
3100
0000
0012
0000
0103
0000
0120
0000
1030
0100
0001
0000
0100
1000
,
0010
0000
0100
0001
0000
0001
0010
0000
0200
1000
0000
0010
0000
0001
0000
1300
,
0002
2003
3020
0230
0302
1000
0010
0103
,
0110
1000
1001
0010
0110
0001
1001
0100
,
0110
0000
0000
0000
1010
0000
0100
0000
0101
0000
1010
0000
0010
0100
0010
0100
,
0001
0000
0000
0010
0000
0000
0100
0000
0000
1000
0000
0000
0001
0000
0000
0000
0000
0000
1000
0000
0100
0000
0010
0000
0001
0000
0000
0000
0000
0000
1000
0000
0000
0000
0000
0000
0110
0000
0000
0000
0000
0000
0000
0000
0000
0000
0000
0000
,
1001
0000
1000
0010
0100
0000
0001
0010
0100
0000
1000
0010
0100
0010
1000
0100
,
1000
0001
0010
0100
0001
0100
1000
0010
0001
0010
0100
0001
1000
0000
0100
0000
,
0011
0000
0001
0010
0100
0000
1000
0010
0100
0000
0001
0010
0100
1000
0001
0100
,
2000
0100
3100
1000
0100
0010
0001
1000
0002
0010
0013
0001
0010
0100
1000
0001
,
0010
0000
1000
0100
0010
0000
0001
0100
0010
0000
1000
0100
0010
0100
1000
0010
,
0001
0010
1000
0100
0010
0100
1000
0010
0001
0000
1000
0100
0001
0000
0010
0000
,
2100
0000
0001
0000
0010
0000
0100
0000
3001
0100
0010
1000
0001
0010
0100
1000
,
0002
0000
1000
0000
0010
0000
0103
0000
0001
0010
0100
1000
0001
0100
0010
1000
,
1010
0000
0001
0010
0100
0000
1000
0000
0011
0000
1000
0010
0100
0000
0001
0000
,
1010
0000
0001
0010
0100
0000
1000
0000
0011
0000
1000
0000
0101
0000
1100
0000
,
0110
0000
0001
1000
0001
0000
0010
0000
1001
0000
1000
0100
0010
0001
0011
0000
,
0000
0000
1001
0000
0000
0000
1010
0000
1000
0010
0100
0010
1001
0000
0001
1000
,
1010
0000
0001
0010
0100
0000
1000
0000
0011
0000
1000
0010
0100
0000
0001
0000
,
1010
0000
0001
0010
0100
0000
1000
0000
0011
0000
1000
0000
0101
0000
1100
0000
,
0110
0000
1000
0001
1000
0000
0010
0000
1001
0000
1000
0010
0100
0001
0101
0000
,
0100
0001
0010
1000
0001
0100
1000
0010
0001
1000
0100
0001
0010
1000
0001
0100
,
1000
0200
0320
0032
,
2003
0000
0000
0000
3020
0000
0000
0130
0000
0001
0000
1000
0001
0010
0100
1000
,
0010
0000
0000
0100
0001
1000
0000
0000
1100
0000
0000
0011
0000
0000
1100
0000
,
1000
0010
0100
0001
0010
0000
0100
1000
0100
1000
0000
0001
0000
0100
0010
0000
,
0120
0000
0000
0000
2030
0000
0000
0000
3002
0000
0000
0023
0000
0000
0230
0000
,
0000
0000
1300
0000
0002
0000
0000
0000
1000
0000
0000
1000
0000
0000
1003
0000
,
0200
0000
0000
0000
0310
0000
0001
0000
1000
0000
0000
0010
0000
0000
0020
0000
,
0000
0130
0002
0000
2003
0000
3100
0000
;
