#TITLE:Ahoy!! 我ら宝鐘海賊団☆;
#SUBTITLE:;
#ARTIST:宝鐘マリン;
#TITLETRANSLIT:Ahoy!! Warera Houshou Kaizokudan;
#SUBTITLETRANSLIT:;
#ARTISTTRANSLIT:Houshou Marine;
#GENRE:POP;
#CREDIT:;
#MUSIC:Ahoy!! Warera Houshou Kaizokudan.ogg;
#BANNER:Ahoy!! Warera Houshou Kaizokudan.png;
#BACKGROUND:Ahoy!! Warera Houshou Kaizokudan-bg.png;
#CDTITLE:;
#SAMPLESTART:65.641;
#SAMPLELENGTH:12.029;
#SELECTABLE:YES;
#OFFSET:0.094;
#BPMS:0.000=170.000;
#STOPS:;
#BGCHANGES:;
#FGCHANGES:;

//--------------- dance-single - ----------------
#NOTES:
     dance-single:
     :
     Medium:
     12:
     0,0,0,0,0:
0000
0000
0000
0000
,
0001
0100
0010
0000
1020
0000
0130
0000
,
1000
0100
0010
0000
0021
0000
0130
0000
,
1000
0010
0100
0000
0102
0000
0013
0000
,
0110
1100
0101
1001
,
0011
0000
0001
0010
0000
0100
1000
0000
0000
0110
0000
0000
,
1010
0000
1000
0010
0000
0100
0001
0000
0000
0110
0000
0000
,
0001
1100
1000
0101
,
0001
1010
1000
0011
,
0210
0001
0010
1000
,
0310
0000
0000
0000
,
0000
0000
0000
0000
0000
0000
0000
0001
,
2000
0000
0000
0000
0000
0000
0000
3010
,
0100
1010
0011
0110
,
1000
0010
0100
0000
0001
0010
0100
0000
,
1000
0010
0100
0000
0001
0010
0100
0000
,
1000
0010
0100
1000
0100
0001
0010
0100
,
0001
0100
1000
0001
0200
0010
0310
0000
,
0100
0001
0010
0000
0100
1000
0010
0000
,
0100
0001
0010
0000
0100
1000
0010
0000
,
0100
0001
0000
0001
0010
0000
0010
0100
0000
0100
1000
0000
0001
0000
0100
0000
,
0001
0000
0000
0010
0000
0000
0100
0000
0000
1000
0000
0000
0001
0000
0000
0000
0000
0000
0110
0000
0000
0000
1000
0000
,
0001
0000
0000
0110
0000
0001
1000
0000
0000
0020
0000
0000
,
0100
0000
0130
0001
0000
1010
0000
1000
,
0010
0001
0010
0100
0000
0100
0001
0010
,
0200
0000
0000
0001
0000
0000
1300
0000
0000
1001
0000
0010
,
0100
0000
0000
0000
0000
0000
1001
0000
0000
0000
0100
0000
0010
0000
0000
0000
0000
0000
1000
0000
0000
0010
0000
0000
,
0100
0000
0100
0001
0000
1000
0000
0001
,
0010
0100
1000
0010
0000
0100
0001
1000
,
1100
0000
0000
0101
0000
0000
1100
0000
0101
0000
0000
0000
0001
0000
0100
0000
,
0020
0000
1000
0000
0130
0001
0010
0100
,
2000
0000
0010
3010
0000
0100
0001
1000
,
0200
0000
0010
0000
1300
0001
0100
0010
,
0200
0000
0001
0301
0110
0000
0110
1000
,
0001
1000
0001
0010
0000
0100
0010
0100
,
0000
0000
1000
0010
1000
0000
0000
0000
0001
0000
0010
0000
0001
0000
0010
0000
,
0000
0100
1000
0010
0100
0002
0000
1003
,
0200
0000
0001
0000
1300
0001
0100
0001
,
1000
0100
0001
0100
1000
0010
0001
0010
,
0200
0000
1000
0000
0310
1000
0100
0020
,
0000
0001
0000
0100
0230
0000
1300
0000
,
0010
1000
0010
1000
0000
0010
0000
0100
,
0000
0001
0000
0001
1000
0000
0100
0000
,
0010
0001
0010
0001
0000
1000
0000
0001
,
0101
0000
1100
0000
,
0101
1100
1002
0000
,
2003
3200
0320
0032
,
1003
0010
0100
0000
0100
0001
0010
1000
,
0000
1000
0010
0001
0000
1000
0001
1000
,
1100
0011
0101
1010
,
0110
0000
1000
0001
0000
0001
0010
0100
,
2000
0000
0010
3010
0000
0100
0001
0010
,
1000
0001
0100
1000
0000
0010
0100
0010
,
0101
0011
1100
1010
,
0210
0000
0010
0320
0000
0100
0130
0000
,
0001
0000
0010
0100
0000
0100
1000
0001
,
0000
0001
0100
1000
0000
1000
0100
0001
,
0101
1100
0101
1100
,
1001
0000
0010
0100
0000
0000
2001
0000
,
3010
0000
0100
0001
0000
0001
0010
0100
,
2000
0000
0001
0002
3000
0000
0103
0000
,
0110
0000
1010
0000
1000
0010
0100
0001
,
0011
0000
1100
0000
0001
0010
0100
1000
,
0001
0100
0001
0100
1000
0100
1000
0100
,
0002
0023
0230
0320
,
0031
0100
0001
0000
1000
0100
1000
0000
,
0001
0100
0001
0000
1000
0100
1000
0000
,
0001
0100
0001
0100
0010
1000
0010
1000
,
0001
0000
0001
0000
1000
0000
1000
0000
0001
1000
0001
1000
0001
1000
0001
1000
,
0001
0000
0000
0001
0100
0001
0100
0000
0000
0010
1000
0010
,
1000
0000
0000
0001
0010
0001
0010
0000
0000
0100
1000
0100
,
2000
0000
0000
0000
,
3002
0000
0000
0000
2003
0000
0002
0000
0000
0000
0000
0000
,
0000
0000
0000
0000
,
0000
3003
0000
0000
;

//--------------- dance-single - ----------------
#NOTES:
     dance-single:
     :
     Hard:
     15:
     0,0,0,0,0:
0000
0000
0000
0000
,
1000
0000
0001
0010
0100
0000
1000
0000
0001
0000
0001
0000
1000
0000
1000
0000
,
0010
0000
1000
0100
0010
0000
0001
0000
0010
0000
0010
0000
0100
0000
0100
0000
,
0001
0000
0100
1000
0010
0000
0100
0000
0001
0000
0001
0000
1000
0000
1000
0000
,
0101
1100
0110
1001
,
0001
0010
0001
1000
0100
1000
0010
0000
0000
0110
0000
0000
,
1000
0010
1000
0001
0100
0001
0010
0000
0000
0110
0000
0000
,
1000
0010
1000
0001
0000
0000
0001
0010
0001
1000
0000
0000
,
1000
0100
0010
0001
0000
0000
0001
0100
0010
1000
0000
0000
,
0001
0010
0001
0010
0100
0010
0100
1000
0100
1000
0010
2000
,
0002
0000
0000
0000
,
0000
0000
0000
0000
0000
0000
0000
0000
0000
0000
0000
0000
3003
0000
1000
0100
,
2000
0000
0000
0000
0000
0000
0000
0000
0000
0000
0000
0000
0000
0000
3001
0100
,
0001
0011
0110
1001
,
1000
0000
0010
0000
0100
0000
0001
0010
0001
0000
0010
0000
0100
0000
1000
0100
,
1000
0000
0010
0000
0100
0000
0001
0100
0001
0000
1000
0000
0100
0000
0010
0001
,
1000
0200
0302
2003
3002
0203
2300
3020
,
0032
2003
3002
0023
2030
3001
1001
1000
,
0010
0000
0100
0000
0010
0000
1000
0100
0010
0000
0100
0000
0010
0000
0001
0100
,
0010
0000
0100
0000
0010
0000
1000
0100
0010
0000
0110
0000
0110
0000
0000
0000
,
0100
1000
0000
1000
0100
0000
0100
0001
0000
0001
0100
1000
0010
0000
0100
0000
,
0001
0000
0000
0000
0000
0000
1000
0000
0000
0010
0000
0000
0100
0000
0000
0000
0000
0000
0001
0000
0000
0010
0000
0000
0100
0000
0000
0000
0000
0000
0000
0000
0000
0000
0000
0000
0110
0000
0000
0000
0000
0000
0000
0000
0100
0000
0000
0000
,
1000
0000
0000
0000
0000
0000
0110
0000
0000
0000
0100
0000
0001
0000
0000
0000
0000
0000
0001
0000
0000
0100
0000
0000
,
0001
0010
0001
0100
0001
0100
0001
1000
,
0100
0001
1000
0010
0001
0100
0010
1000
,
0010
0000
0000
1000
0000
0000
0100
0000
0000
0010
0000
0000
0001
0000
0000
0100
0000
0000
0110
0000
0000
0000
0010
0000
,
1000
0000
0000
0000
0000
0000
0110
0000
0000
0000
0010
0000
0001
0000
0000
0000
0000
0000
1000
0000
0000
0100
0000
0000
,
1000
0010
1000
0001
0010
0100
1000
0010
,
1000
0001
1000
0001
0010
0100
1000
0100
,
1100
0000
0000
0101
0000
0000
1000
0000
0001
0000
0000
0000
1000
0000
1000
0000
,
0001
0100
0001
0000
0100
0000
1000
0100
1000
0000
0100
0000
0001
0010
0001
0000
,
1000
0100
1000
0000
0100
0000
0001
0100
0001
0000
0100
0010
0100
0000
1000
0000
,
0010
0000
0100
0010
0100
0000
0001
0000
1000
0100
1000
0000
0001
0010
0001
0000
,
1000
0010
1000
0000
0100
1000
0100
0000
0010
0100
0010
0000
0001
0010
0001
0010
,
0001
0010
0100
1100
0000
1000
0100
0110
,
0000
0010
1001
0000
0001
1000
0001
1000
,
0001
0010
1000
0010
0001
0010
0100
1000
,
0100
0010
0001
0010
0001
1000
0100
1000
,
0100
1000
0100
0100
0001
0100
0100
1000
,
0002
0000
0000
0000
0000
0023
0230
2300
,
0000
3002
0000
0203
0320
0000
2030
0000
,
3001
0010
0001
0200
0000
0320
0000
2030
,
0000
3200
0000
0310
0002
0000
1003
0000
,
0001
0010
0100
2000
0000
3200
0000
0310
,
0001
0000
0000
0110
0000
0000
1000
0000
0001
0000
0000
0110
0000
0000
0001
0000
,
1000
0001
1000
0001
2000
0000
0001
3000
,
1000
0100
0010
0000
0100
0010
0001
0000
0010
0001
1000
0000
1000
0000
1000
0000
,
0010
0100
1000
0100
0010
1000
0100
0010
,
0001
0010
1000
0010
0001
0010
0100
1000
,
1100
0101
1010
0011
,
0110
0000
1001
1001
0000
1000
0100
0001
,
2000
0000
0010
3010
0000
0010
0001
0100
,
1000
0100
0010
0110
0000
0010
1000
0100
,
0010
0001
0010
0100
1000
0100
1000
0010
,
0100
0000
0010
0000
0100
0000
0010
1000
0001
0000
0100
0001
1000
0000
0100
1000
,
0010
0100
0010
0001
0010
0100
0010
1000
,
0100
0010
0100
0001
0100
0010
1000
0010
,
0011
1100
0011
1100
,
1001
0000
0110
0110
0000
0000
1001
0000
,
1001
0000
1000
0001
0010
0100
1000
0100
,
0020
0000
0100
0200
0000
0330
1001
0000
,
0011
0001
0100
0010
1000
0010
0100
0001
,
1010
1000
0010
0100
0001
0010
1000
0010
,
0001
0010
0001
0010
0100
1000
0100
1000
,
0001
0010
0001
0000
0010
0100
0010
0000
0100
1000
0100
0000
0010
0100
0010
0000
,
0001
0100
1000
0100
0001
0010
1000
0010
,
0001
0100
1000
0100
0001
0010
1000
0010
,
0001
0001
1000
1000
0001
0001
1000
1000
,
0100
0000
0100
0000
0100
0000
0100
0000
0100
1000
0001
0100
0001
1000
0100
1000
,
0010
0000
0000
1000
0100
0010
0001
0000
0000
0001
0010
0100
,
1000
0000
0000
0001
0100
0010
1000
0000
0000
1000
0010
0100
,
0002
0000
0000
0003
,
1001
0000
0000
0000
0002
0000
2000
0000
0000
0000
0000
0000
,
0000
0000
0000
0000
,
0000
3003
0000
0000
;

//--------------- dance-single - ----------------
#NOTES:
     dance-single:
     :
     Challenge:
     17:
     0,0,0,0,0:
0000
0000
0000
0000
,
0001
0100
0001
0100
0010
0000
1000
0000
0001
0000
0001
0000
0010
0000
0100
0000
,
1000
0100
1000
0100
0010
0000
0001
0000
1000
0000
1000
0000
0010
0000
0100
0000
,
0001
0010
0100
1000
0010
0000
0100
0000
0001
0000
0001
0000
1000
0000
1000
0000
,
0011
1100
0110
1001
,
0001
0100
0010
1000
0100
0001
0100
0000
0000
0110
0000
0000
,
1000
0100
0010
0001
0100
1000
0100
0000
0000
0110
0000
0000
,
0001
0010
0100
1100
0000
0000
1000
0010
0100
0101
0000
0000
,
0001
0100
0010
1010
0000
0000
1000
0100
0010
0011
0000
0000
,
0001
0010
0100
0001
1000
0010
0001
0100
1000
0001
0010
2000
,
0002
0000
0000
0000
,
0000
0000
0000
0000
0000
0000
0000
0000
0000
0000
0000
0000
3003
0000
1000
0020
,
0200
0000
0000
0000
0000
0000
0000
0000
0000
0000
0000
0000
0330
0000
0100
0010
,
1001
0011
0110
1001
,
0101
0000
0011
0000
0001
0100
0001
0100
0001
0000
1001
0000
1000
0100
1000
0100
,
1000
0000
1010
0000
0010
0100
0010
0100
0010
0000
0101
0000
1010
0000
0010
1000
,
0001
0000
1001
0000
0001
1000
0001
1000
0001
0000
0011
0000
0100
0000
1001
0000
,
0001
0010
0100
1000
0001
0010
0100
1000
0001
0000
1001
0000
1001
0000
1000
0100
,
0010
0000
0001
0000
0010
0001
0100
0010
1000
0000
0001
0000
0100
0001
0010
0100
,
1000
0000
0010
0000
1000
0010
0100
0001
0010
0000
0011
0000
1100
0000
0000
0000
,
0001
0010
0001
0100
1000
0000
1000
0100
0000
0100
0001
0010
0100
1000
0100
0000
,
0100
0000
0000
0010
0000
0000
0100
0000
0000
1000
0000
0000
0010
0000
0000
0100
0000
0000
0001
0000
0000
0010
0000
0000
0000
0000
0000
0000
0000
0000
0001
0000
0100
0000
0001
0000
0100
0000
0000
0000
0000
0000
0000
0000
0100
0000
0000
0000
,
1001
0000
0000
0000
0000
0000
1001
0000
0000
0000
0100
0000
1001
0000
0000
0000
0000
0000
0001
0000
0000
0010
0000
0000
,
0100
0000
0001
0000
0100
0000
1000
0000
0001
0100
0000
0001
0100
0000
0010
0000
,
1000
0000
0100
0000
0010
0000
0001
0000
1000
0100
0000
1000
0100
0000
0001
0000
,
0100
0000
0000
0000
0000
0000
1000
0000
0000
0000
0000
0000
0010
0000
0000
0000
0000
0000
0100
0000
0000
0000
0000
0000
0001
0000
0000
1000
0000
0000
0000
0000
0000
0001
0000
0000
1000
0000
0000
0000
0000
0000
0000
0000
0010
0000
0000
0000
,
1001
0000
0000
0000
0000
0000
1001
0000
0000
0000
0010
0000
1001
0000
0000
0000
0000
0000
1000
0000
0000
0010
0000
0000
,
0100
0000
1000
0000
0100
0000
0001
0000
1000
0100
0000
1000
0100
0000
0010
0000
,
1000
0000
0010
0000
0001
0000
0100
0000
0001
0100
0000
0001
0100
0000
0010
0000
,
1010
0000
0000
0011
0000
0000
1100
0000
0101
0000
0000
0000
0010
0100
0010
0100
,
0001
0010
0100
1000
0001
1000
0100
0010
0001
1000
0001
0010
0100
1000
0001
1000
,
0100
0010
0001
1000
0001
0010
0100
1000
0001
1000
0100
0010
0001
1000
0001
0100
,
0010
1000
0001
1000
0010
0100
0001
1000
0001
0100
0010
1000
0001
1000
0010
0100
,
0001
1000
0001
0100
0010
1000
0001
1000
0010
0100
0001
1000
0010
0100
0010
0100
,
0010
0010
0010
1000
0000
1000
1000
0100
,
0000
0000
0010
0001
0010
0000
0000
0000
0001
0000
1000
0000
0001
0000
1000
0000
,
0001
0000
0001
0010
0100
0000
0010
0000
0100
1000
0010
0100
1000
0000
0100
0000
,
0001
0010
0100
1000
0100
0010
0001
0010
,
0001
0100
1000
0100
0001
0100
1000
0100
,
0002
0000
0013
0001
1000
0100
1000
0010
,
0200
0302
0000
2003
3200
0000
2300
0000
,
3001
0010
0001
0200
0000
0320
0000
2030
,
0000
3200
0000
0310
0002
0000
1003
0000
,
0101
0010
0100
1010
0000
0101
0000
0001
,
0010
0000
0000
0100
0000
0000
1000
0100
1000
0000
0000
0100
0000
0000
0010
0001
,
0010
0000
0001
0000
1000
0100
0010
0001
2000
0000
0000
0000
0001
0000
3000
0000
,
1000
0100
0010
0001
1000
0100
0010
0001
1000
0100
0010
0001
1000
0000
0001
0000
,
0010
0100
1000
0100
1000
0010
0100
0001
,
0100
1000
1000
0100
0001
0010
0100
1000
,
1100
0011
0101
1010
,
0110
0000
1001
1001
0000
0001
0100
1000
,
0002
0000
0000
0000
0010
0000
0013
0000
0000
0000
0010
1000
0100
0010
0001
0100
,
1000
0000
0100
0000
0001
0000
0011
0000
0000
0000
0001
0010
0100
0000
1000
0010
,
0100
0001
0010
1000
0001
0100
1000
0010
,
0100
0000
0010
0100
0010
0000
0010
1000
0001
0010
0001
0010
0100
1000
0100
1000
,
0010
0000
0100
0001
0010
0000
1000
0000
0001
0000
0100
1000
0010
0000
0001
0000
,
0010
0000
0100
0001
1000
0000
0100
0000
0001
0000
0100
1000
0001
0000
0010
0000
,
0011
1010
0011
1010
,
0110
0000
0000
0000
1001
0000
1001
0000
0000
0000
0000
0001
0100
0000
0000
0000
,
0110
0000
0000
0010
1000
0000
0001
0000
0010
0000
0100
1000
0001
0100
0010
1000
,
0200
0000
0000
0000
0010
0000
0020
0000
0000
0000
0330
0000
0100
1000
0001
0010
,
0110
0001
0011
0100
0010
0001
1000
0100
,
0011
0001
0100
0010
0100
0001
1000
0010
,
0011
0011
0011
0011
1100
1100
1100
1100
,
1000
0100
0010
0001
0100
0010
1000
0010
0100
0001
1000
0100
0010
0001
0100
0010
,
1000
0100
0010
0001
1000
0000
0000
0000
0001
0100
0010
1000
0001
0000
0000
0000
,
1000
0010
0100
0001
1000
0000
0000
0000
0001
0010
0100
1000
0001
0000
0000
0000
,
0011
0011
1010
1010
0101
0101
1100
1100
,
0100
1000
0001
0100
0001
1000
0100
1000
0100
0100
0100
0100
0100
0100
0100
0100
,
0100
0000
0000
1000
0100
0010
0011
0000
0000
0001
0100
0010
,
1010
0000
0000
0010
1000
0100
0110
0000
0000
0010
0001
0100
,
0220
0000
0000
0330
,
1001
0000
0000
0000
0002
0000
2000
0000
0000
0000
0000
0000
,
0000
0000
0000
0000
,
0000
3003
0000
0000
;

//--------------- dance-single - ----------------
#NOTES:
     dance-single:
     :
     Edit:
     18:
     0,0,0,0,0:
0000
0000
0000
0000
0000
0000
0000
0000
0001
0010
0100
1000
1001
0000
0000
0000
,
0001
0100
0001
0100
0010
0000
1000
0000
1010
0000
0100
0001
0010
0000
0100
0000
,
1000
0100
1000
0100
0010
0000
0001
0000
0011
0000
0100
1000
0010
0000
0100
0000
,
0010
1000
0010
1000
0001
0000
0010
0000
1100
0000
0010
0001
0100
0000
0010
0000
,
1010
0000
0000
0110
0100
0001
0011
0010
0100
1100
1000
0001
,
0101
0001
0100
0010
0100
0001
0011
0001
0010
0100
0010
0001
,
1001
1000
0010
0100
0010
1000
1010
1000
0100
0010
0100
1000
,
1001
1000
0010
0001
0010
1000
1001
0001
0010
1000
0010
0001
,
1001
1000
0100
0001
0100
1000
1001
0001
0100
1000
0100
0001
,
1001
1000
0100
0010
0001
1000
1001
0001
0010
0100
1000
0001
,
2002
0000
0000
0000
,
0000
0000
0000
0000
0000
0000
0000
0000
0000
0000
0000
0000
3003
0000
1010
0010
,
0202
0000
0000
0000
0000
0000
0000
0000
0000
0000
0000
0000
0303
0000
0011
0010
,
1100
0011
0110
1001
,
1010
0000
0000
0000
0000
0000
0101
0000
0000
0000
0000
0000
0001
0000
0000
0100
0000
0000
0010
0000
0100
0000
0001
0000
0010
0000
0000
0000
0000
0000
1100
0000
0000
0000
0000
0000
1000
0000
0000
0100
0000
0000
0010
0000
0100
0000
1000
0000
,
0010
0000
0000
0000
0000
0000
0101
0000
0000
0000
0000
0000
1000
0000
0000
0010
0000
0000
0100
0000
0001
0000
0010
0000
0100
0000
0000
0000
0000
0000
1100
0000
0000
0000
0000
0000
0101
0000
0000
0000
0000
0000
0001
0000
0100
0000
0010
0000
,
1000
0000
0000
0000
0000
0000
1010
0000
0000
0000
0000
0000
0010
0000
0000
0100
0000
0000
0001
0000
1000
0000
0100
0000
0010
0000
0000
0000
0000
0000
0011
0000
0000
0000
0000
0000
1100
0000
0000
0000
0000
0000
1000
0000
0000
0100
0000
0000
,
0010
0000
0000
0001
0000
0000
0100
0000
0000
0010
0000
0000
1000
0000
0000
0010
0000
0000
0100
0000
0000
0001
0000
0000
0010
0000
0000
0000
0000
0000
0110
0000
0000
0000
0000
0000
1001
0000
0000
0000
0000
0000
1000
0000
0100
0000
0010
0000
,
0100
0000
0000
0000
0000
0000
1100
0000
0000
0000
0000
0000
0010
0000
0000
0001
0000
0000
0100
0000
0010
0000
0100
0000
0010
0000
0000
0000
0000
0000
1010
0000
0000
0000
0000
0000
0010
0000
0000
1000
0000
0000
0100
0000
0010
0000
0100
0000
,
0010
0000
0000
0000
0000
0000
0011
0000
0000
0000
0000
0000
0001
0000
0000
0010
0000
0000
0100
0000
0010
0000
0100
0000
1000
0000
0000
0010
0000
0000
0100
0000
0000
0010
0000
0000
0100
0000
0000
0001
0000
0000
1000
0000
0000
0100
0000
0000
,
0010
0001
0000
0001
0010
0000
0010
1000
0000
1000
0001
0100
0001
0100
1000
0000
,
1000
0000
0000
0001
0000
0000
0010
0000
0000
0100
0000
0000
1000
0000
0000
0001
0000
0000
0010
0000
0000
0100
0000
0000
0000
0000
0000
0000
0000
0000
0100
0000
1000
0000
0100
0000
1000
0000
0000
0000
0000
0000
0000
0000
0001
0000
0000
0000
,
0110
0000
0000
0000
0000
0000
0000
0000
0000
0000
0000
0000
1001
0000
0000
0000
0000
0000
0000
0000
1000
0000
0000
0000
0110
0000
0000
0000
0000
0000
0001
0000
0000
0010
0000
0000
0100
0000
0000
0000
0000
0000
0100
0000
0000
0001
0000
0000
,
0100
0000
0100
1000
0010
0000
0010
0100
0010
0000
0010
1000
0001
0000
0001
0100
,
0001
0000
0001
1000
0010
0000
0010
0100
0010
0000
0010
1000
0100
0000
0100
0010
,
0100
0000
0000
0000
0000
0000
0100
0000
0000
0001
0000
0000
1000
0000
0000
0000
0000
0000
1000
0000
0000
0010
0000
0000
0001
0000
0000
0000
0000
0000
0001
0000
0000
0100
0000
0000
0010
0000
0000
0000
0000
0000
0000
0000
1000
0000
0000
0000
,
0110
0000
0000
0000
0000
0000
0000
0000
0000
0000
0000
0000
1001
0000
0000
0000
0000
0000
0000
0000
0001
0000
0000
0000
0110
0000
0000
0000
0000
0000
1000
0000
0000
0100
0000
0000
0010
0000
0000
0000
0000
0000
0010
0000
0000
1000
0000
0000
,
0010
0000
0010
0001
0100
0000
0100
1000
0100
0000
0100
0001
1000
0000
1000
0100
,
0010
0100
0001
1000
0010
0100
1000
0010
0001
1000
0100
0001
1000
0100
0010
0001
,
0011
0000
0000
0000
0000
0000
0000
0000
0000
0110
0000
0000
0000
0000
0000
0000
0000
0000
1100
0000
0000
0000
0000
0000
0101
0000
0000
0000
0000
0000
0001
0000
0010
0000
0100
0000
1000
0000
0000
0000
0000
0000
0001
0000
0000
0100
0000
0000
,
1000
0100
0010
1000
0001
0010
0100
0001
1000
0010
0100
1000
0001
0100
0010
0001
,
1000
0100
0010
1000
0001
0010
0100
0001
1000
0010
0100
1000
0001
0100
0010
0001
,
1000
0100
0010
1000
0001
0010
0100
0001
1000
0010
0100
1000
0001
0100
0010
0001
,
1000
0100
0010
1000
0001
0010
0100
0001
1000
0000
0001
0100
1000
0000
0001
0100
,
0010
0000
0010
1000
0001
0000
0011
0000
0000
0000
1100
0000
0011
0000
1100
0000
,
0000
0000
0001
1000
0110
0000
0000
0000
0110
0000
1000
0001
0010
0000
0100
0000
,
1100
0000
1000
0010
0100
0000
0010
0000
1000
0100
0010
0001
0100
0000
0110
0000
,
1010
0100
0001
0100
1010
0001
0101
1000
,
1100
0000
0100
0000
0010
0000
0001
1000
0010
0000
0100
0001
0010
0000
0100
1000
,
0020
0000
0000
0000
0130
0000
0001
0000
1000
0100
0010
0100
1000
0100
0010
0001
,
1000
1020
0000
0130
0101
0001
0110
0000
,
0101
1000
0001
1100
0000
0011
0000
0101
,
0000
0110
0000
1000
1001
0000
0110
0000
,
1010
0001
1000
0101
0000
0011
0000
0010
,
1100
0000
0000
0010
0000
0010
0000
0010
0101
0000
0000
0010
0000
0010
0000
0010
,
1100
0000
1000
0000
0010
0000
0110
0000
0100
0000
0001
0000
2001
0000
0000
0000
0000
0000
0000
0000
0000
3000
0000
0000
,
0100
1000
0010
0001
1000
0100
0001
1000
0100
0001
1000
0010
0001
0000
0100
0010
,
0100
0000
0010
1000
0001
0000
0010
0000
0110
0000
0100
1000
0010
0000
0100
0000
,
0101
0000
1000
0010
1000
0000
0001
0100
0001
0000
1000
0010
1000
0001
0100
0001
,
0101
0001
0011
0100
1100
1000
1010
0010
,
0110
0000
0000
0000
1001
0000
1001
0000
0000
0000
0101
0000
0001
0100
1000
0100
,
0001
0000
0000
0000
0011
0000
1100
0000
0000
0000
1000
0100
0001
0100
1000
0010
,
0100
0000
0010
0000
0110
0000
0110
0000
0000
0000
0001
0100
0001
0000
1000
0001
,
0010
0000
0100
0010
0100
0000
0010
0001
1000
0000
0010
0100
0010
0000
0100
0000
,
1001
0000
0001
0100
0010
0000
0010
0100
1000
0100
1000
0001
0010
0001
0010
1000
,
0100
0010
0100
1000
0001
1000
0010
0001
0010
1000
0010
0100
0001
1000
0100
0001
,
0100
1000
0100
0010
0001
0100
0010
0001
0010
1000
0100
0001
1000
0010
0100
0100
,
0001
0000
0100
0100
1000
0000
0100
0100
0001
0000
0100
0100
1000
0000
0001
0000
,
0110
0000
0100
0000
1001
0000
1001
0000
0000
0000
1000
0010
0100
0000
0001
0000
,
0110
0000
0000
0001
1000
0000
1001
0000
0000
0000
0001
0010
1000
0001
0100
1000
,
0020
0000
0000
0000
0100
0000
0200
0000
0330
0000
0110
0000
0100
0001
0010
0100
,
1100
0000
1000
0100
0001
0000
0001
0100
1000
0001
0100
0010
0100
0001
0010
1000
,
0001
0000
0001
0100
1000
0000
0001
0100
0010
0100
1000
0100
0001
0010
0100
0000
,
1100
1010
0101
0011
1010
0101
0011
1100
,
1000
0000
0100
0000
0010
0000
0001
0000
1000
0000
0010
0000
0100
0000
0001
0000
1000
0100
1000
0000
0001
0000
1000
0000
0001
0100
0001
0000
1000
0000
0100
0000
,
0010
0000
0000
0001
0000
0000
1000
0000
0100
0000
0010
0000
0001
0000
0000
1000
0000
0000
0100
0000
0000
0010
0000
0000
0001
0000
0000
0100
0000
0000
0001
0000
0100
0000
0010
0000
1000
0000
0000
0001
0000
0000
0100
0000
0000
0010
0000
0000
,
1000
0000
0000
0100
0000
0000
1000
0000
0100
0000
0010
0000
0001
0000
0000
0100
0000
0000
0010
0000
0000
1000
0000
0000
0001
0000
0000
0100
0000
0000
0001
0000
0100
0000
0010
0000
1000
0000
0000
0001
0000
0000
0010
0000
0000
0000
0000
0000
,
1100
1001
0011
1001
0101
1001
1010
1001
,
1000
0000
0000
0001
0000
0000
1000
0000
0000
0100
0000
0000
1000
0000
0000
0001
0000
0000
0100
0000
0000
0001
0000
0000
1000
0000
0100
0000
1000
0000
0001
0000
0100
0000
0001
0000
1000
0000
0100
0000
1000
0000
0001
0000
0100
0000
0001
0000
,
1000
0000
0000
1100
1100
1100
0101
0000
0000
0101
0101
0101
,
0011
0000
0000
0011
0011
0011
1010
0000
0000
0110
0110
0110
,
2002
0000
0000
3000
,
2003
0000
0000
0000
3002
0000
2000
0000
0000
0000
0000
0000
,
0000
0000
0000
0000
,
0000
3003
0000
0000
;
