#TITLE:アグレッシブガール;
#SUBTITLE:;
#ARTIST:OTMGirls feat.アグレッシブ烈子;
#TITLETRANSLIT:Aggressive Girl;
#SUBTITLETRANSLIT:;
#ARTISTTRANSLIT:OTMGirls feat. Aggretsuko;
#GENRE:ANIME;
#CREDIT:;
#MUSIC:Aggressive Girl.ogg;
#BANNER:Aggressive Girl.png;
#BACKGROUND:Aggressive Girl-bg.png;
#CDTITLE:;
#SAMPLESTART:62.474;
#SAMPLELENGTH:9.796;
#SELECTABLE:YES;
#OFFSET:-0.025;
#BPMS:0.000=196.000;
#STOPS:;
#BGCHANGES:4.000=Aggressive Girl.avi=1.000=0=0=0=StretchNoLoop====,
99999.000=-nosongbg-=1.000=0=0=0=StretchNoLoop====
;
#FGCHANGES:;

//--------------- dance-single - ----------------
#NOTES:
     dance-single:
     :
     Medium:
     14:
     0,0,0,0,0:
0000
0000
0000
0000
,
0000
0000
0000
0000
,
1000
0100
1000
0100
0010
0001
0010
0001
,
1000
0010
1000
0010
0100
0001
0100
0001
,
1000
0100
0010
0001
1000
0100
0010
0001
,
1000
0010
0100
0001
1000
0010
0200
0000
,
0301
0100
0010
1000
0001
1000
0010
0100
,
0001
0100
0010
1000
0001
0010
0100
0010
,
0001
0100
0001
0100
0010
0100
0001
0010
,
0100
1000
0001
0010
0001
1000
0020
0000
,
0130
0000
0001
1000
0000
1000
0100
0010
,
0100
0000
1000
0100
0010
0001
0100
1000
,
0100
0000
0100
0010
0000
1000
0001
0100
,
0010
0100
0001
1000
0001
1000
0100
0000
,
0010
0000
0001
1000
0000
0010
0100
0001
,
1000
0100
0010
1000
0010
0001
0100
0000
,
1000
0100
0001
1000
0001
0010
0100
1000
,
1100
0011
1100
0011
,
0001
1000
0100
0100
0001
1000
0001
0100
,
0100
1000
0010
0010
0001
1000
0010
0100
,
0001
0000
0001
0010
0000
0010
0100
0000
,
0100
1000
0001
0100
1000
0100
0001
0000
,
1000
0001
0100
0100
1000
0001
1000
0100
,
0100
0001
0010
0010
1000
0001
0010
0100
,
1000
0000
1000
0010
0000
0010
0100
0000
,
0100
0001
1000
0001
1000
0001
1000
0001
,
0010
0000
0000
0100
0000
0000
1000
0000
0001
0000
0000
0000
0100
0000
0010
0000
,
0100
0000
0010
0000
0000
1000
0000
0000
0001
0000
1000
0000
0001
0000
0010
0000
,
0100
0000
0000
1000
0000
0000
0001
0000
0100
0000
0010
0000
0100
0000
0001
0000
,
1000
0000
0100
0000
0000
0010
0000
0000
0001
0000
0100
0000
0010
0000
1000
0000
,
0010
0000
0000
0100
0000
0000
0001
0000
1000
0000
0000
0000
0001
0000
0010
0000
,
0100
0000
1000
0000
0000
0001
0000
0000
0100
0000
0010
0000
0100
0000
0001
0000
,
1000
0000
0000
0100
0000
0000
0010
0000
0001
0000
1000
0000
0001
0000
0100
0000
,
0010
0000
1000
0000
0000
0010
0000
0000
0100
0000
0001
0000
1000
0000
0001
0000
,
1000
0000
0001
0100
0001
0100
0010
1000
,
0010
1000
0001
0010
1000
0010
0001
1000
,
0000
1000
0010
0001
0010
0000
0100
0000
,
0100
0001
0010
0100
0010
0001
1000
0001
,
0000
0010
0000
0010
0100
0000
1000
0000
,
1000
0100
0001
0100
0010
0001
0010
1000
,
0000
0010
0000
0001
0100
1000
0100
0010
,
2000
3200
0320
0031
,
0101
1100
1010
0011
,
0001
1000
0010
0001
1000
0100
0001
1000
,
0000
0100
0000
0010
0001
0010
1000
0001
,
0100
0010
0001
0100
1000
0100
0001
1000
,
0000
0001
0000
1000
0100
0000
0001
0000
,
0001
0100
1000
0010
0100
0001
0010
1000
,
0000
0001
0000
0100
1000
0010
0100
0001
,
2000
3020
0230
0302
,
1003
0010
1000
0010
0100
0001
0100
0001
,
0020
0000
0230
0000
0310
0002
0000
0203
,
0000
2300
0000
3100
0002
0000
2003
0000
,
3100
0010
0100
0010
0100
2000
0000
3020
,
0000
0230
0000
0000
0302
0000
2003
0000
,
3002
0000
0203
0000
0310
2000
0000
3020
,
0000
0230
0000
0301
2000
0000
3002
0000
,
2003
0000
0000
3020
0000
0000
0230
0000
,
0000
0302
0000
0000
2003
0000
3010
0000
,
1100
1100
0101
0101
,
0011
0011
1010
1010
,
1100
0101
1100
0101
,
0011
1010
0011
1010
,
0110
0000
0100
0002
0000
0013
0200
0000
,
1300
0020
0000
0130
0002
0000
0013
0000
,
0001
0101
1000
1100
,
0001
0011
1000
1010
,
0110
0011
1010
1100
,
0101
0000
1001
0000
0010
0100
0010
0100
,
0001
0100
1000
0100
0001
0100
1000
0100
,
0001
0010
1000
0010
0001
0010
1000
0010
,
0001
0100
1000
0001
0010
1000
0001
1000
,
0010
0000
0000
0001
0000
0000
1000
0000
0100
0000
0001
0000
0010
0000
0100
0000
,
1000
0100
0001
0100
0001
0100
1000
0100
,
1000
0010
1000
0010
0001
0010
0001
0010
,
1000
0100
0001
1000
0010
0001
0100
1000
,
0001
0000
0000
0010
0000
0000
1000
0000
0100
0000
0010
0000
0002
0000
0000
0000
,
1003
0000
0010
1000
0010
0000
1000
0010
1000
0000
0001
0100
0001
0000
0100
0001
,
0100
0000
0001
0010
0001
0000
0010
0001
0010
0000
0100
1000
0100
0000
1000
0100
,
2000
0000
0000
3002
0000
0000
0023
0000
0230
0000
0000
2300
0000
0000
3002
0000
,
0203
0000
0320
2030
0000
0000
3100
0010
,
0002
0000
0103
0010
2000
0000
3100
0010
,
0200
0000
0000
2300
0000
0000
3002
0000
0000
0000
0000
0000
1003
0000
0010
0000
,
1000
0010
0100
0010
0100
0001
0010
0001
,
0020
0000
0000
2030
0000
0000
3002
0000
0000
0000
0000
0000
0000
0000
0000
0000
,
0103
1000
0001
0010
0100
1000
0010
0100
,
0001
1000
0001
1000
1001
1001
1001
0000
,
1000
0010
0100
0001
1000
0010
0100
0001
,
1000
0010
0100
0010
0110
0000
0110
0000
,
0001
0010
0100
1000
0001
0100
0010
1000
,
0100
0010
0001
1000
1001
0110
1001
0000
,
0001
0010
0001
0010
0100
1000
0100
1000
,
0010
0000
0010
0100
0000
0100
0001
0000
,
1001
0000
1001
0000
0001
1000
0001
1000
,
1010
0000
0101
0000
0100
0001
0010
0100
,
1000
0010
0001
0010
1000
0001
0010
0000
,
0100
0100
1000
1000
0001
0200
0000
0320
,
0000
2030
0000
3001
0010
1000
0020
0000
,
0031
0100
1000
0100
0010
1000
0010
0001
,
1000
0100
0010
1000
0001
0010
1000
0010
,
0100
0000
0100
1000
0000
1000
0001
0000
,
0001
0100
0000
0100
0010
0000
0110
0000
,
1000
0100
0010
1000
0010
0001
0100
1000
,
0001
0010
0001
1000
0100
0001
1000
0001
,
0100
0100
1000
1000
0100
0001
1000
0001
,
1000
1000
0100
0100
0001
0100
1000
0001
,
0100
0000
0001
0010
0000
0010
1000
0000
,
1000
0001
0000
0001
0100
1000
0001
0000
,
0001
0100
1000
0100
0001
0010
1000
0010
,
0001
0010
0100
1000
0001
0010
0100
1000
,
0002
0000
0000
0000
,
0000
0000
0000
0000
,
0000
0000
0000
0000
,
0000
0000
0000
0000
,
0000
0000
0000
0000
,
0003
0000
0000
0000
;

//--------------- dance-single - ----------------
#NOTES:
     dance-single:
     :
     Hard:
     17:
     0,0,0,0,0:
0000
0000
0000
0000
,
0000
0000
0000
0000
,
0001
0100
0001
1000
0100
1000
0001
0010
,
0001
0000
1000
0000
0010
0000
1000
0000
0010
0000
0100
0000
0001
1000
0001
1000
,
0010
0100
0001
0010
0100
1000
0010
0100
,
0001
0100
0001
0000
1000
0010
1000
0000
0001
0100
0001
0100
0010
0000
1000
0000
,
0001
0010
0001
1000
0010
1000
0001
0010
,
0001
0010
0100
1000
0100
1000
0100
0010
,
0001
0010
0001
0000
0010
0100
0010
0000
0100
1000
0100
0000
1000
0001
1000
0000
,
0001
0010
0001
0010
0100
0000
1000
0000
0001
0010
0100
1000
0001
0010
0100
1000
,
0001
0100
0010
0100
0001
1000
0100
0010
,
0100
0000
1000
0000
0001
0000
0100
0000
0001
0000
1000
0000
0010
0100
0010
0100
,
0001
1000
0100
0010
0100
1000
0001
0100
,
0010
0000
0100
0000
0001
0000
1000
0000
0001
0000
1000
0000
0001
0010
0001
0010
,
0001
0010
0100
1000
0001
0010
0100
1000
,
0001
0000
0100
0000
0010
0000
1000
0000
0001
0000
0100
0000
0010
1000
0010
1000
,
0001
0010
0100
1000
0001
0100
0010
1000
,
0010
0100
0001
0000
0010
0100
1000
0000
0010
0100
0001
0000
0010
0100
1000
0000
,
0001
0000
1000
0000
0100
0010
0100
0010
0100
0000
1000
0000
0001
1000
0001
1000
,
0001
0000
0100
0000
0001
0100
0001
0100
0001
0000
1000
0000
0010
0100
0010
0000
,
1000
0010
1000
0010
1000
0000
0001
0100
0001
0100
0001
0000
1000
0100
1000
0100
,
1000
0000
0001
0010
0001
0010
0001
0000
0010
0100
0010
0100
1000
0100
1000
0100
,
1000
0000
0001
0000
0100
0010
0100
0000
0001
0000
1000
0000
0100
0010
0100
0000
,
1000
0000
0001
0000
0100
0010
0100
0000
0001
0000
1000
0000
0001
0100
0010
0000
,
1000
0010
0100
0000
0001
0100
0010
0000
1000
0010
0100
0000
0001
0100
0001
0100
,
0010
1000
0001
1000
0001
1000
0100
0010
,
0001
0000
0000
0001
0000
0000
0001
0000
0100
0000
0000
0010
1000
0010
0100
0001
,
0100
0000
0010
0000
0000
0010
0000
0000
0010
0000
1000
0000
0001
0000
0010
0100
,
0010
0000
0000
0010
0000
0000
0010
0000
0001
0000
1000
0100
1000
0100
0010
0001
,
0010
0001
1000
0000
0000
1000
0000
0000
1000
0000
0001
0100
0001
0100
0010
1000
,
0010
0000
0000
0010
0000
0000
0010
0000
1000
0000
0000
0000
0010
1000
0010
1000
,
0001
0100
0001
0000
0000
0001
0000
0000
0001
0000
1000
0000
0001
0010
0100
1000
,
0001
0000
0000
0001
0000
0000
0001
0000
1000
0000
0001
0010
0100
0010
0001
0010
,
0100
0010
0001
0000
0000
0001
0000
0000
0001
0000
1000
0100
0010
0001
1000
0100
,
0010
0000
0000
0000
0001
0000
1000
0000
0001
1000
0001
1000
0001
1000
0001
1000
,
0001
1000
0001
0010
0100
1000
0001
0010
,
0000
0100
0010
0100
1000
0001
1000
0001
,
0100
0010
1000
0001
0100
0010
1000
0001
,
0000
1000
0000
0100
0010
0000
0001
0000
,
1000
0010
1000
0010
0100
0001
0100
0001
,
0000
1000
0000
0001
0100
0010
1000
0001
,
0020
0230
2300
3001
,
0011
1100
1010
0101
,
0001
0010
0100
1000
0001
0010
0100
1000
,
0000
0001
0000
1000
0100
0010
0100
1000
,
0001
0100
0010
0100
0001
1000
0001
1000
,
0000
0001
0000
0010
0100
0000
1000
0000
,
0001
0100
0010
1000
0001
0100
0010
1000
,
0000
0001
0000
0010
0100
0010
0001
1000
,
0002
0023
0230
2300
,
3001
0000
0100
0000
0001
0000
0100
0000
0010
0100
0010
0100
0001
1000
0001
1000
,
0001
0010
0100
0000
1000
0100
0010
0000
,
0001
1000
0010
0000
0100
0001
1000
0000
,
0010
0010
1000
1000
0100
0200
0000
0320
,
0000
0032
0000
1003
0020
0000
0230
0000
,
0301
0100
0010
0000
1000
0010
0100
0000
,
0001
0010
0100
0000
1000
0100
0010
0000
,
0011
0000
0010
0110
0000
0100
1100
0000
,
1000
1001
0000
0001
1001
0000
0010
0000
,
1000
0100
1100
0000
0001
0100
0101
0001
,
0000
0001
0011
0010
0100
1000
1100
0000
,
1000
0010
0100
0010
1000
0002
0000
2003
,
0000
3020
0000
0130
0101
0000
1100
0000
,
0110
0000
1010
1100
0000
1100
0101
0000
,
0101
0011
0000
0011
1001
0000
0110
0000
,
1001
0010
0100
0000
0110
1000
0001
0000
,
1000
0100
1000
0100
0010
0001
0010
0001
,
1000
0011
0101
1100
,
1010
0000
0000
0000
1001
0000
0000
0000
0010
0100
0010
0100
0010
0100
0010
0100
,
0020
0000
0000
0000
0000
0000
0000
0000
2030
0000
0000
0000
0000
0000
3001
0100
,
0002
0000
0000
0000
0000
0000
0000
0000
0000
0000
0000
0000
0000
0000
0013
0100
,
2000
0000
0000
0000
0000
0000
3001
0100
0020
0000
0000
0000
0000
0000
1030
0001
,
0200
0000
0000
0302
0000
0000
0023
0000
0000
0000
0100
0000
0000
0000
0000
0000
,
0000
0000
0130
1000
0100
1000
0001
0100
0002
0000
0000
0000
0000
0000
1003
0100
,
1000
0100
0020
0000
0130
1000
0020
0000
0230
0000
0301
1000
0001
0010
0100
0010
,
0001
0100
0001
1000
0010
0100
0010
1000
0002
0000
0000
2003
0000
0000
3020
0000
,
0130
0002
0000
0000
0023
0000
0000
0031
0010
0001
0010
0100
0020
0000
0000
0000
,
0031
0100
0010
0100
0001
0100
0010
0100
0001
0010
0100
0010
0001
0010
0100
0010
,
0001
0100
0010
0100
1000
0100
0010
0100
1000
0100
0001
0010
0100
1000
0001
0010
,
0200
0000
0000
2300
0000
0000
3002
0000
0023
0000
0000
0230
0000
0000
2300
0000
,
3020
0000
0000
0000
2030
0000
3002
0000
0000
0000
0000
0000
0103
0001
0100
0010
,
1000
0020
0000
0000
0000
0000
0130
0001
2000
0000
0000
0000
0000
0000
3001
0010
,
0200
0000
0000
2300
0000
0000
3002
0000
0000
0000
0000
0000
1003
0100
1000
0100
,
0010
0001
1000
0100
1000
0100
0010
0001
2000
0000
3001
0100
0010
1000
0001
1000
,
0020
0000
0000
2030
0000
0000
3002
0000
0000
0000
0000
0000
0000
0000
0000
0000
,
1003
0000
0001
0100
0001
0000
0010
0000
0100
0000
0100
0000
1000
0000
1000
0000
,
0001
0100
0001
0100
0010
0100
0010
0000
1001
0000
1001
0000
1001
0000
0000
0000
,
1000
0000
0001
0010
0001
0000
1000
0000
0001
0000
0100
0000
0001
0000
1000
0000
,
0010
0000
0100
0000
0010
0100
0010
0000
0110
0000
0000
0000
0110
0000
0000
0000
,
0001
0000
1000
0010
1000
0000
0001
0000
0010
0000
0100
0000
1000
0000
0001
0000
,
1000
0100
1000
0100
0010
0100
0010
0000
0110
0000
0110
0000
0110
0000
0100
1000
,
0010
0000
0100
0001
0010
0000
0100
0000
1000
0000
0001
0000
0010
0000
0100
0000
,
1100
0000
1000
1010
0000
0001
0101
0000
,
1001
0000
0000
0000
1001
0000
0000
0000
0001
0100
0001
0100
0010
1000
0010
1000
,
0001
0000
0100
0000
0001
0010
0001
0000
0100
0000
0010
0000
1000
0001
1000
0000
,
0100
0000
0010
0000
0001
0100
0001
0000
1000
0000
0001
0000
0010
0100
0010
0000
,
0100
1000
0100
0000
0010
0001
0010
0000
0100
1000
0100
0000
0010
0100
0010
0000
,
0001
1000
0001
1000
0010
0100
0010
0000
0100
0001
0100
0001
1000
0010
1000
0000
,
0001
0000
0100
0000
0010
1000
0100
0000
0010
0000
0001
0000
0100
0010
1000
0000
,
0010
0000
0100
0000
0001
1000
0100
0000
0010
0001
1000
0100
0010
0100
1000
0000
,
1100
0000
0100
0110
0000
0010
0011
0000
,
0001
0000
1001
0000
0000
0000
1001
0000
0001
0010
0001
0010
0100
1000
0100
1000
,
0001
0100
0010
0000
1000
0010
0100
0000
0001
0010
0100
0000
1000
0100
0010
0000
,
0100
1000
0001
0000
0010
0001
1000
0000
0100
1000
0010
0000
0100
0001
1000
0000
,
0001
0100
0001
1000
0100
1000
0001
0010
0100
1000
0100
1000
0001
0100
0001
1000
,
0010
0100
0001
0100
0001
0010
0001
1000
0010
1000
0001
0010
0100
1000
0100
0010
,
0001
0000
0101
0011
0000
0011
1010
0000
,
1010
1100
0000
1100
0110
0010
1001
0000
,
0001
0010
0100
1000
0100
1000
0100
1000
0010
0100
0001
0100
0001
0100
0001
0100
,
0010
1000
0100
0010
0100
0010
0100
0010
0001
0100
0010
0100
0010
0100
0010
1000
,
0002
0000
0000
0000
,
0000
0000
0000
0000
,
0000
0000
0000
0000
,
0000
0000
0000
0000
,
0000
0000
0000
0000
0000
0000
0000
0013
,
0100
0000
0000
0000
;

//--------------- dance-single - ----------------
#NOTES:
     dance-single:
     :
     Challenge:
     19:
     1.176809,1.537087,0.492431,0.007035,1.202938,1171,1101,70,1,0,0,1.176809,1.537087,0.492431,0.007035,1.202938,1171,1101,70,1,0,0:
0000
0000
0000
0000
,
0000
0000
0000
0000
,
1000
0000
0100
0010
0100
0000
1000
0000
0001
0100
0001
0000
1000
0000
0100
0010
,
0100
0000
1000
0100
1000
0100
0010
0100
0010
0000
0001
0000
1000
0001
0100
0001
,
0100
0000
0010
1000
0010
0000
0100
0000
0001
0000
1000
0000
0010
0000
0100
0000
,
0001
0100
0001
0100
0010
1000
0010
1000
0001
0010
0001
0010
0100
0000
1000
0000
,
0001
0010
0001
0100
0001
0010
0001
1000
0100
0010
0100
1000
0100
0010
0001
0100
,
0010
0100
0010
1000
0100
0010
0100
0010
0001
1000
0001
1000
0001
0100
0001
0100
,
0001
1000
0001
0100
0001
1000
0100
1000
0001
1000
0100
0010
0001
0010
0100
1000
,
0001
0010
0100
0010
0100
1000
0010
0100
0001
1000
0100
0010
0001
0010
0100
1000
,
0001
0001
0100
0001
1000
0010
0100
0001
,
1000
0000
0001
0000
0010
0000
0100
0000
1000
0000
0001
0000
0010
0100
0010
0100
,
1000
0001
1000
0010
0100
0001
1000
0100
,
1000
0000
0001
0000
0100
0000
0001
0000
0100
0000
0001
0000
1000
0001
1000
0001
,
1000
0100
0010
0001
1000
0100
0010
0001
,
1000
0000
0001
0000
1000
0000
0010
0000
0100
0000
0010
0000
0100
0001
0100
0001
,
1000
0001
0010
0001
0100
0001
0010
0001
,
1001
0000
0100
0010
1001
0000
0001
1000
0110
0000
0010
0100
1001
0000
1000
0001
,
0110
1000
0001
1000
0010
1000
0010
0100
0010
1000
0001
1000
0001
1000
0100
0010
,
0100
1000
0100
0010
0001
0100
0010
0100
0010
0100
0001
0010
0100
0010
0001
0100
,
0001
0010
0100
1000
0001
1000
0001
0100
0010
0100
0010
0100
0001
1000
0001
1000
,
0001
0100
0010
0100
0010
0100
0010
1000
0010
1000
0100
0010
0001
0100
0001
0100
,
0010
1000
0001
0010
0001
0010
0001
1000
0100
0010
0100
1000
0100
1000
0010
0100
,
0010
1000
0100
0010
0100
0010
0001
1000
0100
0010
0001
1000
0001
0100
0001
0100
,
0010
1000
0010
1000
0001
0010
0001
0100
0010
1000
0010
1000
0100
0010
0100
1000
,
0001
0010
0100
0110
0010
0001
1000
1001
,
0100
0000
0000
0010
0000
0000
0100
0000
0010
0000
0000
1000
0100
1000
0001
0100
,
0001
0000
1000
0000
0000
0010
0000
0000
0100
0000
0001
0000
1000
0000
0010
0100
,
0010
0000
0000
1000
0000
0000
0100
0000
0010
0000
0001
0010
0001
1000
0010
1000
,
0001
0010
0001
0000
0000
0010
0000
0000
0100
0000
1000
0100
1000
0100
0010
0001
,
0010
0000
0000
0100
0000
0000
1000
0000
0001
0000
0000
0000
1000
0001
0010
0100
,
0010
0100
1000
0000
0000
0001
0000
0000
0010
0000
0100
0000
1000
0100
0010
0001
,
1000
0000
0000
0001
0000
0000
1000
0000
0010
0000
0100
0010
0100
0001
1000
0001
,
0010
0100
0010
0000
0000
0001
0000
0000
1000
0000
0001
0010
0001
0010
0100
1000
,
0100
0000
0000
0000
1000
0000
0010
0000
0100
0010
0100
0010
0100
0010
0100
0010
,
0100
0001
1000
0010
0100
0001
1000
0001
,
0000
0001
0010
0100
1000
0100
0010
0001
,
1000
0001
1000
0010
0100
0001
1000
0001
,
0000
1000
0000
0100
0010
0000
0001
0000
,
1000
0100
1000
0100
1000
0001
1000
0001
,
0000
0100
0000
0010
1000
0100
0010
0001
,
2000
0000
3002
0000
0203
0000
0320
0030
,
1010
1100
0101
0011
,
1001
0001
0010
0100
1000
0001
0010
0100
,
0000
1000
0000
0001
0100
0010
0100
0001
,
1000
0100
0010
0100
1000
0001
1000
0001
,
0000
0100
0000
0010
1000
0000
0001
0000
,
1000
0100
0010
0100
1000
0100
0010
0001
,
0000
0100
0000
0010
0100
0010
1000
0001
,
2000
3002
0023
0230
,
1300
0000
0001
0000
1000
0000
0001
0000
0100
0010
0100
0010
1000
0001
0010
0100
,
0010
0001
0011
0100
1000
0010
1010
0100
,
0001
1000
0110
0001
1000
0010
0101
0001
,
0011
0010
1010
1000
1100
0002
0000
0023
,
0000
0230
0000
1300
1010
0100
0101
0001
,
1000
0010
0101
1000
0010
0100
0011
0100
,
1000
0001
0110
1000
0001
0010
1100
0001
,
0011
0100
1000
1100
0100
0010
0011
0001
,
1000
1001
0001
1000
1001
0100
0010
0100
,
0010
1000
1001
1000
0010
0100
0110
0001
,
1000
0010
1010
0100
0001
0100
0101
0001
,
1001
0010
0110
0100
1010
0101
0010
0011
,
0010
1010
0100
1100
1001
0001
1001
1000
,
0110
0001
0100
1010
0100
0001
0101
0010
,
0100
1010
0100
0001
1001
1000
1010
0010
,
0011
0000
0001
0000
1000
0000
0001
0000
0101
0000
0100
0000
0010
0000
0100
0010
,
0100
0000
0001
0000
1000
0000
0001
1000
0001
0000
0010
0000
0100
0000
1000
0001
,
1000
0011
1010
1100
,
0101
0000
0000
0000
1001
0000
0000
0000
0001
1000
0001
1000
0001
1000
0001
1000
,
0001
0000
0200
0000
0010
0000
0001
0000
0302
0000
0010
0000
0100
0000
1003
0100
,
2000
0000
0100
0000
0001
0000
0010
0000
0100
0000
0001
0000
0010
0000
3001
0010
,
0200
0000
0010
0000
1000
0000
1300
0100
0020
0000
0100
0000
0001
0000
0031
1000
,
0002
0000
0000
0023
0000
0000
0230
0000
1000
0000
2300
0000
0001
0000
0100
0000
,
0001
0000
3001
0100
0001
0100
0010
1000
0002
0000
0100
0000
0010
0000
1003
0100
,
1000
0100
0020
0000
0031
1000
0002
0000
0203
0000
0301
0010
0001
0100
0001
1000
,
0001
0100
0001
0010
0001
1000
0002
0000
0023
0000
0000
0230
0000
0000
2300
0000
,
3001
0200
0000
0000
0302
0000
0000
1003
0010
0100
0010
0100
0002
0000
2003
0000
,
3001
0010
0100
1000
0001
0010
0100
1000
0001
0100
0010
1000
0001
0100
0010
1000
,
0001
0010
0100
1000
0001
0010
0100
1000
0010
0100
0001
1000
0010
0100
0001
1000
,
0002
0000
0000
0023
0000
0000
0230
0000
2300
0000
0000
3002
0000
0000
0203
0000
,
0320
0000
0000
0000
2030
0000
3002
0000
1000
0000
0100
0000
1003
0001
0100
0001
,
1000
0002
1000
0000
0100
0000
0103
0001
2000
0000
0100
0000
0001
0000
3001
0100
,
0020
0000
0000
0230
0000
0000
0302
0000
1000
0000
1000
0000
1003
0001
0010
0100
,
0010
0001
0010
0100
0010
0001
0010
0100
0020
0000
0031
0100
0010
0100
0001
0100
,
0020
0000
0000
2030
0000
0000
3002
0000
0100
0000
1000
0000
0100
0000
1000
0000
,
0013
0000
0001
1000
0100
0000
0010
0000
0001
0000
0100
0000
0001
0000
1000
0000
,
0001
0100
0010
1000
0001
0010
0100
0000
1001
0000
1001
0000
1001
0000
1000
0100
,
1000
0000
0001
0100
0001
0000
0010
0000
0100
0000
1000
0000
0001
0000
0100
0000
,
0010
0000
1000
0000
0010
0100
0010
0100
1001
0000
0000
0000
1001
0000
0001
0010
,
0001
0000
0010
0100
0010
0000
0001
0000
0100
0000
0010
0000
1000
0000
0001
0000
,
1000
0100
0010
0100
1000
0001
0010
0100
0010
0000
0001
0000
0100
0010
0100
0001
,
1000
0000
0010
0100
0010
0000
1000
0000
0100
0000
1000
0000
0001
0000
0110
0000
,
0101
0000
0011
1001
0000
1001
1100
0000
,
1001
0000
0000
0000
1001
0000
0000
0000
0001
0100
0001
0100
0001
0100
0001
0100
,
0001
1000
0100
0010
0001
0010
0001
1000
0100
1000
0100
0010
0100
1000
0100
0010
,
0100
0010
0001
0100
0010
1000
0010
0100
0001
0100
0001
1000
0010
0100
0010
0100
,
0001
0010
0100
0010
0001
0010
0100
1000
0100
1000
0100
0010
0001
1000
0100
0010
,
0001
1000
0010
0100
0001
0100
0010
1000
0100
1000
0010
1000
0010
0100
0001
0010
,
0001
0010
0100
1000
0010
1000
0100
0010
0001
0100
0001
0100
0010
0100
0001
1000
,
0010
1000
0010
1000
0100
0010
0100
0010
0001
1000
0010
0100
0001
0010
0001
1000
,
1001
0001
0001
0110
0010
0010
1010
1000
,
1000
0000
0110
0000
0010
0000
1001
0000
0001
0010
0100
1000
0001
0010
0100
1000
,
0100
0010
0100
0010
0001
0010
0001
0100
0001
0010
0100
0010
0001
1000
0001
0100
,
0010
0100
0001
0010
0100
1000
0001
0010
0001
0100
0010
0100
0010
0100
0001
1000
,
0001
0100
0010
0100
0010
0100
0001
0010
0100
1000
0100
1000
0010
0100
0010
1000
,
0010
1000
0100
1000
0001
0010
0100
1000
0100
0010
0001
0010
0100
1000
0100
1000
,
1001
0100
0100
1001
0010
0010
1001
0100
,
0100
0110
1000
1000
0110
0001
1001
1000
,
0001
1000
0010
1000
0100
0010
0100
1000
0010
0100
0001
0010
0100
1000
0010
0100
,
0001
1000
0010
0100
0001
1000
0001
0100
0010
1000
0001
0010
0001
1000
0001
0010
,
0200
0000
0000
0000
,
0000
0000
0000
0000
,
0000
0000
0000
0000
,
0000
0000
0000
0000
,
0000
0000
0000
0000
0000
0000
0000
0000
0000
0000
0000
0000
0000
0000
0000
0000
0000
0000
0000
0000
0000
1300
0010
0100
,
0001
0000
0000
0000
;
