#TITLE:アドレナ;
#SUBTITLE:;
#ARTIST:YOASOBI;
#TITLETRANSLIT:Adrena;
#SUBTITLETRANSLIT:;
#ARTISTTRANSLIT:YOASOBI;
#GENRE:ANIME;
#CREDIT:;
#MUSIC:Adrena.ogg;
#BANNER:Adrena.png;
#BACKGROUND:Adrena-bg.png;
#CDTITLE:;
#SAMPLESTART:54.237;
#SAMPLELENGTH:11.294;
#SELECTABLE:YES;
#OFFSET:2.234;
#BPMS:0.000=170.000;
#STOPS:;
#LASTBEATHINT:3.437833;
#BGCHANGES:7.000=Adrena.avi=1.000=0=0=0=StretchNoLoop====,
99999.000=-nosongbg-=1.000=0=0=0=StretchNoLoop====
;
#FGCHANGES:;

//--------------- dance-single - ----------------
#NOTES:
     dance-single:
     :
     Medium:
     12:
     0.682716,0.709645,0.36591,0.321558,0.110882,431,398,33,29,0,0,0.682716,0.709645,0.36591,0.321558,0.110882,431,398,33,29,0,0:
0000
0000
0000
0000
,
0000
0000
0000
0000
,
0000
0000
0000
0000
,
0000
0000
0000
0000
,
0110
0000
0000
1001
0000
0001
0010
0100
,
0000
1000
0001
0100
0010
0100
1001
0000
,
1001
0000
0100
0001
0000
1010
0000
0101
,
0000
0001
0010
0100
1000
0001
1000
0001
,
0010
0000
0100
1000
0000
0001
0010
0100
,
0000
1000
0001
1000
0010
0100
0010
0100
,
0001
0000
1000
0100
0000
0011
0000
1100
,
0000
1000
0100
0010
0001
1000
0001
1000
,
0010
0000
0010
0100
0000
0110
0000
1001
,
0000
0001
0010
0100
1000
0020
0000
0130
,
0001
0010
0100
0010
0001
1000
0100
0010
,
0100
1000
0000
1100
0000
0101
0000
0001
,
0100
1000
0001
0010
1000
0001
0010
0100
,
1000
0000
0001
0100
0001
0000
1000
0100
1000
0000
0001
0100
0001
0000
0010
0000
,
0100
0010
0001
1000
0100
1000
0001
0100
,
0010
1000
0000
0101
0000
1100
0000
1000
,
0100
0001
1000
0010
0001
1000
0100
0010
,
0000
0110
0000
1000
0001
0100
0001
0100
,
0001
0010
1000
0010
0001
0000
1000
0010
,
0001
0010
1000
0100
0001
0000
0100
1000
,
0000
1000
0010
0100
0000
0100
0001
0010
,
0000
0010
0100
1000
0001
0000
1001
0000
,
1000
0010
0001
0010
1000
0000
0001
0010
,
1000
0010
0001
0100
1000
0000
0100
0001
,
0010
0100
1000
0001
0010
0100
1000
0020
,
0000
0230
0000
0320
0000
1030
0010
0100
,
0001
0000
0000
0001
0000
0000
1000
0000
0100
0000
0000
0100
0000
0000
0010
0000
,
0000
0000
0010
0000
0001
0000
1000
0000
0010
0000
0000
0100
0000
0000
0001
0000
,
0010
0001
0100
0001
1000
0100
0010
0100
,
0000
1100
0000
0011
0000
0001
0010
0100
,
1000
0000
0001
0100
0000
0000
0100
0000
0001
0000
1000
0100
0000
0000
0100
0000
,
1000
0001
0100
0010
0110
0000
1001
0000
,
0002
0000
0023
0000
0230
0000
2300
3020
,
0000
0230
0302
2003
3020
0230
0302
2003
,
3001
0000
0010
0100
0010
0000
0001
0000
0020
0000
0000
0000
0130
0000
1000
0001
,
1000
0010
0100
0001
1000
0000
1100
0000
,
0011
0000
0000
0000
1001
0000
0000
0001
0100
0000
0020
0000
0000
0000
1000
0000
,
0000
0130
0001
1000
0100
0100
0001
0010
,
0100
0000
0000
1000
0010
0000
0000
0100
0001
0000
0010
0000
0100
0000
1000
0000
,
0000
0001
1000
0001
2000
0100
3100
0000
,
0110
0000
0000
0100
1000
0000
0000
0001
0010
0000
0200
0000
0000
0000
1000
0000
,
0000
0310
0001
1000
0001
0100
1000
0100
,
0002
0000
1003
0100
0002
0000
1003
0020
,
0032
2003
3020
0230
0000
0301
0010
0100
,
1100
0000
0000
1000
0010
0000
0000
0100
0001
0000
0010
0000
0100
0000
1000
0000
,
0000
0001
0100
0100
0001
1000
0100
0100
,
1000
0000
0000
0001
0100
0000
0000
0010
1000
0000
0002
0000
0000
0000
0023
0000
,
0000
0130
0001
0100
0010
1000
0010
0001
,
0100
0000
0001
1000
0000
1000
0100
0010
,
0000
0100
1000
0001
0100
1000
0100
1000
,
0001
0010
1000
0001
0000
1000
0100
0001
,
0000
1000
0010
0001
0100
0010
1001
0000
,
0110
0000
0001
0010
0000
0011
0000
1100
,
0000
1000
0100
0010
0001
1000
0001
1000
,
0010
0000
0100
0001
0000
1000
0100
1000
,
0000
0001
0010
0100
1000
0001
1000
0001
,
0100
0000
0010
1000
0000
1001
0000
0110
,
0000
0100
0001
1000
0100
0010
0100
0010
,
0110
0000
0000
0000
0100
0000
0010
0000
0001
0000
1000
0010
1000
0000
0100
0000
,
0000
0010
0001
1000
0010
0100
0010
0100
,
1001
0000
0000
0000
;

//--------------- dance-single - ----------------
#NOTES:
     dance-single:
     :
     Hard:
     15:
     0.820526,0.890521,0.36591,0.255029,0.443528,518,485,33,23,0,0,0.820526,0.890521,0.36591,0.255029,0.443528,518,485,33,23,0,0:
0000
0000
0000
0000
,
0000
0000
0000
0000
,
0000
0000
0000
0000
,
0000
0000
0000
0000
,
0110
0000
0000
0000
1001
0000
0001
0000
0100
0000
0010
0000
1000
0001
1000
0000
,
0000
0000
0100
0010
0100
0000
1000
0000
0010
0000
1000
0000
0001
0100
0001
0100
,
0001
1000
0010
0100
0000
0101
0000
1100
,
0000
0001
1000
0001
0101
1000
1010
0001
,
1000
0010
0100
0010
0000
0010
1000
0001
,
0000
0010
0001
1000
1100
0001
0011
1000
,
0010
0100
0001
0010
0000
0011
0000
1010
,
0000
0001
1000
0001
0011
1000
1100
0001
,
0010
0100
1000
0001
0000
0110
0000
1001
,
0000
1000
0010
0100
0001
0020
0000
0130
,
1000
0010
0100
0010
1000
0001
0100
0010
,
0100
0001
0000
0101
0000
1010
0000
0001
,
0010
1000
0001
0100
1000
0001
0010
0100
,
1000
0000
0001
0010
0100
0000
1000
0010
0100
0000
0001
0010
0100
1000
0001
1000
,
0001
0010
0100
1000
0001
0100
1000
0100
,
0001
0010
0000
0011
0000
1100
0000
1000
,
0010
0100
1000
0001
1000
0100
0010
1010
,
0000
0000
0101
0000
0000
0000
1001
0000
0001
1000
0100
1000
0100
1000
0001
0010
,
0100
0000
0100
0010
0001
0000
1000
0000
0010
0000
0000
0000
0010
0000
1000
0010
,
0100
0000
0100
0010
1000
0000
0001
0010
2000
0000
0000
0000
3010
0000
0001
0000
,
0000
0001
1000
0010
0000
0010
0100
0001
,
0000
0001
0010
0100
0110
0000
1001
0000
,
1000
0000
0010
0100
0001
0000
0001
0010
0100
0000
0000
0000
0100
1000
0001
1000
,
0100
0000
0100
1000
0001
0000
1000
0010
0002
0000
0000
0000
0013
0000
1000
0000
,
0100
0010
1000
0001
0100
1000
0001
0200
,
0000
1300
0100
0002
0000
0013
0100
1000
,
0001
0000
0010
0100
0000
0000
0100
0000
1000
0000
0010
0100
0000
0000
0020
0000
,
0000
0000
1030
0000
0001
0000
1000
0000
0100
0000
0000
1000
0000
0000
0001
0010
,
0100
1000
0001
0100
1000
0100
0001
0010
,
0000
0000
0010
0000
0100
0000
1000
0000
0001
0010
0100
1000
0001
0010
0100
1000
,
0001
0000
0100
0010
0000
0000
0010
0000
1000
0000
0100
0010
0000
0000
0001
0000
,
1000
0010
0100
0001
1001
0000
0110
0000
,
1100
0000
0101
0000
1001
0000
2000
3020
,
0230
0302
0023
0032
0203
0320
2030
3200
,
0310
0000
0100
1000
0001
0000
0100
0000
2000
0000
0000
0000
3100
0000
0001
0010
,
1000
0010
0001
1000
0020
0000
0230
0000
,
0301
0000
0000
1000
0010
0000
0000
0100
0010
0000
1000
0000
0001
0000
0010
0000
,
0000
0000
0100
1000
0001
0000
0100
0010
1000
0000
0001
0010
0100
0000
0010
0001
,
1000
0000
0000
0010
0100
0000
0000
0001
0010
0000
0100
0000
1000
0000
0001
0100
,
0010
0100
1000
0000
0100
0000
0001
0000
0200
0000
0010
0000
0310
0000
0000
0000
,
1001
0000
0000
1000
0010
0000
0000
0100
0001
0000
0020
0000
0000
0000
0130
0000
,
1000
0000
0001
0000
0010
0000
0100
0000
1000
0000
0001
0100
0001
0000
1000
0100
,
1000
0000
0010
0000
0100
0000
0001
1000
0001
0000
0010
0000
0100
0000
1000
0010
,
0200
0000
0302
0000
2003
0000
3020
0000
0000
0000
0130
0000
0001
0010
0100
1000
,
0001
0000
0100
0010
0100
0000
0001
1000
0001
0000
0010
0000
1000
0010
0100
0010
,
0001
0000
1000
0010
0100
0000
0010
0000
1000
0000
0001
0010
0100
0000
1000
0000
,
0100
0000
0001
0100
0010
0000
0100
1000
0001
0000
2000
0000
0000
0000
3001
0000
,
0100
0000
0010
1000
0001
0000
0100
0000
0010
0000
1000
0100
0010
0000
0100
0000
,
1000
0000
0100
0010
0001
0000
0020
0000
0000
0000
0130
0000
1000
0000
0001
0000
,
0000
0001
0100
0010
0100
1000
0100
0001
,
0011
0010
0100
1100
0000
1000
0010
0110
,
0000
0000
0100
0000
0001
0000
1000
0000
0001
0010
0001
0010
2000
0000
0000
0000
,
3010
0000
0000
0000
0001
0000
1000
0010
1000
0000
0000
0110
0000
0000
0101
0000
,
0001
0010
0100
1000
0001
0100
1000
0100
,
0101
0000
0000
0000
0001
0000
0010
0100
0010
0000
0000
0011
0000
0000
1001
0000
,
0000
0000
1000
0010
0000
0100
0010
0000
1000
0000
0001
0000
0010
0100
1000
0001
,
0010
0000
0000
0000
0100
0000
1000
0001
1000
0000
0000
0110
0000
0000
1001
0000
,
0001
0000
1000
0100
1000
0000
0010
0000
0100
0000
0001
0010
0100
0000
1000
0100
,
0010
0001
1000
0010
0000
0010
0100
0001
,
0000
0001
0010
0100
1000
0001
0100
0001
,
1000
0000
0010
0100
0010
0000
0000
0000
0000
0000
0000
0000
0000
0000
0000
0000
;

//--------------- dance-single - ----------------
#NOTES:
     dance-single:
     :
     Challenge:
     17:
     1.048627,1.104246,0.332646,0.188499,1.070011,662,632,30,17,0,0,1.048627,1.104246,0.332646,0.188499,1.070011,662,632,30,17,0,0:
0000
0000
0000
0000
,
0000
0000
0000
0000
,
0000
0000
0000
0000
,
0000
0000
0000
0000
,
0110
0000
0000
0000
1001
0000
0001
1000
0100
0000
0010
0001
1000
0001
1000
0000
,
0000
0000
0010
0100
0010
0000
1000
0000
0001
0010
0100
1000
0001
0100
0001
0100
,
0001
0000
1000
0010
1000
0000
0001
0000
0010
0000
0100
1000
0100
0000
0010
0000
,
0001
0000
1000
0001
1000
0000
0010
0000
0100
0001
0100
0010
0100
0001
1000
0100
,
0001
0000
0100
1000
0100
0000
0010
0000
0001
0000
1000
0010
1000
0000
0001
0000
,
0100
0000
0001
1000
0001
0000
0010
0000
0100
1000
0100
0010
0100
1000
0001
0100
,
1000
0000
0100
0001
0100
0000
0010
0000
1000
0000
0001
0010
0001
0000
1000
0000
,
0010
0000
0100
0001
1000
0000
0100
0000
0010
0001
0010
0100
0010
0001
1000
0010
,
0001
0000
0010
1000
0010
0000
0100
0000
0001
0000
1000
0010
1000
0000
0100
0000
,
1000
0000
0001
0010
1000
0000
0010
0000
0110
0000
0000
0000
1001
0000
0001
0010
,
0100
0000
0010
0001
1000
0000
0010
0100
0001
0000
1000
0000
0100
0010
0100
0000
,
1000
0000
0001
0010
0001
0010
0100
1000
0001
0000
0100
0000
0000
0000
0100
0000
,
0001
0000
1000
0100
1000
0000
0001
0100
0001
0000
1000
0000
0001
0000
0100
0000
,
0001
0000
0010
0100
1000
0000
0010
0100
0001
0000
0010
0100
1000
0001
1000
0001
,
1000
0000
0010
0100
0010
0000
0100
0000
0001
0000
0010
0000
1000
0000
0010
0000
,
0001
0000
1000
0100
0010
0000
0001
0000
0000
0000
0001
0010
0100
0000
1000
0000
,
0001
0000
0100
1000
0100
0000
0001
0000
1000
0000
0100
0001
0100
0000
1000
0000
,
0000
0000
1100
0000
0000
0000
0101
0000
0001
0010
0100
1000
0001
1000
0100
1000
,
0001
0000
0010
0100
1000
0000
0001
0000
0110
0000
0000
0000
0110
0000
1000
0001
,
1000
0000
0001
0100
0001
0000
1000
0010
0001
0000
0000
0000
0010
0000
1010
0000
,
0000
1000
0010
0100
0000
0100
0001
1000
,
0000
0000
1000
0001
1000
0000
0100
0000
0110
0000
0000
0000
1001
0000
0000
0000
,
1000
0000
0001
0010
0100
0000
1000
0010
0100
0000
0000
0000
0001
0100
0010
0100
,
0001
0000
1000
0100
1000
0000
0001
0010
1000
0000
0000
0000
0010
0000
0001
0000
,
1000
0010
1000
0001
0100
1000
0100
0110
,
0000
0001
1000
1001
0000
1000
0010
0100
,
0001
0000
1000
0100
0000
0000
0100
0000
1000
0000
0001
0100
0000
0000
0100
0000
,
0000
0000
0010
0000
1000
0000
0001
0000
0010
0000
0000
0010
0000
0000
0100
1000
,
0001
1000
0001
0100
1000
0100
0001
0010
,
0000
0000
0010
0000
0100
0000
1000
0001
0010
0100
1000
0001
1000
0100
0010
0001
,
1000
0000
0010
0100
0010
0000
1000
0000
0001
0000
0010
0100
0010
0000
0001
0000
,
1000
0010
0100
0001
0101
0000
1100
0000
,
2000
3100
0020
0130
0002
0103
2000
3020
,
0130
2000
3200
0302
0023
0230
2300
3002
,
0013
0000
0100
1000
0001
0000
0010
0000
0100
0000
0000
0000
0100
0000
1000
0001
,
1000
0010
0100
0001
0011
0000
1100
0000
,
0001
0000
0100
0010
0100
0000
0010
1000
0100
0010
0100
1000
0010
0001
0010
1000
,
0001
0010
0100
1000
0001
0010
1000
0010
0001
1000
0100
0010
0001
1000
0010
0001
,
1000
0000
0100
0001
0010
0000
0100
1000
0010
0001
0010
0100
0010
1000
0100
0010
,
0001
1100
0010
0101
0010
1000
0001
0000
,
1000
0100
0010
0100
0001
0000
0100
1000
0010
0000
0001
0010
1000
0100
0010
0001
,
1000
0000
0001
0100
1000
0000
0100
0000
0001
0010
0100
1000
0001
0010
1000
0010
,
0001
0000
1000
0000
0100
0000
0010
0001
0100
1000
0100
0001
0010
1000
0010
0001
,
2000
0000
3020
0000
0032
0000
2003
0000
3100
0000
0001
0010
0100
0010
0100
1000
,
0001
0000
1000
0010
0100
0000
1000
0100
0001
0000
1000
0100
0010
1000
0010
0001
,
0100
0010
0001
1000
0100
0001
0010
0100
1000
0000
0001
0100
0010
1000
0100
1000
,
0001
0000
0010
0100
1000
0000
0010
0100
0001
0000
1000
0100
0010
0100
1000
0001
,
0010
0100
1000
0010
0100
0001
0010
0000
0100
1000
0010
1000
0100
0010
0001
1000
,
0010
0001
1000
0100
0001
0000
0010
0000
0100
1000
0001
0010
0100
1000
0001
1000
,
0100
0000
0100
0010
0001
0000
0001
0010
0100
1000
0010
0100
0010
0100
1000
0100
,
0001
0000
1000
0100
0010
0000
0110
0000
0000
0000
1001
0000
0001
0010
1000
0010
,
0100
1000
0001
0100
0010
0000
1000
0000
0100
0100
0100
0100
1001
0000
0000
0000
,
0110
0000
0000
0000
1001
0000
0001
0010
0100
0000
0000
1100
0000
0000
0101
0000
,
0110
0000
0010
1000
0001
0000
1000
0000
0001
0100
1000
0100
0001
0100
1000
0100
,
0010
0000
0000
0000
0110
0000
1000
0001
0010
0000
0000
0011
0000
0000
1100
0000
,
0000
0000
1000
0100
0000
0100
0010
0100
1000
0010
0100
0010
1000
0001
0010
0100
,
1000
0000
0000
0000
1001
0000
0001
0010
0100
0000
0000
1100
0000
0000
0011
0000
,
1001
0000
1000
0010
0100
0000
0001
0000
1000
0100
0001
0100
1000
0100
0001
0100
,
0010
0000
0100
1000
0001
0000
1000
0010
0001
0000
1000
0100
0010
0000
0110
0000
,
0000
0000
1000
0001
1000
0000
0001
0000
0010
0100
0010
0100
0010
0100
1000
0010
,
0001
0000
0000
0010
1000
0001
0010
0000
0000
0000
0000
0000
0000
0000
0000
0000
0000
0000
0000
0000
0000
0000
0000
0000
;
