#TITLE:Ado レコード大賞スペシャルメドレー(踊〜ギラギラ〜うっせぇわ);
#SUBTITLE:;
#ARTIST:Ado;
#TITLETRANSLIT:The Japan Record Award SPECIAL MEDLEY (Odo - Gira Gira - Usseewa);
#SUBTITLETRANSLIT:;
#ARTISTTRANSLIT:Ado;
#GENRE:POP;
#CREDIT:;
#MUSIC:Ado The Japan Record Award SPECIAL MEDLEY (Odo - Gira Gira - Usseewa).ogg;
#BANNER:Ado The Japan Record Award SPECIAL MEDLEY (Odo - Gira Gira - Usseewa).png;
#BACKGROUND:Ado The Japan Record Award SPECIAL MEDLEY (Odo - Gira Gira - Usseewa)-bg.png;
#CDTITLE:;
#SAMPLESTART:0.815;
#SAMPLELENGTH:16.172;
#SELECTABLE:YES;
#OFFSET:1.788;
#BPMS:0.000=128.000
,192.000=96.000
,348.000=178.000
;
#STOPS:;
#LASTBEATHINT:1.621333;
#BGCHANGES:3.750=Ado The Japan Record Award SPECIAL MEDLEY (Odo - Gira Gira - Usseewa).avi=1.000=0=0=0=StretchNoLoop====,
99999.000=-nosongbg-=1.000=0=0=0=StretchNoLoop====
;
#FGCHANGES:;

//--------------- dance-single - ----------------
#NOTES:
     dance-single:
     :
     Medium:
     12:
     0,0,0,0,0:
0000
0000
0000
0000
,
0000
0000
0000
0000
,
2100
0000
3002
0000
1003
0100
0000
1000
,
1100
0001
0101
0000
0001
0000
1000
0010
,
0200
0000
0320
0000
1030
0001
0000
0000
,
1000
0100
0010
0001
1000
0020
0000
0130
,
0101
0001
0011
0010
,
0110
0000
0100
1000
1001
0000
0001
0100
,
0020
0000
2030
0000
3001
0010
0000
0010
,
0100
0000
1100
0000
0001
0100
0001
0100
,
0110
1010
0110
0101
,
2001
0010
3020
0000
0130
0000
1001
0000
,
1000
0100
0001
0100
0010
0001
0000
0100
,
1000
0100
0010
1000
0001
0010
0000
0100
,
1000
0100
0001
0100
1000
0001
0000
0100
,
1000
0100
0001
0100
0010
1000
0000
0000
,
0010
1000
0100
0010
0100
1000
0000
0001
,
0100
0010
0100
0001
0010
0100
0000
1000
,
0000
0001
0100
0001
0000
1000
0100
1000
,
0000
2002
0000
3003
0001
1000
0001
0100
,
1010
0000
0000
1000
0000
0000
0001
0000
0011
0000
0000
0000
0010
0000
0100
0000
,
1100
0000
0000
1000
0000
0000
0001
0000
0101
0000
0000
0000
0001
0000
0100
0000
,
1000
0000
0000
0100
0000
0000
0001
0000
0001
0000
0000
1000
0000
0000
0100
0000
,
0010
0001
0010
0001
1000
0010
0100
0010
,
1010
0000
0010
1000
0100
0000
0010
0001
,
0100
0000
1000
0100
0001
0010
0110
0000
,
1001
0000
0000
0000
1001
0000
0001
0000
0010
0000
0000
0100
1000
0000
0001
0000
,
0100
0010
0110
0000
0001
1000
0001
1000
,
0020
0000
2030
0000
3001
0010
0000
0001
,
0101
1000
1100
0100
0010
0000
0010
0001
,
2000
0000
3002
0000
0103
0010
0000
0010
,
1000
0100
0001
0100
1000
0002
0000
0103
,
1010
0000
1000
0100
0011
0000
0001
0010
,
1100
0000
1000
0001
0110
0000
1000
0100
,
0120
0000
0032
0000
1003
0010
0000
0100
,
0101
0000
1010
0000
0010
0100
0010
0100
,
0101
0001
0011
1000
,
1010
0001
0101
1000
,
0001
0100
1000
0100
0001
0010
0100
0110
,
0000
0000
0110
0000
1000
0001
1000
0001
,
0100
0010
0010
0000
0010
1000
0000
1000
,
0001
0100
0100
0000
0010
1000
0000
0001
,
1000
0100
1000
0100
0000
0000
1000
0001
1000
0001
0000
0000
,
1000
0100
0010
0100
1000
0001
0100
0010
,
1000
0001
0001
0000
1000
0100
0000
0100
,
1000
0000
0000
0001
0000
0000
0001
0000
0000
0000
0000
0000
0001
0000
0000
0100
0000
0000
0000
0000
0000
0000
0010
0000
,
1000
0010
1000
0001
0000
0000
0010
0100
0010
0100
0000
0000
,
1000
0100
0010
0001
1000
0001
0000
0100
,
0110
0000
0000
0101
,
1100
0000
0010
0100
0001
1000
1100
0010
,
0001
0100
0001
1000
0010
0100
0110
0010
,
1001
0000
1000
0001
0100
0000
0010
1000
,
0100
0001
1000
0010
0110
0000
0100
0010
,
1001
0000
0001
0100
0010
1000
0001
0010
,
0010
0100
0100
1000
0001
1000
1001
0000
,
0110
0000
0100
0001
1000
0000
0001
0010
,
0100
0010
0001
1000
1002
0000
0103
0000
,
0120
0000
0000
0000
0000
0130
0000
0000
0001
1000
0000
0000
1100
0000
0000
0001
0000
0000
0101
0000
0000
0010
0000
0000
,
1001
0000
1000
0100
1000
0001
1010
1000
,
0010
0100
1000
0100
0101
0000
0001
0010
,
0110
0000
0100
1000
0001
0000
1000
0010
,
0002
0023
2030
3100
0110
0000
1100
0000
,
0011
0000
0001
1000
0100
1000
0101
0010
,
1000
0100
0010
0100
1000
0001
0101
0000
,
2010
0000
3001
0010
0200
0000
1300
0001
,
0200
0320
2030
3002
0023
0030
1100
0000
,
1000
0000
1000
0000
0001
0100
0001
0000
,
0010
0000
0010
0000
0100
1000
0001
0000
,
0101
0000
1100
0000
0010
1000
0100
0010
,
0110
0000
0001
0100
0110
0000
1010
0000
,
0002
0013
0200
1300
0020
0130
0002
0013
,
0200
1300
0020
0130
2000
3100
0002
1003
,
2001
0000
3001
0010
0200
0000
0310
0001
,
2000
0000
3001
0100
0020
0000
0130
0000
,
0110
0000
0000
1001
0000
0000
1000
0000
0100
0000
0000
0000
0010
0000
0000
0001
0000
1000
0000
0000
0010
0100
0000
0000
,
0110
0010
1000
0010
0001
0000
1000
0100
,
0001
0010
0100
1000
1100
0001
1001
0000
,
1100
1010
0011
0101
,
1010
0100
0011
0100
1100
0010
0101
0010
,
1001
0000
1000
0100
0020
0000
0130
1000
,
0002
0000
0103
1000
0100
0001
0010
0100
,
1001
0110
1001
0110
,
1000
0010
0001
0000
0010
1000
0100
0010
,
1002
0000
0000
0000
0000
0000
1003
0000
0000
0100
0000
0000
0010
0000
0000
0001
0000
0000
1000
0000
0010
0000
0000
0000
,
0100
0000
0000
0100
0000
0001
0000
0000
0000
0101
0000
0000
1000
0000
0000
0001
0000
0100
0010
0000
1000
0000
0000
0000
,
1001
0000
0000
0010
0000
0100
0000
0000
0000
0010
0000
0000
1000
0000
0000
0001
0000
0000
0010
0000
0100
0000
0000
0000
,
1100
0000
0000
1000
0000
0001
0000
0000
0000
0100
0000
0000
0001
0000
0000
0101
0000
0000
1010
0000
0000
0110
0000
0000
,
1001
0000
0000
1001
0000
0000
0001
0100
0001
0100
0001
0010
,
0100
0000
0000
1001
0000
0000
1000
0100
1000
0100
1000
0010
,
0100
1001
0101
1010
,
0001
0010
0001
0010
1100
0000
1001
0000
,
0001
0100
0010
0000
1000
0010
0100
0000
,
0001
0010
0100
0000
1000
0100
0010
0000
,
0001
1000
0010
0000
0100
0001
1000
0000
,
0100
0010
0001
0000
1000
0010
1000
0100
,
0010
0001
1000
0000
0010
0100
0001
0000
,
0010
0100
1000
0000
0001
0100
1000
0001
,
0010
1000
0100
0000
0010
0001
1000
0000
,
0010
0100
0010
0000
1000
0100
0100
0100
,
1001
0000
0101
0000
0001
0010
0100
1000
,
1100
0000
0101
0000
1001
0000
0001
0100
,
1000
0000
1000
0100
0010
0000
0010
1000
,
1100
1100
1001
0101
,
0001
0100
0010
0100
0001
0000
1000
0100
,
0010
0000
0011
0000
1100
0000
0000
1000
,
0100
0010
0100
1000
0010
0000
0000
0100
,
0010
0100
0010
1000
0000
1001
1001
1001
,
1000
0100
0010
0001
0020
0000
0100
0000
,
0130
1000
0001
0100
0020
0000
0130
0001
,
1000
0000
1000
0100
0000
0100
0010
0001
,
1000
0010
0001
0010
2000
0001
3001
0000
,
0001
0101
0000
0101
0000
1010
0000
1010
,
0000
1100
0000
1100
0000
0011
0000
0011
,
0001
0010
0100
1000
0001
0010
0100
1000
,
0001
0100
0010
1000
0110
0000
1001
0000
,
0001
0000
0000
0001
0100
0000
0010
0000
0100
0000
0000
0001
0010
0000
0100
0000
,
0010
0000
0000
0001
0100
0000
0010
0000
0110
0000
0000
0000
1001
0000
0000
0000
,
1000
0000
0000
1000
0100
0000
0010
0000
0100
0000
0000
1000
0010
0000
0100
0000
,
0010
0000
0000
1000
0100
0000
0010
0000
0110
0000
0000
0000
1001
0000
0000
0000
,
0001
0100
0010
0100
0001
0010
0100
0010
,
0001
0100
1000
0001
0010
0000
0110
0000
,
0010
1000
0100
0000
0010
0001
0100
0000
,
1010
1100
0101
0011
,
0001
0100
1000
0100
0001
0100
1000
0100
,
0001
1000
0100
0010
1001
0000
0000
0000
,
0100
1001
0100
1001
,
0100
1001
0101
1010
,
1000
0010
0100
1000
0001
0010
1000
0100
,
0010
0000
0100
1000
0001
0000
1001
0000
,
1020
0130
0012
0103
,
1010
0101
1001
1001
,
1000
0010
0100
0010
1000
0001
0010
0100
,
1100
0000
1000
0100
0010
0000
0011
0000
,
0001
0100
0010
0010
1000
0001
1000
1000
,
0100
0010
0001
0001
0100
1000
0100
0100
,
0001
0010
0100
1000
0001
0100
0010
0100
,
1000
0100
0001
1000
0100
0010
0001
0000
,
0100
1001
0100
1001
,
0100
1001
1001
0110
,
0002
0023
0230
2300
3020
0230
0302
1003
,
1010
0000
0000
1000
1001
0000
0000
0011
,
0000
1100
0000
1000
0001
0000
1001
0000
,
0002
0000
2003
0000
3001
1000
0100
0010
,
0001
0010
0100
0010
0001
0010
0100
1000
,
0002
0000
0203
0000
0301
0100
0010
1000
,
0002
0023
0230
1300
,
1010
0000
1001
0000
0001
0100
1000
0200
,
0000
0301
0010
0100
0010
1000
0001
0100
,
1000
0010
0100
0010
1000
0001
0010
0100
,
0010
0001
0100
0020
0000
0000
0000
0000
,
0130
1001
0100
1001
,
0100
1001
0110
0000
,
1000
0100
0010
0001
0000
0001
0100
0010
,
2000
0001
0100
3010
,
0100
1010
0100
0011
,
0100
1010
1001
0010
,
0100
0001
0010
1000
0001
0100
1000
0010
,
0100
0010
1001
0000
,
0100
1001
0100
1001
,
0100
1001
1100
0011
,
0001
0010
0100
0001
1000
0010
0001
0100
,
0010
0000
0100
0001
1000
0000
1001
0000
,
0021
0130
2010
3100
,
0011
1100
1001
1001
,
0001
0010
0100
0010
0001
1000
0010
0100
,
0101
0000
0001
0100
0010
0000
1010
0000
,
1000
0100
0010
0010
0001
1000
0001
0001
,
0100
0010
1000
1000
0100
0001
0100
0100
,
1000
0010
0100
0001
1000
0100
0010
0100
,
0001
0100
1000
0001
0100
0010
1000
0000
,
0100
1001
0100
1001
,
0100
1001
1001
0110
,
2000
3020
0230
0302
0023
0230
2300
3001
,
0011
0000
0000
0001
1001
0000
0000
1010
,
0000
0101
0000
0001
1000
0000
0001
0110
,
0000
0110
0000
0100
1001
0000
1001
0000
,
0001
0100
0010
0000
0100
0001
1000
0000
,
0100
0010
0001
0000
0100
0010
1000
0010
,
0100
0001
0010
0000
0100
1000
0010
0000
,
0100
0001
1000
0000
0001
0100
0001
0100
,
0010
1000
0001
0000
0010
0100
1000
0000
,
0001
0010
0100
0000
0010
0001
0100
1000
,
0100
0001
0010
0000
0100
1000
0010
0000
,
0100
0001
1000
0001
0010
0100
0100
0100
,
0000
1001
0000
0000
;

//--------------- dance-single - ----------------
#NOTES:
     dance-single:
     :
     Hard:
     15:
     0,0,0,0,0:
0000
0000
0000
0000
,
0000
0000
0000
0000
,
0021
0000
0230
0000
1300
0001
0000
1000
,
1100
0001
0101
1000
0001
0000
0010
0100
,
0210
0000
0000
0000
2300
0000
0000
0000
3001
0000
0101
0000
0000
0000
1000
0100
,
1000
0010
0100
0010
1000
0002
0000
0013
,
0110
0000
1000
0010
1010
0000
0001
0100
,
0101
0000
1000
0001
1001
0000
0010
0100
,
2100
0000
3002
0000
0103
0010
0000
0010
,
1000
0100
0010
0100
1000
1000
0001
0001
,
0011
0100
1010
0100
0011
0100
1010
0100
,
0120
0000
1000
0000
2030
0000
0000
0000
3001
0000
0010
0100
0010
0000
0001
0000
,
1001
0000
1000
0010
0100
0000
0001
0000
0010
0000
0210
0000
0000
0000
1300
0000
,
0010
0000
0100
0010
1000
0000
0001
0010
0100
0000
2100
0000
0000
0000
3010
0000
,
0100
0000
0001
0100
0001
0000
1000
0010
1000
0000
0002
0000
0000
0000
0013
0000
,
0100
0000
1000
0100
1000
0000
0001
0010
0001
0000
2000
0000
0000
0000
3010
0000
,
0110
0000
0100
0001
1000
0000
0100
0000
0001
0000
0200
0000
0000
0000
1300
0010
,
1000
0000
0010
0100
0010
0000
1000
0000
0001
0000
0021
0000
0000
0000
0130
0000
,
0010
0000
1000
0010
0002
0000
2003
0000
3010
0000
1000
0010
0002
0000
2003
0000
,
3100
0000
0120
0000
0000
0000
0000
0000
1030
0100
1000
0100
0010
0000
1001
0000
,
0101
0000
0001
0100
0000
0000
1010
0000
0010
0000
0100
0000
0001
0010
0001
0010
,
0100
0000
1000
0100
0000
0000
0011
0000
0010
0000
0100
0000
1000
0010
1000
0010
,
0100
0000
0001
1000
0000
0000
1100
0000
1010
0000
1000
0010
0000
0000
0101
0000
,
0001
0010
0100
1000
0001
0000
0101
0000
0011
0000
0011
0000
1100
0000
1001
0000
,
0001
0000
0100
0000
0001
1000
0001
1000
0100
0000
0010
0000
0001
1000
0001
1000
,
0010
0000
0100
0010
0100
0000
0001
1000
0001
0000
0010
0000
0100
0000
0000
0000
,
1001
0000
0000
0000
0110
0000
1000
0000
0002
0000
0000
0013
0100
0000
1000
0000
,
1010
0110
0101
0000
0001
1000
0001
0010
,
0012
0000
0023
0000
0130
1000
0000
0001
,
0101
1000
1100
0001
0100
0010
1000
0100
,
0210
0000
2300
0000
3001
0010
0100
1000
,
0001
0100
0010
0100
0010
0000
1000
0000
0001
0000
0020
0000
0000
0000
0130
0000
,
1100
0000
1000
0010
1010
0000
0001
0010
,
0011
0000
1000
0001
1001
0000
0001
1000
,
1020
0000
0230
0000
0301
0010
0000
0100
,
1100
0000
0011
0000
1010
1000
0010
0100
,
0101
0101
1100
1100
,
1010
1010
0011
0011
,
1001
0001
0100
0010
0100
1000
0100
0101
,
1001
0000
0000
0000
0110
0000
0100
0000
0001
0000
0010
0100
0010
0000
0001
0000
,
1001
0000
1000
0000
0100
0000
0001
0000
0100
0010
0100
0000
1000
0000
0100
0000
,
1001
0000
0001
0000
0200
0000
0000
0000
0310
0100
0010
0000
2000
0000
0000
0000
,
3100
0010
0100
0010
0000
0000
0001
1000
0001
1000
0000
0000
,
0010
1000
0010
1000
0100
0000
0001
0000
1000
0000
0010
0000
0001
0000
0100
0000
,
0010
0000
1000
0000
1010
0000
0010
0000
1000
0001
1000
0000
0100
0000
0012
0000
,
0000
0000
0103
0000
1010
0000
0000
0000
0100
0001
0010
0000
1000
0000
0001
0000
,
0100
0000
1000
0000
0010
0000
0002
0000
0000
1000
0000
0000
1003
0000
0100
0000
0001
0000
0020
0000
0000
0100
0000
0000
,
0130
1000
0100
1000
0001
0000
0100
0000
0010
0000
0110
0000
0000
0000
0010
0000
,
1001
0000
0000
1001
,
0110
0000
0000
0000
0000
0000
0010
0000
1000
0100
0000
1000
0000
0000
0001
0000
0000
0000
0011
0000
0000
0010
0000
0010
,
0100
0000
0000
1000
0000
0010
0000
0000
0000
0100
0000
0100
0000
0000
0001
1000
0000
0000
0110
0000
0000
0100
0000
0000
,
1010
0000
0000
0010
0000
0000
1000
0000
0100
0010
0000
0010
0001
0000
0000
1000
0000
0000
1000
0000
0010
0100
0000
0001
,
0010
0000
0000
0100
0000
0100
1000
0000
0000
0010
0000
0100
0000
0000
0100
0001
0000
0000
0001
0000
0010
0000
0000
0010
,
0100
0000
0000
0010
0000
0001
1000
0000
0000
0010
0000
0100
0000
0000
0100
0010
0000
1000
0010
0000
0000
0100
0000
0100
,
0001
0000
0000
0010
0000
0100
0000
0000
0000
0100
0000
1000
0000
0000
0010
0100
0000
0100
0001
0000
0000
1000
0000
0000
,
1001
0000
0000
0001
0000
0000
0100
0000
0000
0001
0000
0001
1000
0000
0000
0100
0000
0000
0110
0000
0010
0001
0000
0001
,
0100
0000
0100
0010
0000
0010
1000
0000
0000
1000
0000
0001
0000
0000
0010
0100
0000
0100
1000
0000
1000
0001
0000
0000
,
0021
0000
0000
0000
0000
0130
0000
0000
1000
0010
0000
0000
0100
0000
0100
0001
0000
0001
0020
0000
0100
0000
0030
0000
,
1001
0000
0000
0000
0000
0000
0001
0000
0100
0010
0000
1000
0000
0000
0010
0000
0000
0100
0001
0000
0000
0001
0000
0010
,
0100
0000
0000
1000
0000
1000
0000
0000
0000
0010
0000
0010
0000
0000
0100
0001
0000
0000
0001
0000
0010
0100
0000
0000
,
1100
0000
0000
1000
0000
0000
0010
0000
0100
0001
0000
0001
1000
0000
0000
0100
0000
0010
0100
0000
0000
0010
0000
0100
,
2000
0000
0000
3002
0000
0000
0203
0000
0000
2300
0000
3100
0000
0000
0100
0001
0000
0010
0100
0000
0110
0000
0000
1000
,
0001
0000
0000
0010
0000
0100
1000
0000
1000
0010
0000
0110
0000
0000
0100
0000
0000
0000
0001
0000
0000
1000
0000
1000
,
0100
0000
0000
1000
0000
0010
0000
0000
0000
0010
0000
0100
0000
0000
0100
0001
0000
1000
0000
0000
0000
0100
0000
0000
,
0012
0000
0000
0100
0000
0000
0013
0000
0100
1000
0000
1000
0020
0000
0000
0100
0000
0000
1030
0000
0100
0010
0000
0001
,
2000
0000
0000
3020
0000
0000
0230
0000
0000
0302
0000
1003
0000
0000
1000
0100
0000
0010
0100
0000
0001
0100
0000
1000
,
0020
0000
0000
0130
0000
0002
0000
0000
0000
0013
0000
0200
0000
0000
0000
0010
0000
0000
1300
0000
0000
0010
0000
0200
,
0000
0000
0000
0301
0000
2000
0000
0000
0000
3100
0000
0020
0000
0000
0000
1000
0000
0000
0100
0000
0000
0031
0000
0000
,
0002
0000
0000
0103
0000
0020
0000
0000
0000
1030
0000
0200
0000
0000
0000
0010
0000
0000
2300
0000
0000
3010
0000
0002
,
0000
0000
0000
0013
0000
0000
0200
0000
0000
0301
0000
0020
0000
0000
0000
0130
0000
0000
0210
0000
0000
0310
0000
0001
,
0010
0000
0000
0010
0000
0100
0010
0000
0000
0100
0000
1000
0100
0000
0000
0100
0000
0010
0100
0000
1000
0000
0000
0010
,
0000
0000
0000
0100
0000
0001
0010
0000
0000
0100
0000
2000
0000
0000
0000
3010
0000
0000
0100
0000
0000
0001
0000
0010
,
0000
0000
0000
0100
0000
0000
1000
0000
0000
0010
0000
0100
0000
0000
0000
0001
0000
0100
0000
0000
0000
1000
0000
0000
,
0100
0000
0000
0001
0000
0000
0010
0000
0000
0100
0000
1000
0000
0000
0100
0010
0000
0010
0001
0000
0001
1000
0000
0000
,
0010
0000
0100
0001
0000
0100
0001
0000
1000
0100
1000
0100
0010
0000
0000
0001
0000
0100
0000
0000
0001
1000
0000
0000
,
1010
0000
0000
0010
0000
0000
0100
0000
0001
0000
0000
0011
0000
0000
0000
0100
0000
0000
2000
0000
0000
3020
0000
0000
,
0230
0000
0000
0302
0000
0000
1003
0000
0100
0000
0000
0110
0000
0000
0010
0001
0000
0001
0000
0000
1000
0010
0000
0000
,
1010
0100
0101
0001
0011
0100
1100
1000
,
0010
0000
0100
0010
0000
0000
0010
0000
1000
0010
0000
0000
0010
0000
0100
0010
0000
0000
0010
0000
0001
0010
0000
0000
,
1001
0000
0000
0001
0000
0010
0100
0000
0100
1000
0000
1000
0020
0000
0000
0100
0000
0000
1030
0000
0100
0010
0000
0010
,
0002
0000
0000
1000
0000
0000
0103
0000
0010
0000
0000
0100
0000
0000
0000
1100
0000
0000
0110
0000
0000
0101
0000
0000
,
0011
0010
1100
0100
1010
0010
0101
0100
,
0001
0000
0100
0010
0000
1000
0001
0000
0020
0000
0000
0000
0130
0000
1000
0010
0000
0010
0100
0000
0002
0000
0000
0000
,
2003
0000
0000
3100
0000
0100
0020
0000
0000
0130
0000
0000
0100
0000
0010
0001
0000
0000
1000
0000
0010
0000
0000
0010
,
0100
0000
0000
0001
0000
1000
0000
0000
0000
0110
0000
0100
0001
0000
0000
1000
0000
0100
1000
0000
0010
0000
0000
0000
,
0110
0000
0000
0100
0000
0001
0000
0000
0000
0001
0000
1000
0100
0000
0010
0001
0000
0000
0001
0000
1000
0000
0000
0010
,
0100
0000
0000
0010
0000
1000
0000
0000
0000
0001
0000
0000
0010
0000
0000
0100
0000
0000
1100
0000
0000
0101
0000
0000
,
1001
0000
0000
1001
0000
0000
0001
0100
0001
1000
0100
1000
,
0010
0000
0000
1001
0000
0000
1000
0100
1000
0001
0100
0001
,
0010
0000
0000
1001
0000
0000
0001
1000
0001
1000
0001
1000
,
0010
0100
0010
0100
0110
0000
1001
0000
,
0001
1000
0001
0100
0001
1000
0100
1000
,
0001
0000
1000
0000
0010
0000
0100
0000
0010
0000
1000
0000
0010
0000
0100
0001
,
1000
0100
1000
0001
1000
0100
0010
0100
,
1000
0000
0001
0000
0100
0000
0010
0000
0100
0000
0001
1000
0100
0000
0010
0000
,
0001
1000
0001
0100
0001
1000
0100
1000
,
0001
0000
1000
0000
0010
0000
0100
0000
0010
0000
1000
0000
0010
0000
0100
0001
,
1000
0100
1000
0001
1000
0001
0100
0001
,
1000
0000
0100
0000
0010
0000
0100
1000
0001
0000
0100
0000
0100
0000
0100
0000
,
1001
0000
1000
0100
1000
0001
1000
0010
,
0101
0000
0000
0000
1100
0000
0000
0000
0011
0000
0000
0000
1100
0000
0100
0010
,
0100
1000
0010
0100
1000
0100
0001
0010
,
1100
0000
1010
0000
0011
0100
0100
0100
,
1000
0100
0010
0100
1000
0001
0100
0010
,
1000
0000
0000
0000
1000
0000
0001
0000
0010
0000
0000
0000
0110
0000
0100
1000
,
0010
0100
1000
0100
0001
0000
1000
0100
,
0001
0100
1000
1001
0000
0010
0100
0010
,
1001
0000
1000
0000
0100
0000
0010
0000
0100
1000
0100
0010
0001
0000
1000
0000
,
0001
0000
0100
0000
0010
0000
1000
0000
0001
0100
0010
1000
0001
0000
0010
0000
,
1100
0000
1000
1010
0000
0010
0100
0010
,
1000
0100
0010
0001
2000
0010
3010
0000
,
0001
2000
3001
2000
3010
0200
0310
0200
,
0301
0020
0031
0020
0130
2000
3100
2000
,
3001
0000
1000
0100
0010
0000
0001
0010
0100
0000
1000
0010
0100
0000
0001
0100
,
0010
0000
1000
0001
1000
0000
0100
0000
0110
0000
0000
0000
1001
0000
0000
0000
,
1010
0000
0000
1000
0010
0000
0100
0010
1000
0000
0000
0001
0010
0000
0100
0010
,
0001
0000
0000
1000
0010
0000
0100
0000
0120
0000
0000
0000
0100
0000
0000
0000
,
1030
0000
0000
1000
0100
0000
0010
0100
1000
0000
0000
0001
0100
0000
0010
0100
,
0001
0000
0000
1000
0100
0000
0010
0000
0210
0000
0000
0000
0001
0000
0000
0000
,
1300
0000
0000
0100
1000
0000
0001
0100
0010
0000
0000
0100
0001
0000
1000
0100
,
0010
0000
0000
0100
1000
0000
0001
0000
2001
0000
0000
0000
0010
0000
0000
0000
,
3001
0000
0010
0100
0010
0000
0001
0000
1000
0000
0010
0100
0010
0000
1000
0000
,
1010
0101
0011
1100
,
1000
0100
0001
0100
1000
0100
0001
0100
,
1000
0010
0100
0001
1001
0000
0000
0000
,
1000
0010
0110
0000
0001
0010
0110
0000
,
1000
0010
0110
0000
1001
0000
0110
0000
,
0001
1000
0100
1000
0001
0100
0010
1000
,
1010
0000
0000
0000
1000
0100
0010
0001
1000
0000
0010
0000
0101
0000
0000
0000
,
0001
0100
0110
0000
1000
0100
0110
0000
,
0001
0100
0110
0000
1001
0000
1001
0000
,
0002
0203
2300
3200
0302
0023
2030
3020
,
0032
0000
0003
0000
0001
0000
0010
0000
0110
0000
0100
1000
0001
0000
0100
0000
,
0010
0000
1000
0100
0010
0000
0100
0000
1000
0010
0100
0000
0010
1000
0001
1000
,
0001
0000
0010
0100
0010
0000
1000
0000
0010
0001
0010
0000
0100
1000
0100
0010
,
0001
0000
0001
0100
0010
0000
0010
1000
0001
0000
0001
0010
0100
0000
0100
1000
,
0001
0000
0001
0100
0010
0000
0010
0100
0001
0000
1000
0000
1001
0000
0000
0000
,
0100
1000
0110
0000
0100
0001
0110
0000
,
0100
1000
0110
0000
1001
0000
0110
0000
,
0002
0000
2003
0000
3020
0000
0230
0000
0320
0000
2030
0000
3001
0010
0100
1000
,
0001
0000
0000
1000
1100
0000
0000
0110
,
0000
0110
0000
0110
1001
0000
1001
0000
,
0002
0000
2003
0000
3010
0100
0000
0100
,
0000
0000
0100
0000
0001
0000
1000
0000
0100
0000
1000
0010
0100
0000
0001
0000
,
1000
0000
0001
0010
0100
0000
1000
0000
0001
0000
1000
0100
0010
0000
0002
0000
,
0000
1003
0010
0220
0000
0000
0330
0000
,
1020
0000
0000
0000
0130
0000
0001
0000
1000
0100
1000
0001
1000
0100
2000
0000
,
0000
0000
3001
0000
1000
0000
0100
0000
0010
0000
0100
1000
0100
0010
0100
0000
,
1000
0000
0010
0001
0010
0100
0010
0000
1000
0000
0100
0010
0001
0010
0100
1000
,
0001
0100
0010
2020
0000
0000
0030
0000
,
3001
1100
1000
0101
,
0001
1100
1001
0010
,
1000
0000
0100
0000
0010
0000
0001
0000
0000
0000
0001
0000
0010
0000
0100
1000
,
0001
0000
1000
0010
0100
0010
1000
0000
,
0110
1001
0110
1001
,
0110
0000
1001
0000
1001
0000
0001
1000
,
0100
0000
1000
0000
0001
0000
0100
0000
0010
0000
1000
0000
0001
0010
0001
0010
,
0100
0010
1001
1001
,
0001
1000
0110
0000
1000
0001
0110
0000
,
0001
1000
0110
0000
1001
0000
0110
0000
,
1010
1000
0100
0010
0011
0001
0100
0010
,
1010
0000
1000
0010
0100
0000
0001
0010
0100
1000
0100
0010
0001
0000
1000
0000
,
1100
0011
0101
1010
,
1000
0010
0110
0000
1001
0000
1001
0000
,
2000
3020
0032
0023
2030
3200
0302
0203
,
2300
0000
3010
0100
0001
0000
0010
0000
0100
0000
0010
0001
1000
0000
0000
0000
,
0010
0000
0100
0001
0010
0000
0100
0000
1000
0100
0010
0001
1000
0000
0001
0000
,
0100
0000
0010
0100
0001
0000
0010
0000
0001
0010
0100
1000
0001
0000
0100
0000
,
0010
0000
1000
0010
0100
0000
0100
0001
0010
0000
0010
0100
1000
0000
0010
0000
,
0100
0001
0100
0001
1000
0100
0010
0001
1000
0000
1000
0010
0100
0000
0000
0000
,
0100
0010
1001
0000
0010
0100
1001
0000
,
0100
0010
1001
0000
0110
0000
1001
0000
,
0002
0000
0203
0000
0320
0000
2030
0000
3200
0000
0320
0000
0031
0000
1000
0010
,
0100
0000
0000
0001
0101
0000
0000
0011
,
0000
1100
0000
1000
0001
0000
0001
0100
,
0000
0110
0000
0110
1001
0000
1001
0000
,
1000
0001
1000
0100
1000
0001
0100
0001
,
1000
0000
0001
0000
0010
0000
0100
0000
0010
0000
0001
0000
0010
0000
0100
1000
,
0001
0100
0001
1000
0001
0100
0010
0100
,
0001
0010
0100
0000
0010
0100
1000
0000
0001
0010
0100
1000
0001
0000
0100
0000
,
0001
1000
0001
0100
0001
1000
0100
1000
,
0001
0000
1000
0000
0010
0000
0100
0000
0010
0000
1000
0000
0010
0000
0100
0001
,
1000
0000
0100
0000
1000
0100
0010
0001
1000
0000
0010
0100
0010
0000
1000
0000
,
0001
0010
0100
1000
0010
0100
0001
1000
0200
0000
0010
0000
0010
0000
0310
0000
,
0000
1001
0000
0000
;

//--------------- dance-single - ----------------
#NOTES:
     dance-single:
     :
     Challenge:
     17:
     0.887711,0.964984,0.708584,0.341969,0.759417,2017,1787,230,111,0,0,0.887711,0.964984,0.708584,0.341969,0.759417,2017,1787,230,111,0,0:
0000
0000
0000
0000
,
0000
0000
0000
0000
,
0120
0000
2030
0000
3001
0010
0000
2100
,
3010
0102
0013
0100
1000
0001
0100
0010
,
2010
0000
0000
0001
0000
0000
3200
0000
0000
0000
0000
0000
0310
0000
0000
0011
0000
0000
0000
0000
0000
0001
0010
0100
,
1000
0010
0100
1000
0100
0002
0000
1003
,
1010
0100
0001
0010
0011
0100
1000
0010
,
0110
1000
0001
0100
0110
0000
0100
0001
,
0021
0000
0230
0000
0310
0001
1000
0010
,
0101
0010
1100
0010
0001
0001
1000
1000
,
1010
0010
0011
0001
0101
0100
1100
1000
,
2001
0000
0000
0010
0000
0000
3020
0000
0000
0000
0000
0000
1030
0000
0000
0100
0010
0100
0010
0000
0000
0001
0000
0000
,
1100
0000
1000
0100
0010
0000
0010
0100
1000
0000
1001
0000
0001
1000
0100
0010
,
0001
0000
0001
0100
0010
0000
0010
0100
0001
0000
0011
0000
0010
0100
1000
0001
,
0010
0000
0100
1000
0010
0000
0010
1000
0100
0000
0010
0001
1000
0001
1000
0000
,
0010
0000
0100
0001
0010
0000
0010
0001
0100
0000
0001
0100
0010
1000
0001
0000
,
0011
0000
0001
0010
0100
0000
0010
0000
0101
0000
1010
0000
1000
0010
0100
0010
,
0001
0000
1000
0100
0010
0000
1000
0000
0100
0000
0110
0000
0010
0001
0100
0010
,
1000
0000
1000
0100
0020
0000
0001
0000
1030
0000
1000
0010
0002
0000
1000
0000
,
0103
0000
0010
0000
0110
0000
0000
0000
0001
0100
0001
0100
0010
0000
0110
0000
,
1001
0000
1000
0010
0000
0100
0010
0000
0101
0000
0001
0010
0100
0010
0001
0010
,
0100
0000
0100
1000
0000
0001
1000
0000
0001
0000
0100
0010
1000
0010
0100
0010
,
1000
0000
1000
0100
0000
0100
1000
0000
1001
0000
0001
0100
0000
0100
0001
0000
,
0010
0100
1000
0010
0100
0010
0100
0001
1000
0000
1100
0000
0011
0000
0110
0000
,
1001
0000
1000
0010
0100
0010
1000
0100
0020
0000
0031
0100
0010
0100
0001
1000
,
0200
0000
0310
0001
1000
0000
0010
1000
0100
0000
0010
0000
0110
0000
0000
0000
,
1001
0000
1000
0010
0100
0000
0001
0100
0020
0000
0000
1000
2030
0000
3100
0000
,
0011
0000
0110
0000
0100
1000
0100
1000
0001
0100
0001
0100
0001
0010
0100
1000
,
0002
0000
0203
0000
0310
1000
0100
2100
,
3010
0102
0013
0100
1000
0001
1000
0010
,
0210
0000
0000
0001
0000
0000
0302
0000
0000
0000
0000
0000
1003
0000
0000
0100
0000
0000
0010
0000
0000
0001
0100
0001
,
0100
0010
1000
0100
0010
0000
0100
0000
1000
0000
0002
0000
0000
0000
0103
0000
,
0110
0010
1000
0001
0110
0100
1000
0001
,
0110
0010
1000
0100
1001
0000
0001
0010
,
2100
0001
3002
0000
1003
0010
0010
0100
,
0101
0001
0011
0010
1010
1000
1100
0100
,
0101
0001
1001
1000
,
1100
0001
0011
1000
,
1010
0000
1000
0000
0100
0000
0010
0000
0100
0000
1000
0000
0001
0000
0100
0010
,
0100
0000
0000
0000
0010
0000
0000
0000
1000
0000
0000
0000
0010
0000
0000
0000
0000
0000
1000
0000
0000
0000
0000
0000
0100
0000
0000
0010
0000
0000
0001
0000
1000
0000
0100
0000
0010
0000
0000
0000
0000
0000
0011
0000
0000
0000
0000
0000
,
1100
0000
1000
0100
0001
0000
0100
0000
1000
0100
0010
0100
1000
0000
0010
0000
,
1001
0000
0001
0100
1000
0000
0100
0000
0001
0100
0010
0100
0001
0000
0010
0000
,
0001
0000
0010
0000
0100
0000
1100
0000
0000
0001
0000
0000
1000
0000
0010
0000
0100
0000
0101
0000
0000
1000
0000
0000
,
0001
0100
0001
0100
0010
0000
0001
0000
0010
0000
1000
0000
0100
0010
0100
0010
,
0001
0000
1000
0010
0001
0000
0010
0000
1000
0010
0100
0010
1000
0000
0100
0000
,
0010
0000
0000
0000
0000
0000
0001
0000
0000
0010
0000
0000
1000
0000
0000
0000
0000
0000
0010
0000
0000
0000
0000
0000
0001
0000
0000
0010
0000
0000
0100
0000
0000
0010
0000
0000
0001
0000
0000
0000
0000
0000
0000
0000
0010
0000
0000
0000
,
0001
0000
0100
0000
0010
0000
0110
0000
0000
0000
0000
0000
0010
0000
1000
0000
0100
0000
0110
0000
0000
1001
0000
0000
,
0001
0000
0000
0100
0000
0000
0010
0000
0000
0100
0000
0000
0001
0000
0000
0000
0000
0000
1000
0000
0000
0000
0000
0000
0001
0000
0000
0000
0000
0000
1000
0000
0100
0000
0010
0000
0001
0000
0000
0000
0000
0000
0010
0000
0000
0000
0000
0000
,
0110
0000
0000
0000
0000
0000
0000
0000
0000
0000
0000
0000
0000
0000
0000
1000
0100
0010
0001
0000
0001
0100
0000
0000
,
0110
0000
0000
0000
0000
0000
0010
0000
1000
0100
0000
1000
0001
0000
0010
0100
0000
0000
1100
0000
0000
1000
0000
0010
,
0100
0000
0000
0100
0000
0001
0000
0000
0000
1000
0000
1000
0100
0000
0100
0010
0000
0000
0110
0000
0100
1000
0000
1000
,
0001
0000
0100
0010
0000
0000
1000
0000
0010
0001
0000
0010
0100
0000
0010
1000
0000
0000
1000
0000
0100
0010
0000
0001
,
1000
0000
0000
1000
0000
0010
0100
0000
0100
0010
0000
1000
0000
0000
0001
0010
0000
0100
0010
0000
1000
0010
0000
0001
,
1000
0000
0000
0010
0000
0100
0010
0000
0000
1000
0000
0001
0100
0000
0001
0010
0000
0010
0100
0000
0000
0110
0000
0010
,
0001
0000
0000
1000
0000
0001
0100
0000
0000
1000
0000
0100
0010
0000
0000
1000
0000
0100
0010
0001
0010
0100
1000
0001
,
0010
0000
0000
0100
0000
0100
1000
0000
0000
1001
0000
0001
0100
0000
0100
0010
0000
0000
1010
0000
1000
0100
0000
0100
,
0001
0000
0001
1000
0000
1000
0010
0000
0000
0011
0000
0001
0100
0000
0100
1000
0000
0100
0001
0000
0010
0100
0000
0000
,
2100
0000
0000
0000
0000
3100
0000
0000
1000
0010
0000
0000
0110
0000
0100
0001
0100
0001
1000
0000
0100
0010
0000
0001
,
1000
0000
0000
0010
0000
0010
0100
0000
0100
0001
0000
1000
0100
0000
0000
0001
0000
0100
0010
0000
0000
0001
0000
1000
,
0010
0000
0000
0100
0000
0001
0000
0000
0010
0100
0000
1000
0010
0000
0000
1000
0000
0001
0100
0000
0100
0010
0000
0000
,
0110
0000
0000
0100
0000
0000
0001
0000
0010
0100
0000
1000
0001
0000
0000
0100
0000
0010
1000
0000
1000
0010
0000
0100
,
0002
0000
0000
0023
0000
0000
0230
0000
0000
2300
0000
3100
0000
0000
0010
0100
0000
1000
0001
0000
0101
0000
0000
1000
,
0010
0000
0000
0010
0000
0100
0001
0000
0001
0010
0000
0110
0000
0000
0100
1000
0000
0000
1010
0000
0000
0010
0000
0100
,
0001
0000
0000
0010
0000
0100
0000
0000
1000
0010
0000
0001
0000
0000
0010
0100
0000
0100
0001
0000
0001
0010
0000
0000
,
2100
0000
0000
0010
0000
0000
3001
0000
0001
0010
0000
0100
2000
0000
0000
0010
0000
0000
3010
0000
0100
0001
0000
1000
,
0020
0000
0000
0230
0000
0000
0302
0000
0000
0013
0000
1000
0010
0000
0010
0001
0000
0001
0010
0100
1000
0010
0000
0100
,
0002
0000
0000
0013
0000
0020
0000
0000
0000
0130
0000
0200
0000
0000
0000
1300
0000
0000
0020
0000
0000
0130
0000
0200
,
0000
0000
0000
0301
0000
0002
0000
0000
0000
0013
0000
0020
0000
0000
0000
0130
0000
0000
1000
0000
0000
0001
0000
0000
,
0101
0000
0000
0100
0000
0200
0000
0000
0000
0310
0000
0020
0000
0000
0000
1030
0000
0000
0200
0000
0000
0301
0000
0002
,
0000
0000
0000
0103
0000
0000
2000
0000
0000
3010
0000
0020
0000
0000
0000
1030
0100
1000
0020
0000
0000
0130
0000
0100
,
0002
0000
0000
0013
0000
0010
0200
0000
0000
1300
0000
1000
0020
0000
0000
0130
0000
0100
0002
0000
0013
0000
0000
0010
,
0100
0000
0000
0100
0000
1000
0001
0000
0000
0001
0000
0100
0000
0000
0010
1000
0000
0000
0100
0000
0000
1000
0000
0010
,
0000
0000
0010
0100
0000
0000
0001
0000
0000
0010
0000
0100
0000
0000
0100
1000
0000
0010
0000
0000
0010
0100
0000
0001
,
1000
0000
0000
0100
0000
0000
0010
0000
0000
0001
0000
1000
0000
0000
0100
0010
0100
0010
0001
0000
1000
0010
0000
0000
,
0100
0000
0100
0001
0000
0001
1000
0000
1000
0100
0010
0100
0001
0000
0000
0100
0000
1000
0000
0000
0010
0100
0000
0000
,
1001
0000
0000
0010
0000
0000
1000
0000
0010
0100
0000
0101
0000
0000
0001
0010
0000
0000
0100
0000
0000
0001
0000
0100
,
0010
0000
0000
0000
0000
0000
0001
0000
0000
0000
0000
0000
1000
0000
0000
0000
0010
0000
0000
0000
0000
0000
0110
0000
0000
0000
0000
0000
0100
0000
0001
0000
0000
0000
0010
0000
0000
0000
0000
0000
0010
0000
0100
0000
0000
1000
0100
0010
,
0001
0000
0000
1000
0000
0000
0110
0000
0000
0001
0000
0010
0100
0000
0100
0010
0000
0000
1100
0000
0000
1000
0000
0000
,
0110
0000
0100
0001
0000
0000
0011
0000
0010
0100
0000
0000
1100
0000
1000
0010
0000
0000
0110
0000
0100
0010
0000
0000
,
1001
0000
0000
0001
0000
0010
1000
0000
0010
0100
0000
1000
0020
0000
0000
0001
0000
0000
0130
0000
0001
0010
0000
0010
,
0200
0000
0000
1000
0000
0000
0010
0000
0301
0000
0000
1000
0010
0000
0010
0100
0000
0000
1010
0000
0000
0110
0000
0000
,
1001
0000
0000
0100
0000
0000
0110
0000
0000
1000
0000
0001
0100
0000
0100
0010
0000
0000
0101
0000
0000
0010
0000
0000
,
1100
0000
1000
0010
0000
0100
0001
0000
0011
0000
0000
0000
0110
0000
0100
1000
0000
1000
0010
0000
0110
0000
0000
0100
,
0002
0000
0000
0013
0000
0010
2000
0000
0000
3001
0000
0100
0010
0000
0010
0001
0000
0001
1000
0000
1000
0010
0000
0010
,
0100
0000
0000
0000
0000
0000
0000
0000
0000
0001
0000
0000
0010
0000
0000
0001
0000
0000
0010
0000
0000
0001
0000
0000
0010
0000
0000
0000
0000
0000
0000
0000
0000
0000
0000
0000
0110
0000
0000
0000
0000
0000
0000
0000
0100
0000
0000
0000
1000
0000
0000
0000
0000
0000
0000
0000
0000
0000
0000
0000
1001
0000
0000
0000
0000
0000
0000
0000
0001
0000
0000
0000
0100
0000
0000
0000
0000
0000
0000
0000
0010
0000
0000
0000
0000
0000
0000
0000
0000
0000
0000
0000
0000
0000
0000
0000
,
1001
0000
0000
0010
0000
1010
0000
0000
1000
0100
0000
0100
0010
0001
1000
0100
0000
0000
0110
0000
0001
0100
0000
0010
,
1000
0000
0000
1000
0000
0001
0100
0000
0001
0010
0000
0100
1000
0000
0000
1010
0000
0000
0110
0000
0000
1001
0000
0000
,
0101
0000
0000
0101
0000
0000
1000
0100
1000
0010
0100
0010
,
1000
0000
0000
1100
0000
0000
0001
0100
0001
0010
0100
0010
,
0001
0000
0000
0101
0000
0000
0001
0100
0001
1000
0100
1000
,
0010
0010
0100
0100
0101
0000
1010
0000
,
0102
0103
0010
1000
1200
0310
0001
1000
,
1020
0130
0001
0010
0012
0103
0010
1000
,
0120
1030
0001
0010
2100
3010
0100
0010
,
0102
0000
0013
0000
0100
0000
1000
0000
0001
0100
0001
0100
0010
0000
0100
0000
,
1020
0130
0001
1000
0021
0130
1000
0001
,
1020
0130
0001
1000
0021
0130
1000
0001
,
0120
1030
0001
0010
2100
3001
1000
0010
,
0102
0000
0013
0000
0100
0000
1000
0001
0010
0000
0100
0000
0100
0000
0100
0000
,
1001
0000
0001
0100
0001
0010
0001
0010
,
1100
0000
0000
1000
0000
0000
1001
0000
0000
0001
0000
0000
0101
0000
0000
0000
0000
0000
1010
0000
0000
0010
0100
0010
,
0100
0001
0010
1000
0001
0100
1000
0010
,
1010
1000
1001
0001
0010
0100
0100
0100
,
1000
0010
0100
0010
1000
0001
0010
0100
,
0001
0000
0100
0000
1000
0000
0001
0000
0100
0000
0000
0000
0110
0000
0010
0100
,
0001
0010
0100
1000
0001
0000
1000
0010
,
1000
0010
0100
0101
0000
0110
0110
0110
,
1000
0000
0100
0000
0010
0000
0001
0000
0010
0100
1000
0001
0010
0000
0110
0000
,
0100
0000
1000
0000
0001
0000
0100
0000
0010
1000
0001
0100
0010
0000
1000
0000
,
0100
0001
0100
0001
0100
1000
0010
0001
,
1000
0100
0010
1000
0001
0011
0011
0000
,
0001
1100
0001
1100
0010
0101
0010
0101
,
1000
0011
1000
0011
0100
1010
0100
1010
,
0001
0010
0100
1000
0001
0010
0100
1000
0001
1000
0010
0100
0001
1000
0010
0100
,
0001
0000
0010
0100
0010
0000
0100
0000
1100
0000
0010
0000
1001
0000
0000
0000
,
0010
0000
0000
0100
0010
0000
1000
0100
0010
0000
0000
0010
0001
0000
0010
0001
,
1000
0000
0000
1000
0010
0000
0100
0000
0110
0000
0010
1000
0100
0000
0100
1000
,
0001
0000
0000
0001
0010
0000
0001
0010
0100
0000
0000
0100
1000
0000
0100
1000
,
0001
0000
0000
0001
0100
0000
0001
0100
0010
0000
0010
1000
0100
0010
0001
0010
,
0100
0000
0000
0100
1000
0000
1010
0000
0101
0000
0000
0001
0010
0000
0110
0000
,
1100
0000
0000
1000
0010
0000
1010
0000
0101
0000
0001
0100
0001
0100
0001
0100
,
1000
0000
0100
0000
0001
0010
0001
0010
1000
0000
0010
0000
0001
1000
0001
1000
,
0010
0110
0101
1010
,
0001
0100
1000
0100
0001
0100
1000
0100
,
0001
0000
1000
0000
0100
0000
0010
0000
1001
0000
0010
0100
0010
0000
0000
0000
,
0100
0001
1010
0001
0100
0001
1010
0001
,
0100
0001
1010
0100
0110
0000
0110
1000
,
0001
0010
0100
1000
0001
0100
1000
0100
,
0101
0000
0000
0000
0001
0010
0100
1000
0010
0000
0100
0001
1000
0000
0100
0000
,
0010
0001
0011
0010
0001
1000
1010
0010
,
1000
0001
0011
0010
0110
0000
1001
0000
,
2000
3020
0230
0302
0023
0230
2300
3010
,
0110
0000
1000
0000
0110
0000
0001
0000
0110
0000
1000
0010
0100
0000
0001
0000
,
0010
0100
1000
0100
1000
0001
0100
0010
1000
0010
0100
0001
0010
0100
0010
0001
,
1000
0100
1000
0001
1000
0010
1000
0100
1000
0001
0100
0001
1000
0001
0010
0001
,
1000
0010
1000
0010
0100
0010
0100
0010
0001
0010
0001
0010
0100
0010
0100
0010
,
1000
0100
1000
0100
0010
0100
0010
0100
0001
0000
0001
0100
1000
0000
0000
0000
,
0100
1000
0011
1000
0100
1000
0011
1000
,
0100
1000
0011
0100
1001
0000
0100
0000
,
0002
0000
0203
0000
0302
0000
0023
0000
0032
0000
2003
0000
3010
0100
0001
0010
,
1000
0000
0000
0010
0011
0000
0000
1010
,
0000
0110
0000
0110
1001
0000
1001
0000
,
0002
0000
0000
0000
2003
0000
0000
0000
3001
0000
1000
0100
0010
0000
0100
0010
,
0001
0000
0010
0000
0100
0000
0010
0000
0001
0000
1000
0010
0100
0000
1000
0000
,
0001
0000
1000
0100
0010
0000
1000
0000
0001
0000
0010
0100
0010
0000
0002
0000
,
1000
0000
1003
0100
0010
0000
0010
0001
1000
0010
1000
0010
0100
0000
0001
0000
,
0021
0000
0000
0000
0031
0000
1000
0000
0001
0100
0001
0010
0001
0100
0020
0000
,
0000
0000
0000
0000
0000
0000
1030
0000
0000
0000
0000
0000
0010
0000
0000
0000
0000
0000
0100
0000
0000
0000
0000
0000
0010
0000
0000
0000
0000
0000
1000
0000
0100
0000
0010
0000
0001
0000
0000
0100
0000
0000
0010
0000
0000
0000
0000
0000
,
0100
0001
0100
0010
0100
0001
0100
0010
1000
0100
0010
0100
1000
0100
0010
0100
,
1000
0100
0010
0001
1000
0010
1000
0010
0100
0001
0100
0001
1000
0010
1000
0010
,
0100
1001
0100
1001
,
0100
1001
0110
0010
,
1000
0000
0100
0000
0010
0000
0001
0000
0000
0000
0001
0000
0010
0000
0100
1000
,
0100
0000
0000
0000
1000
0010
0100
0010
0100
0001
0010
0100
2000
0000
0000
0000
,
3001
1000
0110
0001
1000
0001
0110
1000
,
0001
0000
1000
0000
0110
0000
0010
0000
1000
0100
1000
0100
0010
0000
0010
0001
,
0100
0010
0100
0010
1000
0001
0010
0100
0010
0100
1000
0001
0100
0010
0100
0010
,
1000
0001
1001
1001
,
0001
0010
1100
0010
0001
0010
1100
0010
,
0001
0010
1100
0010
1001
0000
0001
0100
,
0110
0010
1000
0100
1100
1000
0001
0010
,
0011
0000
0100
0000
1000
0100
0010
0001
0010
0100
1000
0010
0100
0000
0010
1000
,
0001
0010
1100
1000
0010
1000
0101
0001
,
1000
0010
0110
0100
1001
0000
1001
0000
,
0002
0023
0230
2300
3020
0230
0302
2003
,
3020
0000
0130
0001
1000
0000
0100
0000
0010
0000
0100
1000
0010
0000
1000
0000
,
0001
0010
0100
1000
0001
0010
0001
1000
0100
0010
0001
1000
0010
0100
0001
1000
,
0010
0100
0010
1000
0010
0100
0010
1000
0100
0010
0100
1000
0100
0010
0100
1000
,
0001
0010
0001
0010
0100
0010
0100
0010
1000
0010
1000
0010
0100
0010
0100
0010
,
0001
0100
0001
0100
0010
0100
0010
0100
1000
0000
1000
0100
0010
0000
0000
0000
,
0010
1000
0101
1000
0010
1000
0101
1000
,
0010
1000
0101
0010
1001
0000
1001
0000
,
2000
0000
3200
0000
0320
0000
0032
0000
0023
0000
0230
0000
1300
0010
1000
0010
,
0100
0000
0000
0010
0110
0000
0000
1010
,
0000
0000
0101
0000
0000
0000
1001
0000
0001
0010
0100
1000
0001
0000
0100
0000
,
0000
0110
0000
0110
1001
0000
1001
0000
,
0012
0103
1000
0001
1200
0310
0001
0100
,
2010
3001
1000
0010
0102
0013
0100
1000
,
0120
1030
0001
0100
1020
0130
0001
0010
,
0001
0010
0100
0010
0001
0010
0100
0010
0001
0010
0100
1000
0001
1000
0100
0010
,
0002
0013
0100
1000
0102
1003
0001
0100
,
2010
3001
1000
0010
0102
0013
0100
1000
,
0120
0000
1030
0000
0001
0000
1000
0000
0010
0100
0001
1000
0010
0000
0010
0100
,
0001
0100
0010
0100
1000
0100
0001
0010
0200
0000
1000
0000
1000
0000
1300
0000
,
0000
1001
0000
0000
;
