#TITLE:徒花ネクロマンシー;
#SUBTITLE:;
#ARTIST:フランシュシュ;
#TITLETRANSLIT:Adabana Necromancy;
#SUBTITLETRANSLIT:;
#ARTISTTRANSLIT:FranChouChou;
#GENRE:ANIME;
#CREDIT:;
#MUSIC:Adabana Necromancy.ogg;
#BANNER:Adabana Necromancy.png;
#BACKGROUND:Adabana Necromancy-bg.png;
#CDTITLE:;
#SAMPLESTART:0.487;
#SAMPLELENGTH:13.953;
#SELECTABLE:YES;
#OFFSET:0.908;
#BPMS:0.000=172.000;
#STOPS:;
#BGCHANGES:2.500=Adabana Necromancy.avi=1.000=0=0=0=StretchNoLoop====,
99999.000=-nosongbg-=1.000=0=0=0=StretchNoLoop====
;
#FGCHANGES:;

//--------------- dance-single - ----------------
#NOTES:
     dance-single:
     :
     Hard:
     12:
     0.636398,0.737343,0.515701,0.965569,0.082293,406,359,47,88,0,0,0.636398,0.737343,0.515701,0.965569,0.082293,406,359,47,88,0,0:
0000
0000
0000
0000
,
0001
0010
0000
2200
0000
0000
0000
3300
,
1000
0100
0000
0202
0000
0000
0000
0303
,
1001
0000
0000
0000
1001
0000
0000
0000
1001
0000
0000
1100
0000
0000
0102
0000
,
0000
0000
0103
0000
0010
0000
0000
0000
1000
0000
0000
2000
0000
0000
0001
0000
,
0002
0000
0000
0000
3003
1000
0100
0010
,
0002
0000
1003
2000
3000
0100
1000
0100
,
0001
0100
1000
0020
0000
0130
1000
0100
,
0002
0000
1003
0020
0000
0100
0230
0000
,
0310
2000
0000
3200
0000
0310
0001
0100
,
0020
0000
0130
0002
0000
1003
0010
0001
,
0020
0000
0130
0200
0000
2300
0000
3200
,
0310
1000
0100
0020
0000
0000
0031
0100
,
0020
0000
1000
2030
0000
3100
0010
0001
,
1000
0200
0000
0320
0000
0031
1000
0001
,
0000
0000
1100
0000
0101
0000
1100
0000
0101
0000
0110
0000
,
1001
0000
1000
0000
0100
0000
0010
0000
0002
0000
0000
2003
0000
0000
3002
0000
,
0203
0000
0010
0320
0000
2030
0000
3010
,
0100
0100
0001
0001
1000
1000
0010
0010
,
0101
0101
0000
1100
1100
0000
0011
0011
,
0001
0000
0010
0000
0100
0000
1000
0000
0002
0000
0000
0203
0000
0000
0001
0000
,
0302
0000
1000
2003
0000
3200
0000
0320
,
0031
0001
1000
1000
0010
0010
0100
0100
,
0110
0000
0000
1001
0000
0000
0110
0000
0000
0000
0000
0000
0000
0000
0010
0000
,
0100
1001
0000
0110
0000
1000
0010
0100
,
0001
0010
0000
0001
0010
0000
2100
0000
0000
0000
3010
0000
1000
0000
0100
0000
,
0010
1001
0000
0110
0000
0001
0010
0100
,
1000
0100
0000
1000
0100
0000
0012
0000
0000
0000
1003
0000
0010
0000
0100
0000
,
0020
0000
0130
0002
0000
0013
0100
0010
,
0002
0000
0000
0000
0103
0000
0000
0000
1100
0000
0000
1010
0000
0000
0011
0000
,
1000
0100
0010
0002
0000
0103
0000
0001
,
1000
0000
1001
1000
0010
0100
0001
0100
,
0020
0000
1030
2000
0000
3002
0000
2003
,
3010
0001
0010
2000
0000
3010
0100
0001
,
0020
0000
0000
0032
0000
0000
2003
0000
,
3200
0000
2300
0000
,
3200
0000
0320
0000
,
0031
0010
0100
1000
0000
0100
0100
0100
,
1000
0010
0100
0001
0010
0001
1000
0100
,
1000
0010
0100
0001
0000
0001
1000
0010
,
0100
0002
0203
0320
2030
3200
2300
3020
,
1030
0100
0001
0100
1000
0100
0001
0100
,
1000
0010
0001
0010
1000
0010
0001
0010
,
2000
0000
0100
3200
0000
0010
0310
0000
,
0011
0000
0000
0110
0000
0000
1100
0000
0000
0000
0001
0000
0100
0000
0001
0000
,
0010
0001
0100
2000
0000
0100
3100
0001
,
0010
0100
1000
1000
0010
0100
0001
0100
,
0010
1000
0100
0010
0000
0010
0001
0010
,
0100
2000
3020
0230
0302
0023
0230
1300
,
0001
0100
0010
1000
0001
0100
0010
1000
,
0001
0010
0100
1000
0001
0010
0100
1000
,
0002
0000
1003
2000
0000
3001
0100
0110
,
0000
1010
0000
0101
0000
0110
0000
1001
,
0000
2000
3200
0320
,
2030
0000
3001
0200
0000
2300
0000
3001
,
0200
0000
2300
0000
3001
0020
0000
2030
,
0000
0002
3003
0001
0101
1010
0000
1001
,
0000
0000
1001
1000
0010
0100
0001
0101
,
0000
1000
0100
0001
1000
0020
0000
0031
,
0100
0100
1000
0001
0010
0010
1000
0001
,
1000
0100
1000
0100
1000
0000
0000
0000
0110
0000
0110
0000
0000
0000
0000
0000
,
0002
0000
0000
0000
,
2000
0000
0000
0000
,
0000
0000
0000
0000
,
3003
0000
0000
0000
;

//--------------- dance-single - ----------------
#NOTES:
     dance-single:
     :
     Challenge:
     15:
     0.84017,0.912901,0.515701,1.075292,0.674801,536,489,47,98,0,0,0.84017,0.912901,0.515701,1.075292,0.674801,536,489,47,98,0,0:
0000
0000
0000
0000
,
0001
0100
0001
0000
0000
0000
1002
0000
0000
0000
1003
0100
2000
0000
0000
0000
,
3001
0010
0001
0000
0000
0000
1001
0000
0000
0000
0001
0100
0010
1000
0001
0000
,
1100
0000
0000
0000
1100
0000
0000
0000
0011
0000
0000
1100
0000
0000
0012
0000
,
0000
0000
1003
0000
0001
0010
0000
0001
0100
0000
0010
0000
1000
0010
0100
0000
,
0001
0000
0000
0000
0010
0000
0000
0000
0100
0000
0000
0000
1000
0000
0000
0000
0001
0000
0000
0000
0010
0000
0000
0000
0100
0000
0000
0000
0000
0000
1000
0000
0000
0000
0000
0000
0100
0000
0000
0010
0000
0000
0001
0000
0000
0000
0000
0000
,
0012
0000
0000
0000
1003
0010
2000
0000
0000
0000
0100
0000
3100
0000
0100
0010
,
0001
0000
1100
0000
1000
0001
0020
0000
0000
0000
0130
0000
1000
0100
1000
0001
,
0200
0000
0001
0302
0000
1000
2003
0000
,
3010
0100
0002
0000
0000
0000
0023
0000
0000
0000
0230
0000
1300
0010
0100
0001
,
0010
0100
0000
0000
0100
0010
0002
0000
0000
0000
1003
0100
0010
0001
1000
0100
,
0020
0000
0000
0000
0031
0100
0002
0000
0000
0000
2003
0000
0000
0000
3200
0000
,
0010
0000
0310
0001
1000
0000
0012
0000
0000
0000
1000
0000
1003
0010
0100
0001
,
2000
0000
0000
0000
0001
0000
3002
0000
0000
0000
0100
0000
0103
0001
0010
0100
,
1000
0010
0200
0000
0000
0000
0320
0000
0000
0000
1030
0100
0010
0001
1000
0000
,
0000
0000
1100
0000
1010
0000
0011
0000
0101
0000
0110
0000
,
1001
0000
0001
0000
0100
0000
0010
0000
2000
0000
0000
3002
0000
0000
2003
0000
,
3200
0000
0010
0320
0000
0032
0000
0013
,
0100
1000
0100
0000
0010
0001
0010
0000
0100
1000
0100
0000
0010
0100
0010
0000
,
0001
0010
0001
0000
1000
0000
0001
0010
0001
0000
1000
0000
0001
0010
0001
0000
,
0200
0000
0001
0000
0301
0000
0010
0000
0200
0000
0000
2300
0000
0000
0001
0000
,
3002
0000
0100
0203
0000
0320
0000
0230
,
0310
1000
0010
0000
0100
0001
0100
0000
0010
1000
0010
0000
0100
0001
0100
0000
,
0110
0000
0000
0101
0000
0000
2010
0000
0000
0000
0001
0000
3001
0000
0010
0000
,
0011
0000
1001
0000
0000
0000
0110
0000
0000
0000
1000
0100
0010
0001
1000
0100
,
0010
0001
0000
0001
0010
0000
2100
0000
0000
0000
3010
0000
0100
0000
0010
0000
,
1010
0000
1001
0000
0000
0000
0110
0000
0000
0000
0001
0100
0010
1000
0001
0100
,
0010
1000
0000
1000
0010
0000
0102
0000
0000
0000
1000
0000
1003
0000
0010
0100
,
0002
0000
0000
0000
0103
0000
0200
0000
0000
0000
0310
0000
0020
0000
1030
0010
,
0200
0000
0000
0000
0302
0000
0000
0000
0013
0000
0000
0011
0000
0000
1010
0000
,
0001
0000
0010
0000
0100
1000
0002
0000
0000
0000
0103
0000
0001
1000
0001
1000
,
0100
0010
0000
0000
1001
0000
1000
0000
0010
0000
0100
0000
0001
0000
0001
0100
,
0020
0000
0000
0000
1030
0100
0020
0000
0000
0000
0032
0000
0000
0000
2003
0000
,
3010
0100
0001
0000
0010
0000
0002
0000
0000
0000
1003
0000
0001
0010
0001
0010
,
0200
0000
0000
0320
0000
0000
0032
0000
,
2003
0000
3200
0000
,
0320
0000
0032
0000
,
1003
0100
1000
0001
0100
0010
2000
0000
0000
0000
0100
0000
0100
0000
3100
0010
,
0001
0000
0100
0000
0001
1000
0100
0000
0010
0000
0001
0000
0100
0000
0010
1000
,
0001
0000
0100
0000
1000
0000
0100
0000
0001
0000
0010
0000
1000
0000
0010
0001
,
0100
0000
0002
0000
0023
0000
0230
0000
2300
0000
3020
0000
1030
0010
0100
0001
,
0010
0000
0100
1000
0010
0000
0100
0001
0010
0000
0100
1000
0010
0000
0010
1000
,
0100
0000
0010
0001
0100
0000
0010
1000
0100
0000
0010
0001
0100
0000
0100
0001
,
2000
0000
0000
0000
0001
0000
3002
0000
0000
0000
1000
0000
1003
0000
0010
0100
,
0020
0000
0000
0001
0000
0000
1030
0000
0000
0000
0001
0010
0001
1000
0010
1000
,
0001
0000
0010
0000
0100
0000
2000
0000
0000
0000
0010
0000
3010
0000
1000
0001
,
0100
0000
0010
0000
0100
0001
1000
0000
0010
1000
0100
0000
0001
0000
0100
1000
,
0010
0000
0001
0000
0010
0000
0100
0000
0001
0000
0010
0000
1000
0000
0010
0001
,
0100
0000
0002
0000
0023
0000
0230
0000
2300
0000
3002
0000
0013
0100
1000
0010
,
1000
0000
1000
0100
1000
0000
0001
0100
0001
0000
0001
0010
0001
0000
0010
1000
,
0010
0000
0010
0001
0010
0000
0100
0001
0100
0000
0100
1000
0100
0000
0100
0010
,
0200
0000
1000
2300
0000
3001
0100
0110
,
0000
0000
1100
0000
0000
0000
0011
0000
0000
0000
1001
0000
1000
0100
0010
0001
,
2200
0000
0000
0300
0020
0000
0000
0030
0002
0000
0000
0003
0200
0000
0000
3300
,
0022
0000
0000
0030
0203
0000
0002
0303
0220
0300
0002
0000
0000
0003
0200
0330
,
2020
0000
0030
0000
0002
0000
3003
0000
0202
0300
0020
0000
0000
0030
1003
0000
,
0220
0030
0002
0000
0000
0003
0310
0000
0110
0000
1010
0000
0000
0000
0101
0000
,
0000
0000
0000
0000
0011
0000
1000
0100
0010
0000
0100
0000
1000
0000
0011
0000
,
0000
0000
1000
0000
0001
0010
0001
0000
1000
0100
2000
0000
0000
0000
3001
0010
,
0100
0000
1000
0010
0100
0000
0001
0100
0010
0000
1000
0100
0010
0000
0001
1000
,
0010
0100
0010
0100
0010
0000
0000
0000
1001
0000
0110
0000
0000
0000
0000
0000
,
0002
0000
0000
0000
,
2000
0000
0000
0000
,
0000
0000
0000
0000
,
3003
0000
0000
0000
;
