#TITLE:Abracada-Boo;
#SUBTITLE:;
#ARTIST:石原夏織;
#TITLETRANSLIT:Abracada-Boo;
#SUBTITLETRANSLIT:;
#ARTISTTRANSLIT:Ishihara Kaori;
#GENRE:Anime;
#CREDIT:;
#MUSIC:Abracada-Boo.ogg;
#BANNER:Abracada-Boo.png;
#BACKGROUND:Abracada-Boo-bg.png;
#CDTITLE:;
#SAMPLESTART:58.465;
#SAMPLELENGTH:12.632;
#SELECTABLE:YES;
#OFFSET:0.943;
#BPMS:0.000=152.000;
#STOPS:;
#BGCHANGES:2.500=Abracada-Boo.avi=1.000=0=0=0=StretchNoLoop====,
99999.000=-nosongbg-=1.000=0=0=0=StretchNoLoop====
;
#FGCHANGES:;

//--------------- dance-single - ----------------
#NOTES:
     dance-single:
     :
     Medium:
     11:
     0,0,0,0,0:
0000
0000
0000
0000
,
0000
0000
0000
0000
,
0000
0000
0000
0000
,
0000
0000
0000
0000
,
0000
0000
0000
0000
,
1001
0000
0001
1000
0100
0000
0100
0020
,
0000
0031
1000
0000
0001
0100
0010
0000
,
0110
0000
1000
0001
0100
0000
0100
0002
,
0000
1003
0100
0000
0010
0001
1000
0000
,
0101
0000
0100
0001
0010
0000
0010
0200
,
0000
1300
0001
0000
0100
0001
1000
0000
,
1100
0000
0100
1000
0001
0000
0001
0200
,
0000
0010
0320
0000
1030
0001
1000
0001
,
0101
0000
0000
0000
2000
0000
0000
0000
0100
0000
0000
3001
0000
0000
0110
0000
,
0000
0000
1000
0000
0002
0000
0000
0000
1000
0000
0000
0103
0000
0000
0011
0000
,
0000
0000
0001
0000
0020
0000
0000
0000
0001
0000
0000
0130
0000
0000
1100
0000
,
0000
1000
0001
0000
0101
0000
1010
0000
,
1001
0000
1000
0000
0002
0000
0000
0000
0100
0000
0000
0013
0000
0000
1100
0000
,
0000
0000
1000
0000
0020
0000
0000
0000
1000
0000
0000
0130
0000
0000
0101
0000
,
0000
0001
0010
0000
0100
0000
0100
2000
,
0000
3001
0100
0002
0000
0013
0100
0000
,
1000
0000
0000
0000
0001
0000
0100
0000
0010
0000
0000
1010
0000
0000
0101
0000
,
0000
0000
0001
0000
0010
0000
0100
0000
1000
0000
0000
1001
0000
0000
0101
0000
,
0000
0000
0100
0000
0001
0000
1000
0000
0100
0000
0000
0110
0000
0000
1001
0000
,
0000
0000
0001
0000
0100
0000
1000
0000
0100
0000
0000
0101
0000
0000
0001
0000
,
1000
0000
0000
0000
1000
0000
0100
0000
0010
0000
0000
0100
0000
0000
1100
0000
,
0000
1000
0001
0100
0010
0000
0010
0100
,
0000
0100
0001
0010
0100
0000
0100
1000
,
0000
1000
0001
1000
0020
0000
0100
0230
,
0000
0302
1000
2003
0000
3100
0010
0001
,
0000
1000
0000
0010
0000
0200
0001
0302
,
0000
2003
0100
3200
0000
0310
0001
0200
,
0000
0320
2030
3200
0320
0032
1003
1100
,
0000
1000
0001
0100
0001
0100
0001
0101
,
0000
0001
1000
0100
1000
0100
1000
1001
,
0000
0001
0010
0100
1000
0100
0010
1001
,
0000
0001
0100
0000
1000
0100
0001
0011
,
0000
1100
0000
0011
0000
0001
1000
0020
,
0000
0000
0130
0000
0001
0000
1000
0000
1100
0000
0000
0011
0000
0000
1100
0000
,
0000
0000
1000
0000
0010
0000
0100
0000
0101
0000
0000
1010
0000
0000
0101
0000
,
0000
0001
0100
1000
0100
0010
0100
0001
,
0000
0001
0010
1000
0001
0100
1000
0100
,
0010
0000
1001
0000
0001
0100
0010
1000
,
0000
1000
0010
0000
0010
0100
0000
0100
,
0001
0010
0100
1000
0001
1000
0100
0011
,
0000
0101
0000
1100
0000
1000
0010
0110
,
0000
0000
0100
0000
0001
0000
0010
0000
1100
0000
0000
0011
0000
0000
1100
0000
,
0000
0000
0100
0000
1000
0000
0010
0000
0101
0000
0000
1010
0000
0000
0101
0000
,
0000
1000
0010
0100
0010
0100
0001
1001
,
0000
0110
0000
1001
0000
0001
0010
0100
,
0000
1000
0100
0010
0000
0001
0100
0010
,
0000
1000
0010
0100
0000
0010
1000
0001
,
0000
1000
0100
0001
0100
1000
0100
0010
,
0000
0011
0001
0000
1000
0010
0100
0001
,
0101
0000
0001
1000
0100
0000
0100
0020
,
0000
0031
1000
0001
0100
1000
0100
0002
,
0000
0000
0000
0000
,
0003
0000
0000
0000
;

//--------------- dance-single - ----------------
#NOTES:
     dance-single:
     :
     Hard:
     15:
     0,0,0,0,0:
0000
0000
0000
0000
,
0000
0000
0000
0000
,
0000
0000
0000
0000
,
0000
0000
0000
0000
,
0000
0000
0000
0000
,
1001
0000
0000
0000
0001
0100
0001
0000
1000
0100
0000
0010
0000
0100
2000
0000
,
0000
0000
3010
0000
0100
0001
0100
0000
0010
0000
0100
0001
1000
0000
0100
0000
,
1100
0000
0000
0000
1000
0100
1000
0000
0001
0100
0000
0010
0000
0100
0002
0000
,
0000
0000
0013
0100
0010
0000
0001
0000
1000
0010
1000
0000
0100
0000
0010
0001
,
1000
0000
0000
0000
1000
0010
1000
0000
0001
0010
0000
0100
0000
0010
0002
0000
,
0000
0000
0103
0000
0010
1000
0010
0000
0100
0000
0001
1000
0100
0000
0010
0000
,
0011
0000
0000
0000
0001
1000
0001
0000
0100
0010
0000
0100
0000
0010
1000
0000
,
0100
0000
0010
0000
0100
1000
0001
0000
0100
0000
1000
0100
0010
0000
1000
0000
,
1100
0000
0000
0000
1000
0000
0100
0000
0110
0000
0000
0011
0000
0000
0101
0000
,
0000
0000
0001
0000
1000
0000
0001
0000
0101
0000
0000
1010
0000
0000
0101
0000
,
0000
0000
0001
0000
0010
0000
0100
0000
1100
0000
0000
1010
0000
0000
0101
0000
,
0000
0000
0001
0000
0100
0000
1000
0000
0100
0000
0001
1000
0000
0000
0100
0000
,
0110
0000
0000
0000
0010
0000
0001
0000
0101
0000
0000
1010
0000
0000
1100
0000
,
0000
0000
1000
0000
0001
0000
0100
0000
0110
0000
0001
0010
0000
0000
1100
0000
,
0000
1000
0100
0010
0100
1000
0010
0002
,
0000
2003
3200
0302
0000
0013
0100
0010
,
0001
0000
1000
0100
1000
0000
0010
0100
0010
0000
0000
0110
0000
0000
0101
0000
,
0000
0000
0001
0010
0001
0000
0010
0100
0010
0000
0000
0110
0000
0000
1000
0000
,
0010
0000
0100
0001
0100
0000
0010
1000
0010
0000
0000
0110
0000
0000
0101
0000
,
0000
0000
0001
0010
0100
0000
0010
0000
0001
0010
0000
1100
0000
0000
1000
0000
,
1001
0000
0001
1000
0010
0000
0100
0000
0101
0000
0000
0011
0000
0000
1100
0000
,
0000
0000
1000
0000
0100
0000
0001
0000
0100
0000
1000
0010
0100
0000
0101
0000
,
0000
0000
0001
0010
0100
0000
1100
0000
1000
0000
0000
0000
0001
0000
1001
0000
,
1000
1001
0110
0010
0110
0000
0001
0012
,
0000
1003
1020
0230
0000
0301
0102
0023
,
0000
0130
1000
0010
1000
0100
1000
0102
,
0000
1003
1200
0320
0000
0031
1002
0023
,
0000
0000
0032
0000
0023
0000
0230
0000
1300
0001
0010
0100
1000
0000
1100
0000
,
0000
0000
1000
0100
1000
0000
0010
0100
0010
0000
0100
0001
1000
0000
1001
0000
,
0000
0000
0001
0010
0001
0000
0010
0100
0010
0000
0100
1000
0001
0000
1001
0000
,
0000
0000
0001
0100
0010
0000
0100
0001
1000
0000
0100
1000
0010
0000
0001
0000
,
1000
0100
0001
0010
0100
1000
0001
0011
,
0000
0000
1100
0000
0000
0000
1001
0000
0001
0100
0001
0100
0001
0100
0020
0000
,
0000
0000
1030
0100
1000
0000
1000
0010
1000
0000
0000
1100
0000
0000
0011
0000
,
0000
0000
0001
0010
0001
0000
0001
0100
0001
0000
0000
0101
0000
0000
1001
0000
,
0000
0000
0001
0010
0100
0000
0010
0000
0001
0010
0100
0000
1000
0000
0010
0100
,
0010
0000
1000
0001
1000
0000
0100
0010
0100
0000
1000
0001
1000
0000
0010
0000
,
0101
0000
0000
0000
0001
0000
1000
0000
0001
0000
1000
0100
1000
0000
0001
0000
,
1000
0000
0001
0100
0001
0000
1000
0000
0001
0000
1000
0100
1000
0000
0001
0000
,
1000
0000
0010
0100
0001
0000
0010
0100
1000
0000
0010
0100
0001
0000
0010
0000
,
0100
0000
1100
0000
0011
0000
0001
0010
0100
0000
1000
0100
0010
0000
1001
0000
,
0000
0000
0001
0100
0010
0000
0010
0100
1000
0000
0000
1100
0000
0000
0101
0000
,
0000
0000
0001
0010
0100
0000
0100
0010
1000
0000
0000
1010
0000
0000
0011
0000
,
0000
0000
0001
0100
1000
0000
0100
0000
0001
0000
1000
0100
0001
0000
0100
0000
,
1000
0101
0001
1100
1000
0110
0001
1001
,
0000
1000
0100
1100
0000
0010
0100
0110
,
0000
0001
0100
0101
0000
0010
0100
0110
,
0000
0001
0101
1000
1100
0001
0101
0110
,
0000
0000
0110
0000
0100
0001
0100
0001
1000
0000
0001
0010
0000
0100
1000
0000
,
1100
0000
0000
0000
1000
0010
1000
0000
0010
0100
0000
0001
0000
1000
0200
0000
,
0000
0000
0310
0001
1000
0000
0001
0000
0100
0010
1000
0100
0010
0001
2000
0000
,
0000
0000
0000
0000
,
3000
0000
0000
0000
;

//--------------- dance-single - ----------------
#NOTES:
     dance-single:
     :
     Challenge:
     17:
     0.64662,0.526895,0,0,0,408,408,0,0,0,0,0.64662,0.526895,0,0,0,408,408,0,0,0,0:
0000
0000
0000
0000
,
0000
0000
0000
0000
,
0000
0000
0000
0000
,
0000
0000
0000
0000
,
0000
0000
0000
0000
,
0011
0000
0000
0000
0001
0010
0100
1000
0100
0010
0000
0011
0000
0001
1000
0000
,
0000
0000
0001
0010
0001
0100
0001
0010
0100
1000
0010
1000
0001
0010
0100
1000
,
0001
0000
0000
0000
1000
0010
0100
0001
0100
0010
0000
1010
0000
1000
0001
0000
,
0000
0000
1000
0100
0010
0100
1000
0001
0100
0010
0100
0001
0010
0100
1000
0000
,
1010
0000
0000
0000
1000
0010
0100
0001
0100
0010
0000
1010
0000
1000
0001
0000
,
0000
0000
1000
0010
1000
0100
1000
0010
0100
0001
0010
0001
1000
0010
0100
0001
,
1000
0000
0000
0000
0001
0010
0100
1000
0010
0100
0000
1001
0000
0001
0010
0000
,
0100
1000
0010
0000
0010
0100
1000
0100
0010
0100
0001
0010
0100
0001
0100
1000
,
0010
0000
0100
0001
1000
0000
0100
0000
1100
0000
0000
1001
0000
0000
0101
0000
,
0000
0000
0001
0010
0100
0010
0001
0010
1000
0000
0000
1010
0000
0000
0011
0000
,
0000
0000
0001
0000
1000
0000
0001
0100
1000
0000
0000
1100
0000
0000
0101
0000
,
0000
0000
1000
0000
0001
0100
0010
0100
1000
0000
1000
0100
0010
0000
1000
0100
,
0010
0000
0100
1000
0001
0000
0010
0000
1100
0000
0000
0110
0000
0000
0011
0000
,
0000
0000
0000
0000
0000
0000
0001
0000
0000
1000
0000
0000
0100
0000
0010
0000
0001
0000
0010
0000
0100
0000
0010
0000
0001
0000
0000
0000
0000
0000
1000
0000
0000
0001
0000
0000
0000
0000
0000
0000
0000
0000
0110
0000
0000
0000
0000
0000
,
0000
0000
1000
0001
0100
0000
0010
0000
0110
0000
0001
1000
0100
0000
2000
0000
,
0001
0000
3002
0000
0023
0000
0130
1000
0001
0000
0100
0000
0010
0100
0010
0000
,
1000
0000
0001
0010
0100
0000
0100
1000
0010
0100
1000
0100
0010
1000
0100
0010
,
0100
0000
0010
0100
1000
0000
0001
0100
0010
0000
1000
0001
0000
0000
0010
0000
,
0100
0000
1000
0001
0100
0000
0010
0100
0010
0000
1000
0001
0000
0001
0010
0100
,
0001
0100
0010
0001
0100
0010
0001
0010
0100
0000
0001
0010
0100
0000
0010
0001
,
1000
0000
0010
0000
0100
0010
0100
0001
1000
0000
0001
0010
0000
0100
1000
0000
,
0000
0000
1000
0010
0100
0000
1000
0100
0001
0000
1000
0100
0010
0000
0110
0000
,
0000
0000
0010
0001
1000
0000
1010
0000
0010
0100
0001
0010
0100
0000
1100
0000
,
1000
0000
0000
0010
0000
0000
0100
0000
0000
0000
0000
0000
0101
0000
0000
0000
0000
0000
0001
0000
0010
0000
0100
0000
1000
0000
0000
0000
0000
0000
0001
0000
0000
0000
0000
0000
1001
0000
0000
0000
0000
0000
1000
0000
0000
0000
0000
0000
,
0001
0000
0100
0000
0001
0000
0100
0000
0000
0010
0000
0000
1000
0000
0000
0000
0000
0000
0001
0000
0000
0000
0000
0000
0010
0000
0000
0000
0000
0000
0100
0000
0000
1000
0000
0000
0100
0000
0000
0000
0000
0000
1000
0000
0000
0000
0000
0000
,
0010
0000
0101
0000
0010
0000
1100
0000
1000
0100
0010
0001
0010
0000
0021
0000
,
0031
1000
0010
1020
1030
0001
0100
0210
,
0310
0000
2000
0000
3200
0000
0320
0000
0031
0010
0100
1000
0001
0000
1001
0000
,
0000
0000
1000
0010
0100
0000
1000
0100
0010
0000
1000
0100
0010
0000
0011
0000
,
0000
0000
0001
0100
0010
0000
0001
0010
0100
0000
0001
0010
0100
0000
1100
0000
,
1000
0010
0100
0000
0100
1000
0100
0010
0100
1000
0100
0001
0010
0100
0001
0100
,
0010
0001
1000
0000
0110
0000
0010
1000
0100
0001
0100
1000
0001
0100
0010
0000
,
0110
0000
0000
0000
0000
0000
0100
0000
0000
0001
0000
0000
1000
0000
0000
0001
0000
0000
1000
0000
0000
0001
0000
0000
1000
0000
0100
0000
0010
0000
0001
0000
1000
0000
0100
0000
0010
0000
0001
0000
1000
0000
0010
0000
0000
0000
0000
0000
,
0000
0000
0010
1000
0100
0000
0010
0001
0100
0000
0000
1001
0000
0000
0001
0010
,
0100
0000
1000
0010
0100
0001
0010
0100
2000
0010
0000
3010
0200
0000
0301
0000
,
0101
0000
0100
0001
1000
0000
0010
0100
0001
0010
0100
1000
0001
0100
0001
0100
,
0010
1000
0100
0010
0100
1000
0001
1000
0010
0100
0001
0010
0100
0010
0001
1000
,
0010
0000
0010
0000
0110
0000
0100
0001
1000
0000
1000
0100
1000
0010
1000
0100
,
0010
0100
1000
0001
0010
0100
0010
0001
0100
0001
0010
0100
0010
0001
1000
0010
,
0100
0000
0100
0001
0010
0100
1000
0001
0010
0100
1000
0100
0010
0000
0010
0001
,
1000
0000
0000
0000
0000
0000
1001
0000
0000
0000
0000
0000
0001
0000
0000
0010
0000
0000
0100
0000
0000
0010
0000
0000
0100
0000
0000
0000
0000
0000
1000
0000
0100
0000
0010
0000
0001
0000
0000
0000
0000
0000
1001
0000
0000
0000
0000
0000
,
0000
0000
1000
0010
0100
0000
0001
0010
1000
0010
0100
0010
0001
1000
0010
0000
,
0100
0001
0100
1000
0100
0010
0100
0001
1000
0100
0010
0001
1000
0010
0100
0000
,
0000
0000
0100
0001
1000
0100
0010
0100
1000
0010
0100
0001
0010
0100
1000
0001
,
0100
0000
0101
0000
1010
0000
0101
0000
0001
0010
0100
1000
0001
0100
0101
0000
,
0000
0000
0001
0100
0001
0010
0100
0010
0001
0100
0001
0010
0100
0010
0011
0000
,
0000
0000
1000
0100
1000
0010
0100
0010
1000
0100
1000
0010
0100
0010
1010
0000
,
0000
0011
1001
1100
1001
0101
0110
1001
,
1000
0000
0000
0000
0100
0000
0000
0000
0010
0000
0000
0000
0001
0000
0000
0000
0000
0000
0000
0000
0000
0000
0000
0000
0100
0000
0000
0000
0000
0000
0001
0000
0000
0000
0000
0000
0100
0000
0000
0000
0000
0000
0001
0000
0000
0000
0000
0000
1000
0000
0000
0100
0000
0000
1000
0000
0000
0100
0000
0000
1000
0000
0000
0000
0000
0000
0001
0000
0000
0000
0000
0000
0010
0000
0000
0000
0000
0000
0100
0000
0000
0000
0000
0000
1000
0000
0000
0000
0000
0000
0000
0000
0000
0000
0000
0000
,
1001
0000
0000
0000
0001
0010
0100
1000
0001
0100
0000
0010
0000
1000
0001
0000
,
0000
0000
0001
0010
0001
0100
0001
0010
0100
1000
0010
1000
0100
1000
0002
0000
,
0000
0000
0000
0000
,
0003
0000
0000
0000
;
