#TITLE:AIZO;
#SUBTITLE:;
#ARTIST:King Gnu;
#TITLETRANSLIT:AIZO;
#SUBTITLETRANSLIT:;
#ARTISTTRANSLIT:King Gnu;
#GENRE:ANIME;
#CREDIT:;
#MUSIC:AIZO.ogg;
#BANNER:AIZO.png;
#BACKGROUND:AIZO-bg.png;
#CDTITLE:;
#SAMPLESTART:12.035;
#SAMPLELENGTH:10.105;
#SELECTABLE:YES;
#OFFSET:1.860;
#BPMS:0.000=190.000
,108.250=95.000
,108.375=47.500
,108.500=190.000
,108.750=95.000
,108.875=47.500
,109.000=95.000
,110.000=190.000
,110.250=95.000
,110.375=47.500
,110.500=190.000
,110.750=95.000
,110.875=47.500
,111.000=95.000
,112.000=190.000
,112.250=95.000
,112.375=47.500
,112.500=190.000
,112.750=95.000
,112.875=47.500
,113.000=95.000
,114.000=190.000
,114.250=95.000
,114.375=47.500
,114.500=190.000
,114.750=95.000
,114.875=47.500
,115.000=95.000
,116.000=190.000
,116.250=95.000
,116.375=47.500
,116.500=190.000
,116.750=95.000
,116.875=47.500
,117.000=95.000
,118.000=190.000
,118.250=95.000
,118.375=47.500
,118.500=190.000
,118.750=95.000
,118.875=47.500
,119.000=95.000
,120.000=190.000
,120.250=95.000
,120.375=47.500
,120.500=190.000
,120.750=95.000
,120.875=47.500
,121.000=95.000
,122.000=190.000
,122.250=95.000
,122.375=47.500
,122.500=190.000
,122.750=95.000
,122.875=47.500
,123.000=95.000
,124.000=190.000
,124.250=95.000
,124.375=47.500
,124.500=190.000
,124.750=95.000
,124.875=47.500
,125.000=95.000
,126.000=47.500
,127.000=190.000
;
#STOPS:;
#LASTBEATHINT:2.657951;
#BGCHANGES:5.750=AIZO.avi=1.000=0=0=0=StretchNoLoop====,
99999.000=-nosongbg-=1.000=0=0=0=StretchNoLoop====
;
#FGCHANGES:;

//--------------- dance-single - ----------------
#NOTES:
     dance-single:
     :
     Medium:
     13:
     0,0,0,0,0:
0000
0000
0000
0000
,
0000
0000
0000
0000
,
1001
0110
1001
0110
,
0001
0010
0100
1000
0100
0010
0001
0000
,
0011
1100
0011
1100
,
1000
0010
1000
0001
1000
0010
0100
0000
,
0110
1001
0110
1001
,
2000
0000
3020
0000
0130
0001
1000
0000
,
1010
0101
1010
0101
,
0100
0001
0010
0100
1000
0010
0100
0001
,
0020
0000
0230
0000
1300
0001
1000
0001
,
1100
0011
1100
0011
,
1001
0000
0010
0100
0000
0010
0100
0010
,
0101
1010
0101
1010
,
1001
0000
1000
0010
0000
0100
0001
0010
,
2000
3020
0032
0203
,
2300
0000
3100
0001
0000
1000
0000
0001
,
0010
0100
1000
0000
1000
0010
0100
0001
,
1000
0000
0001
0010
0000
0010
0100
1000
,
0001
0100
0101
0000
1000
0010
1010
0000
,
0001
0100
0010
1000
0010
0100
0001
0000
,
1000
0100
1100
0000
0001
0010
0011
0000
,
1001
0000
0010
0100
0010
1001
0000
0001
,
0020
0100
2030
0010
3200
0001
0320
0100
,
2030
0000
3001
0100
0000
0110
0000
0200
,
0320
2030
0100
3020
0001
0230
0010
2300
,
3002
0000
0013
0100
0010
0000
0001
0000
,
0200
0300
0000
0000
0000
0000
0000
0000
0000
0000
0000
0000
0000
0000
0000
0000
0000
0000
0000
0000
0000
0000
0000
0000
0100
0000
0000
0000
0000
0000
0000
0000
0000
0000
0000
0000
0000
0000
0000
0000
0000
0000
0000
0000
0000
0000
0000
0000
0000
0000
0000
0000
0000
0000
0000
0000
0000
0000
0000
0000
0000
0000
0000
0000
0000
0000
0000
0000
0000
0000
0000
0000
0000
0000
0000
0000
0000
0000
0000
0000
0000
0000
0000
0000
0000
0000
0000
0000
0000
0000
0000
0000
0000
0000
0000
0000
0100
0000
0000
0000
0000
0000
0000
0000
0000
0000
0000
0000
0000
0000
0000
0000
0000
0000
0000
0000
0000
0000
0000
0000
0100
0000
0000
0000
0000
0000
0000
0000
0000
0000
0000
0000
0000
0000
0000
0000
0000
0000
0000
0000
0000
0000
0000
0000
0020
0000
0000
0000
0000
0000
0000
0000
0000
0000
0000
0000
0000
0000
0000
0000
0000
0000
0000
0000
0000
0000
0000
0000
0000
0000
0000
0000
0000
0000
0000
0000
0000
0000
0000
0000
0000
0000
0000
0000
0000
0000
0000
0000
0000
0000
0000
0000
,
0130
0100
0001
1000
0100
0100
0000
0010
,
0001
0001
1000
0010
0100
0100
0000
0001
,
1000
1000
0010
0100
0001
0001
1000
0010
,
0100
0000
0000
0000
0000
0000
0000
0000
0000
0000
0000
0000
0000
0000
0000
0000
0000
0000
0000
0000
0000
0000
0000
0000
0100
0000
0000
0000
0000
0000
0000
0000
0000
0000
0000
0000
0000
0000
0000
0000
0000
0000
0000
0000
0000
0000
0000
0000
0001
0000
0000
0000
0000
0000
0000
0000
0000
0000
0000
0000
0000
0000
0000
0000
0000
0000
0000
0000
0000
0000
0000
0000
1000
0000
0000
0000
0000
0000
0000
0000
0000
0000
0000
0000
0000
0000
0000
0000
0000
0000
0000
0000
0000
0000
0000
0000
0200
0300
0000
0000
0000
0000
0000
0000
0000
0000
0000
0000
0000
0000
0000
0000
0000
0000
0000
0000
0000
0000
0000
0000
0010
0000
0000
0000
0000
0000
0000
0000
0000
0000
0000
0000
0000
0000
0000
0000
0000
0000
0000
0000
0000
0000
0000
0000
0020
0030
0000
0000
0000
0000
0000
0000
0000
0000
0000
0000
0000
0000
0000
0000
0000
0000
0000
0000
0000
0000
0000
0000
0000
0000
0000
0000
0000
0000
0000
0000
0000
0000
0000
0000
0000
0000
0000
0000
0000
0000
0000
0000
0000
0000
0000
0000
,
0001
0000
1000
0000
0010
1000
0010
0001
,
0000
0010
0000
1000
0001
0010
0100
0000
,
1000
0100
0010
0100
1000
0001
0010
1000
,
0000
0110
0000
0010
0001
1000
0001
0100
,
0010
0000
0100
0001
1000
0000
1100
0000
,
0000
0000
1000
0000
0001
0000
0000
0100
0000
0000
0100
0000
1001
0000
0000
0000
,
1000
0100
0000
1000
0010
0100
0001
1000
,
0001
1000
0001
0010
0000
0010
0100
1000
,
1010
0000
0100
0001
0101
0000
0001
1000
,
0100
0001
0100
1000
0001
0000
0001
0100
,
0101
0000
1000
0100
1100
0001
0000
0001
,
0000
1000
0010
0001
1000
0000
0100
0001
,
0110
0000
0100
1000
0110
0001
1000
0020
,
0000
1030
0001
0010
0100
0000
1000
0010
,
0101
0000
0001
0010
1100
0001
1000
0010
,
0100
0010
0001
0010
2000
0000
3001
0010
,
0100
1000
0001
0010
0100
1000
0020
0000
,
0100
0000
0130
0001
1000
0001
1000
0010
,
0001
0001
1000
0100
0001
0001
1000
0100
,
0010
0001
0010
0100
1000
0100
0001
0100
,
1000
1000
0001
0010
1000
1000
0001
0100
,
0010
0001
1000
0001
0010
1000
0001
0100
,
0001
1000
0010
1000
0001
0100
1000
0001
,
0100
1000
0000
0100
0010
0000
1000
0001
,
1000
1000
0010
0100
0001
0001
0020
0000
,
0230
2300
0000
3002
0103
0000
0100
0010
,
1001
0100
0010
0100
1001
0001
0100
0001
,
1000
0100
0010
0100
1000
0001
0100
0001
,
0110
1000
0001
1000
0110
0001
1000
0100
,
0010
0100
1000
0001
0100
0010
0100
0000
,
1001
0100
0010
0000
0100
0010
1001
0000
,
0001
0010
0000
0100
1000
0001
0100
2000
,
0000
3200
0000
0302
0000
0013
0100
1000
,
0001
0010
0100
1000
0001
0100
0020
0000
,
0000
0000
0030
0000
;

//--------------- dance-single - ----------------
#NOTES:
     dance-single:
     :
     Hard:
     16:
     0,0,0,0,0:
0000
0000
0000
0000
,
0000
0000
0000
0000
,
0101
1100
0101
1100
,
0001
0000
0100
0000
0001
0000
1000
0000
0100
0000
0010
0001
1000
0000
0000
0000
,
1010
0011
1010
0011
,
0001
0000
1000
0000
0010
0000
0100
0001
0010
0000
0100
0000
1000
0000
0000
0000
,
1100
0101
1100
0101
,
0001
0010
0000
0000
0010
0100
0000
0000
1000
0000
0001
0000
1000
0000
0000
0000
,
0011
1010
0011
1010
,
0001
0000
1000
0100
1000
0000
0010
0100
0010
0000
1000
0001
1000
0000
0001
0100
,
0020
0000
0000
0000
2030
0000
0000
0000
3001
0100
0001
0100
0001
0100
0001
0100
,
0010
1000
1100
0000
0010
0001
0101
0000
,
1000
0000
0001
0000
1000
0000
0001
0010
0001
0100
0010
1000
0100
0000
1000
0000
,
0001
1000
1010
0000
1000
0001
0011
0000
,
0001
0000
1000
0100
0010
0000
0100
1000
0010
0000
0100
0000
0001
0010
0100
1000
,
0020
0001
0230
1000
0320
0001
0230
1000
,
0320
0000
0031
1000
0000
0010
0100
0000
,
0010
0000
1000
0001
0100
0000
1000
0000
0100
0000
0001
1000
0100
0000
0001
0000
,
0100
0000
1000
0000
0001
0000
0100
0010
0100
0000
0001
0000
1000
0100
1000
0100
,
0010
0100
1001
0000
0100
0010
1001
0000
,
0001
0000
0100
0000
0010
0000
1000
0100
1000
0010
0100
0001
0010
0000
0100
0000
,
1000
0010
0101
0000
0001
0010
1100
0000
,
0100
0000
1000
0000
0001
0000
0110
0000
0000
0000
1001
0000
0100
0000
0010
1000
,
0002
0100
2003
0010
3002
0100
2003
0010
,
3002
0100
1003
0020
0000
0130
0000
0001
,
2000
3020
0000
0230
0000
0302
0000
1003
,
0100
0000
0010
0000
0001
1000
0001
1000
0100
0000
0000
0000
1000
0000
0000
0000
,
0200
0300
0000
0000
0000
0000
0000
0000
0000
0000
0000
0000
0000
0000
0000
0000
0000
0000
0000
0000
0000
0000
0000
0000
0100
0000
0000
0000
0000
0000
0000
0000
0000
0000
0000
0000
0000
0000
0000
0000
0000
0000
0000
0000
0000
0000
0000
0000
0000
0000
0000
0000
0000
0000
0000
0000
0000
0000
0000
0000
0000
0000
0000
0000
0000
0000
0000
0000
0000
0000
0000
0000
0000
0000
0000
0000
0000
0000
0000
0000
0000
0000
0000
0000
0000
0000
0000
0000
0000
0000
0000
0000
0000
0000
0000
0000
0100
0000
0000
0000
0000
0000
0000
0000
0000
0000
0000
0000
0000
0000
0000
0000
0000
0000
0000
0000
0000
0000
0000
0000
0100
0000
0000
0000
0000
0000
0000
0000
0000
0000
0000
0000
0000
0000
0000
0000
0000
0000
0000
0000
0000
0000
0000
0000
0020
0000
0000
0000
0000
0000
0000
0000
0000
0000
0000
0000
0000
0000
0000
0000
0000
0000
0000
0000
0000
0000
0000
0000
0000
0000
0000
0000
0000
0000
0000
0000
0000
0000
0000
0000
0000
0000
0000
0000
0000
0000
0000
0000
0000
0000
0000
0000
,
0130
0100
1000
0010
0100
0100
0001
1000
,
0100
0100
0010
0001
0100
0100
0010
1000
,
0100
0100
1000
0001
0100
0100
0001
1000
,
0100
0000
0000
0000
0000
0000
0000
0000
0000
0000
0000
0000
0000
0000
0000
0000
0000
0000
0000
0000
0000
0000
0000
0000
0100
0000
0000
0000
0000
0000
0000
0000
0000
0000
0000
0000
0000
0000
0000
0000
0000
0000
0000
0000
0000
0000
0000
0000
0010
0000
0000
0000
0000
0000
0000
0000
0000
0000
0000
0000
0000
0000
0000
0000
0000
0000
0000
0000
0000
0000
0000
0000
0001
0000
0000
0000
0000
0000
0000
0000
0000
0000
0000
0000
0000
0000
0000
0000
0000
0000
0000
0000
0000
0000
0000
0000
2000
3000
0000
0000
0000
0000
0000
0000
0000
0000
0000
0000
0000
0000
0000
0000
0000
0000
0000
0000
0000
0000
0000
0000
0001
0000
0000
0000
0000
0000
0010
0000
0000
0000
0000
0000
0100
0000
0000
0000
0000
0000
1000
0000
0000
0000
0000
0000
0002
0003
0000
0000
0000
0000
0000
0000
0000
0000
0000
0000
0000
0000
0000
0000
0000
0000
0000
0000
0000
0000
0000
0000
0000
0000
0000
0000
0000
0000
0000
0000
0000
0000
0000
0000
0000
0000
0000
0000
0000
0000
0000
0000
0000
0000
0000
0000
,
0110
0000
1001
0000
0001
0100
1000
0100
,
0001
0010
0000
0010
0100
1000
1100
0000
,
0101
0001
1000
0100
0001
0100
1000
0001
,
0000
0011
0000
0100
1000
0100
1100
0000
,
1010
0011
0101
0110
,
0000
0000
0010
0000
1000
0000
0000
0001
0000
0000
0100
0000
0110
0000
0000
0000
,
1001
0000
0001
0010
0100
1000
0001
0100
,
0001
0100
0001
1000
0000
0001
0010
0100
,
1100
0000
0000
0000
0001
0000
0010
0000
1100
0000
0000
0000
0001
0000
1000
0010
,
0100
0000
0010
1000
0100
0000
0010
0001
1000
0000
0000
0000
1000
0000
0001
0000
,
0101
0000
0000
0000
1000
0000
0010
0000
0101
0000
0000
0000
0001
0000
1000
0010
,
0100
0000
0010
1000
0100
0000
0010
0000
0001
0010
0001
0010
0100
0000
1000
0000
,
1010
0000
0001
0100
1010
0100
0001
0020
,
0000
0000
0130
0000
1000
0100
0010
0001
1000
0000
0000
0000
1000
0000
0001
0000
,
0011
0000
1000
0100
0011
1000
0100
0010
,
0100
0000
1000
0000
1100
0000
0001
0000
1002
0000
0000
0000
0103
0010
1000
0010
,
0100
0000
0001
0000
1000
0100
0010
0100
1000
0000
0001
0100
0020
0000
0000
0000
,
0100
0000
0000
0000
0130
0001
0100
0001
1000
0100
1000
0100
0010
0001
1000
0000
,
0010
0000
0100
0000
0001
1000
0100
0000
0010
0000
0100
1000
0001
0000
0100
0000
,
1000
0000
0100
0000
0010
0000
1000
0000
0100
0000
0010
0000
0001
1000
0100
0000
,
0001
0000
0100
0000
1000
0001
0100
0000
1000
0000
0100
0001
0010
0000
0100
0000
,
1000
0000
0001
0000
0100
0000
0010
0000
1000
0001
1000
0001
0010
0000
0100
0000
,
1100
1000
0010
0100
0101
0001
0010
0100
,
1000
0000
0001
0000
0000
0000
1000
0000
0110
0000
0000
0000
0001
0000
0010
0100
,
1000
0000
0010
0100
0001
0000
0010
0100
1000
0000
0001
0000
0200
0000
0000
0000
,
0302
0000
2003
0000
0000
0000
3020
0000
0130
0000
0010
0000
1000
0100
0001
0100
,
1000
0000
0001
0000
1000
0010
0001
0010
1000
0000
0100
0000
0010
0000
0001
0000
,
1000
0000
0010
0000
0100
0000
0010
1000
0001
0000
1000
0000
0001
0100
1000
0100
,
0001
0000
1000
0000
0001
0010
1000
0010
0001
0000
1000
0100
0001
0000
0100
0000
,
1000
0000
0001
0000
0100
0000
0010
0000
1000
0000
0001
0000
0010
0000
0100
1000
,
0010
0000
0100
0001
0010
0000
0100
1000
0010
0000
0100
0000
0110
0000
0000
0000
,
0100
0000
0001
0000
1000
0000
0100
0000
0010
0000
0001
0000
1000
0100
0001
1000
,
0010
0000
0100
0000
1000
0010
0001
1000
0100
0000
0001
0000
0010
0100
0010
0100
,
1000
0010
0001
1000
0100
0010
0100
0010
1000
0100
0010
0001
2000
0000
0000
0000
,
0000
0000
3000
0000
;

//--------------- dance-single - ----------------
#NOTES:
     dance-single:
     :
     Challenge:
     18:
     0.877551,0.670351,0,0,0,554,554,0,0,0,0,0.877551,0.670351,0,0,0,554,554,0,0,0,0:
0000
0000
0000
0000
,
0000
0000
0000
0000
,
0110
1001
0110
1001
,
0010
0000
1000
0000
0100
0000
1000
0000
0001
0010
0100
0010
0001
0000
0000
0000
,
0011
1100
0011
1100
,
0100
0000
0010
0000
0001
0100
0010
0100
0001
0000
1000
0010
0100
0000
0000
0000
,
0110
0000
1001
0000
0110
0000
1001
1000
,
0001
0010
0000
0000
0010
0100
0000
0000
1000
0000
0001
0000
0100
0000
0000
0000
,
0110
0010
1001
0000
0110
0100
1001
0000
,
0001
0010
0100
0010
0001
0010
1000
0010
0001
1000
0100
0010
0100
1000
0100
0001
,
0200
0000
0000
0000
2300
0000
0000
0000
3001
0100
0001
0100
0001
0100
0001
0100
,
0001
0000
1000
0100
0010
0000
0001
0100
0010
0100
0001
0100
0010
0000
1000
0010
,
0001
0000
1000
0000
0100
0000
0001
1000
0001
0100
0010
1000
0100
0000
0000
0000
,
1100
0000
0001
0010
0100
0000
1000
0000
0011
0000
1000
0100
0010
0000
0001
0000
,
1000
0100
0010
0100
1000
0000
0001
0010
0100
0010
0001
0000
1000
0100
0010
0001
,
1000
0010
0001
1000
0100
0010
0001
1000
0100
0001
1000
0100
0010
0001
1000
0010
,
0001
0000
1000
0100
0001
1000
0100
0010
0001
0010
0100
1000
0001
0000
1000
0100
,
0010
0000
0001
0010
0100
0000
1000
0100
0010
0000
0001
1000
0100
1000
0001
1000
,
0100
0010
0001
0000
1000
0000
0010
0100
0001
0000
1000
0000
0001
0100
0010
0100
,
0010
0000
0100
0000
1001
0000
1000
0010
0100
0010
0100
0000
1001
0000
0001
0010
,
0100
0000
1000
0000
0100
0000
0010
0001
1000
0010
0100
0000
0001
0000
1000
0010
,
0100
0000
0001
0000
1100
0000
0001
0010
0100
0000
1000
0000
0101
0000
1000
0000
,
0010
0100
0001
0000
1000
0000
0110
0000
0000
0000
1001
0000
0001
0010
0100
1000
,
0001
0000
1000
0000
0100
0000
0010
0001
1000
0010
0100
0000
1000
0000
0100
0001
,
0010
0000
0100
1000
0001
0000
1000
0010
0100
0010
0100
0001
1000
0000
0001
0020
,
0100
0000
1000
0000
0031
0000
1000
0020
0100
0000
0001
0000
1030
0100
0010
0001
,
1000
0000
0001
0000
0100
0010
0100
0010
0100
0000
0001
0000
1000
0000
0010
0000
,
0200
0300
0000
0000
0000
0000
0000
0000
0000
0000
0000
0000
0000
0000
0000
0000
0000
0000
0000
0000
0000
0000
0000
0000
0100
0000
0000
0000
0000
0000
0000
0000
0000
0000
0000
0000
0000
0000
0000
0000
0000
0000
0000
0000
0000
0000
0000
0000
0010
0000
0000
0000
0000
0000
0000
0000
0000
0000
0000
0000
0000
0000
0000
0000
0000
0000
0000
0000
0000
0000
0000
0000
0000
0000
0000
0000
0000
0000
0000
0000
0000
0000
0000
0000
0000
0000
0000
0000
0000
0000
0000
0000
0000
0000
0000
0000
0100
0000
0000
0000
0000
0000
0000
0000
0000
0000
0000
0000
0000
0000
0000
0000
0000
0000
0000
0000
0000
0000
0000
0000
0100
0000
0000
0000
0000
0000
0000
0000
0000
0000
0000
0000
0000
0000
0000
0000
0000
0000
0000
0000
0000
0000
0000
0000
0120
0000
0000
0000
0000
0000
0000
0000
0000
0000
0000
0000
0000
0000
0000
0000
0000
0000
0000
0000
0000
0000
0000
0000
0000
0000
0000
0000
0000
0000
0000
0000
0000
0000
0000
0000
0000
0000
0000
0000
0000
0000
0000
0000
0000
0000
0000
0000
,
1000
1030
1002
0000
0010
0013
2100
0000
,
0010
3010
0201
0000
0001
0301
1020
0000
,
0100
0130
2001
0000
0001
3001
0210
0000
,
0001
0000
0000
0000
0000
0000
0000
0000
0000
0000
0000
0000
0000
0000
0000
0000
0000
0000
0000
0000
0000
0000
0000
0000
0301
0000
0000
0000
0000
0000
0000
0000
0000
0000
0000
0000
0000
0000
0000
0000
0000
0000
0000
0000
0000
0000
0000
0000
2100
0000
0000
0000
0000
0000
0000
0000
0000
0000
0000
0000
0000
0000
0000
0000
0000
0000
0000
0000
0000
0000
0000
0000
0000
0000
0000
0000
0000
0000
0000
0000
0000
0000
0000
0000
0000
0000
0000
0000
0000
0000
0000
0000
0000
0000
0000
0000
3020
0030
0000
0000
0000
0000
0000
0000
0000
0000
0000
0000
0000
0000
0000
0000
0000
0000
0000
0000
0000
0000
0000
0000
0100
0000
0000
0000
0000
0000
0000
0000
0000
0000
0000
0000
0000
0000
0000
0000
0000
0000
0000
0000
0000
0000
0000
0000
0202
0303
0000
0000
0000
0000
0000
0000
0000
0000
0000
0000
0000
0000
0000
0000
0000
0000
0000
0000
0000
0000
0000
0000
0000
0000
0000
0000
0000
0000
0000
0000
0000
0000
0000
0000
0000
0000
0000
0000
0000
0000
0000
0000
0000
0000
0000
0000
,
1100
0000
0101
1000
0010
1000
0110
0101
,
0000
0011
0000
1000
0100
0010
0110
0000
,
1001
1000
0010
0100
0001
0100
0110
1010
,
0000
1001
0000
1000
0100
0010
0011
0000
,
1100
0000
0011
0000
1100
0000
1001
1000
,
0010
0000
0100
0000
0001
0000
0000
1000
0000
0000
0001
0000
0110
0000
0000
0000
,
1001
0000
0000
0000
0001
0000
0100
0000
1001
0000
0001
0010
0100
0010
0100
1000
,
0010
0100
0010
0100
0001
1000
0100
0010
0001
0100
0010
1000
0001
0000
0100
0010
,
0100
0000
0010
1000
0001
0010
0100
0000
0110
0000
0010
0001
0100
0000
0010
1000
,
0100
0000
0010
0001
0100
0001
0010
0001
1000
0000
0001
0100
0010
0000
0100
0000
,
0110
0000
1000
0100
0010
0001
0100
0000
0110
0000
1001
0000
0001
0010
0100
0000
,
1000
0100
1000
0100
0010
0100
1000
0000
0001
0010
0100
1000
0001
0000
0100
0000
,
0110
0000
0010
1000
0100
0010
0001
0000
1001
0000
1000
0100
0001
0000
0100
1000
,
0010
0000
0001
0010
1000
0100
0010
0001
1000
0000
0001
0010
0001
0010
1000
0010
,
0001
0000
1000
0100
1000
0100
0001
0100
1000
0000
0001
0010
1000
0000
0010
0001
,
0100
0000
1000
0100
0010
1000
0100
0010
0002
0000
0000
0000
1003
0010
0100
0010
,
1000
0010
0100
0001
0010
0100
0010
0001
0010
0100
1000
0100
0020
0000
0000
0000
,
0031
0000
1000
0000
0100
0010
0100
0010
0001
1000
0001
1000
0001
0010
0100
1000
,
0100
0010
0001
1000
0010
0100
0001
0100
0010
1000
0001
0010
0100
0000
1000
0010
,
0100
0000
0001
0010
0100
1000
0010
0100
0001
0000
1000
0000
0001
0100
1000
0100
,
0010
0100
0010
0100
0001
0010
1000
0010
0100
0010
0100
0010
0001
0000
1000
0100
,
0010
0000
0001
0000
0010
0100
1000
0010
0100
0010
1000
0010
0100
0000
0001
0000
,
0101
0000
1000
0100
0010
0000
0001
0000
1100
0000
0001
0000
1000
0100
0010
0000
,
0001
0000
1000
0100
0010
0100
1000
0000
1001
0000
0001
0000
0100
0010
0100
1000
,
0100
0010
1000
0010
0100
0010
0001
0010
1000
0000
0001
0000
0010
0000
0200
0000
,
2300
0000
3002
0000
0023
0000
0230
0000
2300
0000
3002
0000
1003
0001
1000
0100
,
0001
0100
1000
0100
0010
0001
1000
0001
0010
1000
0010
0001
1000
0000
0001
0100
,
0010
0000
1000
0000
0001
0010
0100
1000
0001
0000
1000
0000
0001
1000
0001
0100
,
1000
0100
0001
0100
0010
1000
0001
1000
0010
0001
0010
1000
0001
0000
1000
0010
,
0100
0000
0001
0010
0100
1000
0200
0000
0320
0000
0032
0000
1003
0000
0001
0010
,
0100
0000
1000
0001
0100
0010
0100
0001
1000
0000
0001
0000
1000
0100
1000
0100
,
0010
0000
0100
1000
0001
0100
0001
0100
1000
0000
0100
0001
0010
0100
1000
0010
,
0100
0001
1000
0100
0010
0100
0010
0100
1000
0001
0100
0010
0100
0010
1000
0001
,
0100
0010
1000
0001
1000
0100
0010
0001
1000
0010
0100
0001
0020
0000
0000
0000
,
0000
0000
0030
0000
;
