#TITLE:愛包ダンスホール;
#SUBTITLE:;
#ARTIST:HIMEHINA;
#TITLETRANSLIT:AIPAI Dancehall;
#SUBTITLETRANSLIT:;
#ARTISTTRANSLIT:HIMEHINA;
#GENRE:POP;
#CREDIT:;
#MUSIC:AIPAI Dancehall.ogg;
#BANNER:AIPAI Dancehall.png;
#BACKGROUND:AIPAI Dancehall-bg.png;
#CDTITLE:;
#SAMPLESTART:69.814;
#SAMPLELENGTH:14.043;
#SELECTABLE:YES;
#OFFSET:1.675;
#BPMS:0.000=141.000
,160.000=70.500
,162.000=141.000
,164.000=70.500
,165.000=141.000
,223.750=70.500
,225.750=141.000
;
#STOPS:179.000=0.106
,179.250=0.106
,179.500=0.106
,179.750=0.106
;
#LASTBEATHINT:1.543903;
#BGCHANGES:7.000=AIPAI Dancehall.avi=1.000=0=0=0=StretchNoLoop====,
99999.000=-nosongbg-=1.000=0=0=0=StretchNoLoop====
;
#FGCHANGES:;

//--------------- dance-single - ----------------
#NOTES:
     dance-single:
     :
     Medium:
     12:
     0,0,0,0,0:
0000
0000
0000
0000
,
0000
0000
0000
0000
,
0000
0000
0000
0000
,
0000
0000
0000
0000
,
0000
0000
0000
0000
,
0000
0000
0000
0000
,
0011
0000
0000
0000
1100
0000
0000
0000
0001
0000
0000
0100
0000
0000
0001
0000
,
1000
0000
0010
0000
0100
0000
0010
0000
1000
0000
0001
0000
0010
0100
0000
1000
,
0000
0000
1000
0000
0001
0000
0000
0100
0000
0000
0100
0000
0001
1000
0000
0010
,
0000
0000
0100
0000
0000
0100
0000
0000
0001
0000
1000
0000
0001
0000
0010
0100
,
0000
0000
0000
0000
1001
0000
0000
0000
0001
0000
0000
0100
0000
0000
0001
0000
,
1000
0000
0100
0000
1000
0000
0100
0000
1000
0000
0001
0000
0100
0000
0010
0100
,
0000
0000
0000
0000
1001
0000
0000
0000
1000
0000
0000
0010
0000
0000
0100
0000
,
0001
0000
0010
0000
0001
0000
0010
0000
0001
0000
1000
0010
0000
0100
0000
0110
,
0000
0000
0000
0000
1001
0000
0000
0000
0010
0000
0000
0100
0000
0000
0010
0000
,
1000
0000
0001
0000
1000
0000
0001
0000
0010
0000
0100
0000
1000
0000
0001
0100
,
0000
0000
0000
0000
1001
0000
0000
0000
0100
0000
0000
0010
0000
0000
0100
0000
,
0001
0000
1000
0000
0001
0000
1000
0000
0010
0000
0100
0010
0000
0100
0000
0110
,
0000
0010
1000
0100
0001
0100
0001
1000
,
0010
0000
1000
0000
0010
0000
0001
0000
0100
0000
0010
0100
0000
0001
0000
0101
,
0000
0200
0302
2003
3200
0320
0230
2300
,
3002
0023
0032
0203
0320
2030
3002
0103
,
0110
0010
1000
0001
0100
0001
0100
1000
,
0001
0010
0001
0010
1000
0100
0010
0100
,
1000
0002
0203
0320
0230
0302
0000
2003
,
3200
2300
3020
0230
0320
2030
3002
0103
,
0110
0000
0000
0000
0001
0000
0010
0000
0100
0000
1000
0001
0000
0000
1000
0100
,
1000
0000
0100
0000
0001
0000
0100
2000
0000
0000
3001
0000
0100
0000
1000
0000
,
0200
0000
0000
0000
0301
0000
1000
0000
0010
0000
0100
0001
0000
0000
0001
0100
,
0001
0000
0100
0000
1000
0000
0100
0002
0000
0000
1003
0000
0100
0000
0010
0000
,
0011
1100
1010
0101
,
0001
0000
0100
0000
0010
0000
1000
0001
0000
0000
0010
0000
0100
0000
1000
0000
,
0010
0000
1000
0000
0100
0000
1000
0001
0000
0010
0000
0100
1000
0000
0001
0000
,
0100
0010
0100
0001
0010
0001
1000
0100
,
1100
0000
0000
0000
1000
0000
0001
0010
0000
0010
0000
0010
0100
0000
1000
0000
,
0000
0000
0100
0000
1000
0000
0001
0100
0000
0100
0000
0100
0010
0000
0100
0000
,
0000
0000
0001
0000
0100
0000
0001
1000
0000
0100
0000
1000
0001
0000
0100
0000
,
0010
0000
1000
0000
0001
1000
0000
0100
0000
0020
0000
0000
0130
0000
1000
0000
,
0001
0000
0010
0000
0001
0000
1000
0010
0000
0010
0000
0010
0100
0000
0001
0000
,
0010
0000
1000
0000
0010
0000
0001
1000
0000
0020
0000
0000
0130
0000
0001
0000
,
2000
0000
0000
0000
0000
0000
0000
0000
0000
0000
0000
0000
0000
0000
0000
0000
0000
0000
0000
0000
0000
0000
0000
0000
0000
0000
0000
0000
0000
0000
0000
0000
0000
0000
0000
0000
0000
0000
0000
0000
0000
0000
0000
0000
0000
0000
0000
0000
0000
0000
0000
0000
0000
0000
0000
0000
0000
0000
0000
0000
0000
0000
0000
0000
0000
0000
0000
0000
0000
0000
0000
0000
0000
0000
0000
0000
0000
0000
0000
0000
0000
0000
0000
0000
0000
0000
0000
0000
0000
0000
0000
0000
0000
0000
0000
0000
3002
0003
0000
0000
0000
0000
0000
0000
0000
0000
0000
0000
0100
0000
0000
0000
0000
0000
0000
0000
0000
0000
0000
0000
0000
0000
0000
0000
0000
0000
0000
0000
0000
0000
0000
0000
0001
0000
0000
0000
0000
0000
0000
0000
0000
0000
0000
0000
0000
0000
0000
0000
0000
0000
0000
0000
0000
0000
0000
0000
0100
0000
0000
0000
0000
0000
0000
0000
0000
0000
0000
0000
0000
0000
0000
0000
0000
0000
0000
0000
0000
0000
0000
0000
0001
0000
0000
0000
0000
0000
0000
0000
0000
0000
0000
0000
,
2000
0000
0000
0000
0000
0000
0000
0000
0000
0000
0000
0000
0000
0000
0000
0000
0000
0000
0000
0000
0000
0000
0000
0000
3100
0000
0000
0000
0000
0000
0000
0000
0000
0000
0000
0000
0000
0000
0000
0000
0000
0000
0000
0000
0000
0000
0000
0000
0220
0330
0000
0000
0000
0000
0000
0000
0000
0000
0000
0000
0000
0000
0000
0000
0000
0000
0000
0000
0000
0000
0000
0000
0000
0000
0000
0000
0000
0000
0000
0000
0000
0000
0000
0000
0000
0000
0000
0000
0000
0000
0000
0000
0000
0000
0000
0000
1001
0000
0000
0000
0000
0000
0000
0000
0000
0000
0000
0000
0000
0000
0000
0000
0000
0000
0000
0000
0000
0000
0000
0000
0000
0000
0000
0000
0000
0000
0000
0000
0000
0000
0000
0000
0000
0000
0000
0000
0000
0000
0000
0000
0000
0000
0000
0000
0001
0000
0000
0000
0000
0000
0000
0000
0000
0000
0000
0000
0000
0000
0000
0000
0000
0000
0000
0000
0000
0000
0000
0000
0000
0000
0000
0000
0000
0000
0000
0000
0000
0000
0000
0000
1000
0000
0000
0000
0000
0000
0000
0000
0000
0000
0000
0000
,
0000
0001
1000
0100
0001
0100
1000
0001
,
0100
0000
0001
2000
0000
0000
3001
0000
1000
0100
0000
0020
0000
0000
0130
0000
,
1000
0000
0000
0000
0000
0000
0000
0000
0000
0000
0000
0000
0001
0000
0000
0000
0000
0000
0000
0000
0000
0000
0000
0000
0000
0000
0000
0000
0000
0000
0000
0000
0000
0000
0000
0000
0200
0000
0000
0000
0000
0000
0000
0000
0000
0000
0000
0000
0000
0000
0000
0000
0000
0000
0000
0000
0000
0000
0000
0000
0000
0000
0000
0000
0000
0000
0000
0000
0000
0000
0000
0000
1300
0000
0000
0000
0000
0000
0000
0000
0000
0000
0000
0000
0000
0000
0000
0000
0000
0000
0000
0000
0000
0000
0000
0000
0100
0000
0000
0000
0000
0000
0000
0000
0000
0000
0000
0000
0000
0000
0000
0000
0000
0000
0000
0000
0000
0000
0000
0000
0010
0000
0000
0000
0000
0000
0000
0000
0000
0000
0000
0000
0000
0000
0000
0000
0000
0000
0000
0000
0000
0000
0000
0000
2000
3000
0000
0000
0000
0000
0000
0000
0000
0000
0000
0000
0002
0003
0000
0000
0000
0000
0000
0000
0000
0000
0000
0000
2000
3000
0000
0000
0000
0000
0000
0000
0000
0000
0000
0000
0002
0003
0000
0000
0000
0000
0000
0000
0000
0000
0000
0000
,
0020
0030
0000
0000
0000
0000
0000
0000
0000
0000
0000
0000
0000
0000
0000
0000
0000
0000
0000
0000
0000
0000
0000
0000
0000
0000
0000
0000
0000
0000
0000
0000
0000
0000
0000
0000
0000
0000
0000
0000
0000
0000
0000
0000
0000
0000
0000
0000
0110
0000
0000
0000
0000
0000
0000
0000
0000
0000
0000
0000
0000
0000
0000
0000
0000
0000
0000
0000
0000
0000
0000
0000
0000
0000
0000
0000
0000
0000
0000
0000
0000
0000
0000
0000
0000
0000
0000
0000
0000
0000
0000
0000
0000
0000
0000
0000
1001
0000
0000
0000
0000
0000
0000
0000
0000
0000
0000
0000
0000
0000
0000
0000
0000
0000
0000
0000
0000
0000
0000
0000
0000
0000
0000
0000
0000
0000
0000
0000
0000
0000
0000
0000
1000
0000
0000
0000
0000
0000
0000
0000
0000
0000
0000
0000
0000
0000
0000
0000
0000
0000
0000
0000
0000
0000
0000
0000
0000
0000
0000
0000
0000
0000
0000
0000
0000
0000
0000
0000
0001
0000
0000
0000
0000
0000
0000
0000
0000
0000
0000
0000
0000
0000
0000
0000
0000
0000
0000
0000
0000
0000
0000
0000
,
1000
0000
0010
0000
0001
0000
0010
0000
1000
0000
0001
0000
0010
0000
0100
0020
,
0000
0000
0031
0000
1000
0010
0000
0200
0000
0000
0310
0000
1000
0001
0000
0010
,
0000
0100
1000
0000
0010
0000
0100
0000
0010
0000
0010
0100
0000
0010
0000
0110
,
0000
0000
0001
1000
0100
1000
0100
0010
,
0100
0000
1000
0000
0001
0000
1000
0010
0000
0010
0100
0000
0010
0000
1000
0000
,
0001
0000
0100
0000
1000
0000
0100
0010
0000
1000
0000
0001
0010
0000
0100
0000
,
0010
0000
0001
0000
1000
0010
0000
0100
0000
0010
1000
0000
0001
0000
1000
0000
,
0100
0000
0000
0000
1001
0000
0000
0000
1000
0000
0000
0010
0000
0000
0100
0000
,
0001
0000
0010
0000
1000
0000
0010
0000
0001
0000
1000
0000
0010
0000
0100
0001
,
0000
0000
0000
0000
0000
0000
0000
0000
0000
0000
0000
0000
0000
0000
0000
0000
0000
0000
0000
0000
0000
0000
0000
0000
0010
0000
0000
0000
0000
0000
0000
0000
0000
0000
0000
0000
0000
0000
0000
0000
0000
0000
0000
0000
0000
0000
0000
0000
0100
0000
0000
0000
0000
0000
0000
0000
0000
0000
0000
0000
1000
0000
0000
0000
0000
0000
0000
0000
0000
0000
0000
0000
0000
0000
0000
0000
0000
0000
0000
0000
0000
0000
0000
0000
0010
0000
0000
0000
0000
0000
0000
0000
0000
0000
0000
0000
0000
0000
0000
0000
0000
0000
0000
0000
0000
0000
0000
0000
0100
0000
0000
0000
0000
0000
0000
0000
0000
0000
0000
0000
0010
0000
0000
0000
0000
0000
0000
0000
0000
0000
0000
0000
0000
0000
0000
0000
0000
0000
0000
0000
0000
0000
0000
0000
1000
0000
0000
0000
0000
0000
0000
0000
0000
0000
0000
0000
0001
0000
0000
0000
0000
0000
0000
0000
0000
0000
0000
0000
0000
0000
0000
0000
0000
0000
0000
0000
0000
0000
0000
0000
0202
0303
0000
0000
0000
0000
0000
0000
0000
0000
0000
0000
,
0000
0000
0000
0000
0000
0001
0000
2000
0000
0000
0000
0000
3010
0000
1000
0000
,
0100
0010
0001
0010
0001
1000
0100
1000
,
0010
0001
1000
0100
0010
1000
0001
0010
,
1000
0000
0010
0000
0100
0000
1000
0000
0001
0000
1000
0000
0010
0000
0100
0001
,
0000
0100
0001
0000
0010
0000
1000
0000
0001
0000
0100
0000
1000
0000
0001
0000
,
0010
0100
1000
1100
0000
1000
0010
1000
,
0010
0100
0001
0101
0000
1000
0001
1000
,
0010
0000
0100
0000
0010
0000
1000
0000
0001
0010
0000
0100
0000
0010
0000
0100
,
1000
0002
0000
0000
0103
0000
0000
0000
,
0000
1001
0011
1100
,
1000
0000
0000
0010
0000
0000
0100
0000
0010
0000
1000
0000
0010
0000
1000
0000
,
0001
0000
0010
0000
0100
0000
1000
0001
0000
0000
0000
0000
1100
0000
0000
0000
,
0001
0000
0000
1000
0000
0000
0010
0000
0100
0000
0001
0000
0100
0000
0001
0000
,
1000
0000
0100
0010
0000
0100
0000
0110
0000
0000
0000
0000
1001
0000
0000
0000
,
0001
0000
0000
0010
0000
0000
0100
0000
1000
0000
0001
0000
1000
0000
0001
0000
,
0100
0000
1000
0000
0100
0000
0001
1000
0000
0000
0000
0000
1010
0000
0000
0000
,
1000
0000
0000
0010
0000
0000
0100
0000
0001
0000
1000
0000
0001
0000
1000
0000
,
0100
0000
1000
0001
0000
0100
0000
0110
0000
0000
0000
0000
0000
0000
0000
0000
;

//--------------- dance-single - ----------------
#NOTES:
     dance-single:
     :
     Hard:
     15:
     0,0,0,0,0:
0000
0000
0000
0000
,
0000
0000
0000
0000
,
0000
0000
0000
0000
,
0000
0000
0000
0000
,
0000
0000
0000
0000
,
0000
0000
0000
0000
,
1100
0000
0000
0000
0011
0000
0000
0000
0001
0000
0000
1000
0000
0000
0010
0000
,
1000
0000
0100
0000
0001
0000
0100
0000
1000
0000
0001
0000
0100
0010
0000
1000
,
0000
0000
0001
0000
0010
0000
0000
0100
0000
1000
0100
0000
1000
0100
0010
0001
,
0000
0000
0011
0000
0000
1100
0000
0000
0101
0000
0000
0001
1000
0001
1000
0100
,
0000
0000
0000
0000
1001
0000
0001
1000
0100
0000
1000
0001
0000
0100
0010
0000
,
0001
0000
0010
0000
1000
0000
0010
0000
0001
0000
0010
0000
1000
0000
0001
0010
,
0000
0000
0000
0000
0110
0000
1000
0001
0010
0000
0100
0010
0000
0001
1000
0000
,
0001
0000
0100
0000
1000
0000
0100
0000
0001
0000
0010
0100
0000
1000
0000
1100
,
0000
0000
0000
0000
1001
0000
1000
0001
0100
0000
0010
1000
0000
0001
0010
0000
,
1000
0000
0010
0000
0001
0000
0010
0000
1000
0000
0010
0000
0100
0000
1000
0001
,
0000
0000
0000
0000
0101
0000
0001
0100
0010
0000
0100
0001
0000
0010
0100
0000
,
1000
0000
0010
0000
0001
0000
0010
1000
0100
0010
0000
0100
0000
1000
0000
1001
,
0000
0000
0001
0000
0100
0000
0010
0100
0010
0000
1000
0001
1000
0000
0100
0000
,
0010
0000
0100
1000
0100
0000
1000
0001
1000
0000
0010
0100
0000
0001
0000
0101
,
0000
0200
0302
0023
0230
2300
3020
0230
,
0302
2003
3002
0203
0320
2030
3020
0130
,
0101
0000
0001
1000
0001
0000
1000
0010
0000
0100
0000
0010
1000
0000
0100
0000
,
0010
0100
0000
1000
0000
0001
0100
0001
0100
0010
0100
0010
1000
0001
1000
0001
,
0010
0100
2000
0000
3020
0000
0230
0000
0302
0000
0023
0000
0000
0000
0230
0000
,
2300
3002
0203
0320
0230
0302
0023
0130
,
1100
0000
0000
0000
1000
0100
0010
0100
1000
0000
1000
0020
0000
0000
0130
0002
,
1000
0000
0100
0000
1000
0000
0010
0203
1000
0000
0010
0000
1000
0000
0310
0000
,
0110
0000
0000
0000
0001
0100
0010
0100
0001
0000
0001
0020
0000
0000
0130
2000
,
0001
0000
0100
0000
0001
0000
0010
3200
0000
0000
0001
0000
0010
0000
0301
0000
,
1001
0011
1001
1100
,
1000
0000
0010
0000
0001
0000
1000
0100
0000
0000
0100
0000
0001
0000
0010
0000
,
0100
1000
0100
1000
0001
0000
0001
0100
0000
0010
0000
0100
0001
0000
0010
0000
,
0100
0000
1000
0000
0001
0000
0100
0000
0010
0000
0100
0010
0100
0000
0001
0000
,
1100
0000
1000
0010
0100
0000
0010
0100
0000
0010
0000
0100
0001
0000
0101
0000
,
0000
0000
0001
0010
0100
0000
0010
0100
0000
0010
0000
0100
1000
0000
1100
0000
,
0000
0000
1000
0001
0100
0000
0001
0100
0000
1000
0000
0100
0001
0000
0011
0000
,
0010
0000
0100
0000
1000
0010
0000
0100
0000
0020
0000
0000
0130
0000
0001
0000
,
1000
0000
0100
0010
0100
0000
0001
0100
0000
1000
0000
0010
0100
0000
0101
0000
,
0001
0000
0100
0000
1000
0000
0100
0010
0000
1000
0000
0001
0010
0000
0100
0000
,
0020
0000
0000
0000
0000
0000
0000
0000
0000
0000
0000
0000
0000
0000
0000
0000
0000
0000
0000
0000
0000
0000
0000
0000
0000
0000
0000
0000
0000
0000
0000
0000
0000
0000
0000
0000
0000
0000
0000
0000
0000
0000
0000
0000
0000
0000
0000
0000
0000
0000
0000
0000
0000
0000
0000
0000
0000
0000
0000
0000
0000
0000
0000
0000
0000
0000
0000
0000
0000
0000
0000
0000
0000
0000
0000
0000
0000
0000
0000
0000
0000
0000
0000
0000
0000
0000
0000
0000
0000
0000
0000
0000
0000
0000
0000
0000
0032
0003
0000
0000
0000
0000
0000
0000
0000
0000
0000
0000
1000
0000
0000
0000
0000
0000
0000
0000
0000
0000
0000
0000
0000
0000
0000
0000
0000
0000
0000
0000
0000
0000
0000
0000
0001
0000
0000
0000
0000
0000
0000
0000
0000
0000
0000
0000
0000
0000
0000
0000
0000
0000
0000
0000
0000
0000
0000
0000
1000
0000
0000
0000
0000
0000
0000
0000
0000
0000
0000
0000
0000
0000
0000
0000
0000
0000
0000
0000
0000
0000
0000
0000
0001
0000
0000
0000
0000
0000
0000
0000
0000
0000
0000
0000
,
0200
0000
0000
0000
0000
0000
0000
0000
0000
0000
0000
0000
0000
0000
0000
0000
0000
0000
0000
0000
0000
0000
0000
0000
0310
0000
0000
0000
0000
0000
0000
0000
0000
0000
0000
0000
0000
0000
0000
0000
0000
0000
0000
0000
0000
0000
0000
0000
0220
0330
0000
0000
0000
0000
0000
0000
0000
0000
0000
0000
0000
0000
0000
0000
0000
0000
0000
0000
0000
0000
0000
0000
0000
0000
0000
0000
0000
0000
0000
0000
0000
0000
0000
0000
0000
0000
0000
0000
0000
0000
0000
0000
0000
0000
0000
0000
1001
0000
0000
0000
0000
0000
0000
0000
0000
0000
0000
0000
0000
0000
0000
0000
0000
0000
0000
0000
0000
0000
0000
0000
0000
0000
0000
0000
0000
0000
0000
0000
0000
0000
0000
0000
0000
0000
0000
0000
0000
0000
0000
0000
0000
0000
0000
0000
1001
0000
0000
0000
0000
0000
0000
0000
0000
0000
0000
0000
0000
0000
0000
0000
0000
0000
0000
0000
0000
0000
0000
0000
0010
0000
0000
0000
0000
0000
0000
0000
0000
0000
0000
0000
0100
0000
0000
0000
0000
0000
0000
0000
0000
0000
0000
0000
,
0000
0010
0100
0000
0101
0000
0001
0000
1100
0000
1000
0000
0101
0000
0001
0100
,
0010
0000
0010
0100
0000
0001
0010
0000
0100
0010
0000
0001
0000
1000
0010
0000
,
0100
0000
0000
0000
0000
0000
0000
0000
0000
0000
0000
0000
0010
0000
0000
0000
0000
0000
0000
0000
0000
0000
0000
0000
0000
0000
0000
0000
0000
0000
0000
0000
0000
0000
0000
0000
1000
0000
0000
0000
0000
0000
0000
0000
0000
0000
0000
0000
0000
0000
0000
0000
0000
0000
0000
0000
0000
0000
0000
0000
0001
0000
0000
0000
0000
0000
0000
0000
0000
0000
0000
0000
1000
0000
0000
0000
0000
0000
0000
0000
0000
0000
0000
0000
0000
0000
0000
0000
0000
0000
0000
0000
0000
0000
0000
0000
0010
0000
0000
0000
0000
0000
0000
0000
0000
0000
0000
0000
0000
0000
0000
0000
0000
0000
0000
0000
0000
0000
0000
0000
0100
0000
0000
0000
0000
0000
0000
0000
0000
0000
0000
0000
0000
0000
0000
0000
0000
0000
0000
0000
0000
0000
0000
0000
0202
0303
0000
0000
0000
0000
0000
0000
0000
0000
0000
0000
0202
0303
0000
0000
0000
0000
0000
0000
0000
0000
0000
0000
2200
3300
0000
0000
0000
0000
0000
0000
0000
0000
0000
0000
2200
3300
0000
0000
0000
0000
0000
0000
0000
0000
0000
0000
,
1001
0000
0000
0000
0110
0000
0000
0000
1001
0000
0100
0010
0000
0100
0010
0000
,
1010
0000
1000
0000
0011
0000
0001
0000
1010
0000
1000
0010
0100
0000
0100
0010
,
0000
0000
1000
0000
0001
0010
0000
0100
0000
0010
0001
0000
1000
0001
0000
0100
,
0000
0010
1000
0100
0001
0000
0100
0000
1000
0000
0001
1000
0000
0001
0000
1001
,
0000
0000
0000
0000
1000
0000
0010
0100
0010
0000
0100
0001
0010
0000
0100
0010
,
0100
0000
0010
0001
0100
0000
1000
0100
0000
0010
1000
0100
0001
0000
0100
0000
,
1000
0010
0100
0000
1000
0000
0100
0010
0000
1000
0000
0100
0010
0000
0100
0000
,
1000
0001
0100
0000
0010
0100
0000
0010
0000
1000
0001
0000
0011
0000
1100
0000
,
1001
0000
0000
0000
0110
0000
0000
0000
1001
0000
0000
0011
0000
0000
0010
0000
,
1100
0000
1000
0000
0101
0000
0001
0000
1100
0000
1000
0001
0010
0000
0010
0100
,
0000
0000
0000
0000
0000
0000
0000
0000
0000
0000
0000
0000
0000
0000
0000
0000
0000
0000
0000
0000
0000
0000
0000
0000
1000
0000
0000
0000
0000
0000
0000
0000
0000
0000
0000
0000
0000
0000
0000
0000
0000
0000
0000
0000
0000
0000
0000
0000
0010
0000
0000
0000
0000
0000
0000
0000
0000
0000
0000
0000
0100
0000
0000
0000
0000
0000
0000
0000
0000
0000
0000
0000
0000
0000
0000
0000
0000
0000
0000
0000
0000
0000
0000
0000
0001
0000
0000
0000
0000
0000
0000
0000
0000
0000
0000
0000
0000
0000
0000
0000
0000
0000
0000
0000
0000
0000
0000
0000
1000
0000
0000
0000
0000
0000
0000
0000
0000
0000
0000
0000
0001
0000
0000
0000
0000
0000
0000
0000
0000
0000
0000
0000
0000
0000
0000
0000
0000
0000
0000
0000
0000
0000
0000
0000
0010
0000
0000
0000
0000
0000
0000
0000
0000
0000
0000
0000
0100
0000
0000
0000
0000
0000
0000
0000
0000
0000
0000
0000
0000
0000
0000
0000
0000
0000
0000
0000
0000
0000
0000
0000
2200
3300
0000
0000
0000
0000
0000
0000
0000
0000
0000
0000
,
0000
0000
0000
0000
0001
1000
0001
1000
0000
0010
0000
0100
0000
0010
2000
0000
0000
0000
0000
0000
0000
0000
0000
0000
3001
0000
0000
0000
0010
0000
0000
0000
,
0100
0000
1000
0001
1000
0000
0010
0000
0100
0001
0000
1000
0100
1000
0100
0010
,
0100
1000
0100
0010
0001
0000
1000
0010
0100
0000
0010
1000
0001
0000
0010
0100
,
1000
0000
0001
0100
0010
0100
0000
0001
0010
0000
0100
0000
1000
0000
0001
0100
,
0000
0001
1000
0001
1000
0000
0010
0000
0100
0000
0001
0010
0100
0000
0010
0001
,
0000
1000
0000
0010
0100
0000
0101
0000
0000
0001
1000
0100
1000
0001
1000
0100
,
0000
0010
0000
0100
1000
0000
1100
0000
0000
0000
0100
1000
0100
1000
0001
0100
,
0000
0010
0000
0100
0001
0000
0010
0000
0001
1000
0000
0001
0000
1000
0000
0001
,
0100
0020
0000
0000
0130
0001
1000
0100
,
0010
0000
0100
1000
0001
0000
0100
0000
0110
0000
0000
0000
1001
0000
1000
0010
,
0100
0000
0010
1000
0000
0001
0010
0000
0100
0000
1000
0000
0010
0000
1000
0000
,
0100
0010
0001
0010
0100
0000
1000
0001
0000
0000
0000
0000
1001
0000
0001
0010
,
0100
0000
1000
0010
0000
0100
0010
0000
0100
0000
0001
0000
0010
0000
0001
0000
,
1000
0100
1000
0100
0010
0001
0010
0001
1000
0000
0000
0000
1001
0000
0001
0010
,
0100
0000
0010
0001
0000
1000
0010
0000
0100
0000
0001
0000
0010
0000
0001
0000
,
1000
0010
0100
0010
1000
0000
0001
0010
0000
0000
0000
0000
1001
0000
1000
0010
,
0100
0000
0001
0010
0000
0100
0010
0000
0001
0000
1000
0000
0001
0000
1000
0000
,
0001
0000
1000
0010
0000
0100
0000
0110
0000
0000
0000
0000
0000
0000
0000
0000
;

//--------------- dance-single - ----------------
#NOTES:
     dance-single:
     :
     Challenge:
     17:
     0.621305,0.68076,0.007725,0,0.166086,563,562,1,0,0,0,0.621305,0.68076,0.007725,0,0.166086,563,562,1,0,0,0:
0000
0000
0000
0000
,
0000
0000
0000
0000
,
0000
0000
0000
0000
,
0000
0000
0000
0000
,
0000
0000
0000
0000
,
0000
0000
0000
0000
,
0101
0000
0000
0000
1010
0000
0000
0000
0101
0000
0001
0010
0000
0000
0100
0000
,
1000
0000
0001
0000
1000
0000
0001
0000
0100
0000
0010
0000
1000
0001
0000
0010
,
0000
0000
1100
0000
0010
0000
0000
0101
0000
0001
0100
0000
0010
1000
0100
0010
,
0000
0100
1000
0010
0100
0010
1000
0001
0010
0000
0100
1000
0001
0000
0100
0010
,
0000
0000
0000
0000
1001
0000
1000
0010
0100
0000
1000
0100
0000
0010
1000
0000
,
0011
0000
1100
0000
0011
0000
1000
0001
0100
0001
0010
0000
0110
0000
1000
0001
,
0000
0000
0000
0000
1001
0000
0001
0010
0100
0000
0001
0100
0000
0010
0001
0000
,
1000
0010
0100
0010
1000
0000
0100
0010
1000
0010
0100
1000
0001
0010
0100
1000
,
0001
0000
0000
0000
1001
0000
1000
0100
0010
0000
1000
0010
0000
0100
1000
0000
,
0101
0000
1010
0000
0101
0000
1000
0001
0010
0001
0100
0000
0110
0000
1000
0001
,
0000
0000
0000
0000
1001
0000
0001
0100
0010
0000
0001
0010
0000
0100
0010
0000
,
1000
0000
0001
0000
0100
0000
0001
0000
0100
0000
0001
0000
1000
0000
0000
0000
0000
0000
0010
0000
0000
0100
0000
0000
0010
0000
0000
0100
0000
0000
0000
0000
0000
0001
0000
0000
0000
0000
0000
1000
0000
0000
0000
0000
0000
1001
0000
0000
,
0000
0000
0001
0010
0100
0000
0010
0001
1000
0000
0010
0001
0010
0000
1000
0100
,
0010
0000
0100
1000
0001
0000
0010
1000
0010
0000
0001
1000
0000
0001
0000
0110
,
0000
0002
0023
0230
2300
3020
0032
0023
,
2030
0000
3002
0000
0203
0000
0320
1000
0032
0000
0023
0000
0230
0000
1300
0000
,
1100
0000
0100
0010
0100
0000
1000
0001
0000
0100
0000
1000
0100
0000
0001
0000
,
0010
0100
0000
0001
0000
0100
1000
0100
0010
0100
1000
0001
1000
0010
0100
0001
,
1000
0100
0020
0000
0032
0000
2003
0000
3002
0000
0023
0000
0100
0000
0032
0000
,
2003
0010
3200
0010
2300
0001
3020
0001
0230
0010
2300
0010
3200
0001
0310
0000
,
0110
0000
0001
0000
1000
0100
0010
0001
1000
0000
0010
0100
0000
0000
0001
0200
,
0010
0000
1000
0000
0010
0000
0001
0320
0000
0000
0100
0000
1000
0000
0130
0000
,
0110
0000
0000
0000
0001
0010
0100
1000
0001
0000
0100
0010
0000
0000
1000
0200
,
0010
0000
0001
0000
0010
0000
1000
0320
0000
0000
0100
0000
0001
0000
0130
0000
,
1001
0011
1100
0110
,
0001
0100
0010
0000
0100
0000
0001
0010
0000
0000
0010
0100
1000
0001
1000
0000
,
0001
0100
0001
0100
0010
0000
0010
1000
0000
1000
0000
0010
0100
0000
0001
0000
,
0010
0100
1000
0000
0001
0010
0100
1000
0001
1000
0010
0100
0010
0000
0100
0000
,
1001
0000
0001
0010
0100
0000
0001
0100
0000
0010
0000
0100
1000
0000
1100
0000
,
0000
0000
1000
0010
0100
0000
1000
0100
0000
0010
0000
0100
0001
0000
0101
0000
,
0000
0000
0001
0010
1000
0000
0010
0100
0000
1000
0000
0001
0100
0000
0101
0000
,
1000
0001
0100
0000
0010
1000
0000
0001
0000
0020
0000
0000
0130
1000
0010
0100
,
0001
0000
1000
0100
0010
0000
1000
0010
0000
0100
0000
1000
0001
0000
1001
0000
,
1000
0000
0001
0100
0010
0000
0100
0001
0000
1000
0000
0001
1000
0000
0100
0000
,
0020
0000
0000
0000
0000
0000
0000
0000
0000
0000
0000
0000
0000
0000
0000
0000
0000
0000
0000
0000
0000
0000
0000
0000
0000
0000
0000
0000
0000
0000
0000
0000
0000
0000
0000
0000
0000
0000
0000
0000
0000
0000
0000
0000
0000
0000
0000
0000
0000
0000
0000
0000
0000
0000
0000
0000
0000
0000
0000
0000
0000
0000
0000
0000
0000
0000
0000
0000
0000
0000
0000
0000
0000
0000
0000
0000
0000
0000
0000
0000
0000
0000
0000
0000
0000
0000
0000
0000
0000
0000
0000
0000
0000
0000
0000
0000
0032
0003
0000
0000
0000
0000
0000
0000
0000
0000
0000
0000
1000
0000
0000
0000
0000
0000
0000
0000
0000
0000
0000
0000
0000
0000
0000
0000
0000
0000
0000
0000
0000
0000
0000
0000
1100
0000
0000
0000
0000
0000
0000
0000
0000
0000
0000
0000
0000
0000
0000
0000
0000
0000
0000
0000
0000
0000
0000
0000
0101
0000
0000
0000
0000
0000
0000
0000
0000
0000
0000
0000
0000
0000
0000
0000
0000
0000
0000
0000
0000
0000
0000
0000
0001
0000
0000
0000
0000
0000
0000
0000
0000
0000
0000
0000
,
0200
0000
0000
0000
0000
0000
0000
0000
0000
0000
0000
0000
0000
0000
0000
0000
0000
0000
0000
0000
0000
0000
0000
0000
0310
0000
0000
0000
0000
0000
0000
0000
0000
0000
0000
0000
0000
0000
0000
0000
0000
0000
0000
0000
0000
0000
0000
0000
0220
0330
0000
0000
0000
0000
0000
0000
0000
0000
0000
0000
0000
0000
0000
0000
0000
0000
0000
0000
0000
0000
0000
0000
0000
0000
0000
0000
0000
0000
0000
0000
0000
0000
0000
0000
0000
0000
0000
0000
0000
0000
0000
0000
0000
0000
0000
0000
1001
0000
0000
0000
0000
0000
0000
0000
0000
0000
0000
0000
0000
0000
0000
0000
0000
0000
0000
0000
0000
0000
0000
0000
1000
0000
0000
0000
0000
0000
0000
0000
0000
0000
0000
0000
0100
0000
0000
0000
0000
0000
0000
0000
0000
0000
0000
0000
0010
0000
0000
0000
0000
0000
0000
0000
0000
0000
0000
0000
0000
0000
0000
0000
0000
0000
0000
0000
0000
0000
0000
0000
0001
0000
0000
0000
0000
0000
0000
0000
0000
0000
0000
0000
1000
0000
0000
0000
0000
0000
0000
0000
0000
0000
0000
0000
,
0000
0010
0100
0000
0001
0010
0100
0010
0001
0010
0100
0010
0001
1000
0100
0010
,
0001
0000
1000
0010
0000
0010
1000
0000
0001
0010
0000
0100
0000
0010
0001
0000
,
1000
0000
0000
0000
0000
0000
0000
0000
0000
0000
0000
0000
0010
0000
0000
0000
0000
0000
0000
0000
0000
0000
0000
0000
0000
0000
0000
0000
0000
0000
0000
0000
0000
0000
0000
0000
0100
0000
0000
0000
0000
0000
0000
0000
0000
0000
0000
0000
0000
0000
0000
0000
0000
0000
0000
0000
0000
0000
0000
0000
0010
0000
0000
0000
0000
0000
0000
0000
0000
0000
0000
0000
1000
0000
0000
0000
0000
0000
0000
0000
0000
0000
0000
0000
0000
0000
0000
0000
0000
0000
0000
0000
0000
0000
0000
0000
0001
0000
0000
0000
0000
0000
0000
0000
0000
0000
0000
0000
0000
0000
0000
0000
0000
0000
0000
0000
0000
0000
0000
0000
1000
0000
0000
0000
0000
0000
0000
0000
0000
0000
0000
0000
0000
0000
0000
0000
0000
0000
0000
0000
0000
0000
0000
0000
0022
0033
0000
0000
0000
0000
0000
0000
0000
0000
0000
0000
2200
3300
0000
0000
0000
0000
0000
0000
0000
0000
0000
0000
2020
3030
0000
0000
0000
0000
0000
0000
0000
0000
0000
0000
0202
0303
0000
0000
0000
0000
0000
0000
0000
0000
0000
0000
,
0110
0000
0000
0000
1001
0000
0000
0000
1001
0000
1000
0001
0000
0010
0100
0000
,
1000
0010
0100
0010
1000
0010
0100
0010
1000
0001
0100
0010
1000
0001
0010
0100
,
0000
0000
0110
0000
1000
0001
0000
0011
0000
0010
0100
0000
0100
1000
0000
1001
,
0000
0001
0100
0010
0100
0000
0101
0000
1001
0000
0101
1100
0000
0110
0000
1001
,
0000
0000
0000
0000
1001
0000
0001
1000
0100
0000
0001
0100
0010
0000
0001
1000
,
0010
0000
0100
0010
1000
0000
0001
0100
0000
1000
0100
0001
0010
0000
0100
0000
,
0010
0001
1000
0000
0010
0000
0001
0010
0000
1010
0000
1000
0001
0000
0010
0000
,
0100
1000
0001
0000
0001
0010
0000
0110
0000
1000
0001
0000
0011
0000
0010
0100
,
0010
0000
0001
0000
1001
0000
1000
0010
0100
0000
0001
1000
0000
0001
0010
0000
,
0100
1000
0010
0100
0001
0010
0100
1000
0001
0000
0100
1000
0100
0000
0001
0010
,
0000
0000
0000
0000
0000
0000
0000
0000
0000
0000
0000
0000
0000
0000
0000
0000
0000
0000
0000
0000
0000
0000
0000
0000
0110
0000
0000
0000
0000
0000
0000
0000
0000
0000
0000
0000
0000
0000
0000
0000
0000
0000
0000
0000
0000
0000
0000
0000
1000
0000
0000
0000
0000
0000
0000
0000
0000
0000
0000
0000
0010
0000
0000
0000
0000
0000
0000
0000
0000
0000
0000
0000
0000
0000
0000
0000
0000
0000
0000
0000
0000
0000
0000
0000
0101
0000
0000
0000
0000
0000
0000
0000
0000
0000
0000
0000
0000
0000
0000
0000
0000
0000
0000
0000
0000
0000
0000
0000
0001
0000
0000
0000
0000
0000
0000
0000
0000
0000
0000
0000
0010
0000
0000
0000
0000
0000
0000
0000
0000
0000
0000
0000
0000
0000
0000
0000
0000
0000
0000
0000
0000
0000
0000
0000
0100
0000
0000
0000
0000
0000
0000
0000
0000
0000
0000
0000
1000
0000
0000
0000
0000
0000
0000
0000
0000
0000
0000
0000
0000
0000
0000
0000
0000
0000
0000
0000
0000
0000
0000
0000
2200
3300
0000
0000
0000
0000
0000
0000
0000
0000
0000
0000
,
0000
0000
0000
0000
0001
0010
0100
1000
0000
0001
0000
0100
0000
0001
0020
0000
0000
0000
0000
0000
0000
0000
0000
0000
0130
0000
0000
0000
1000
0000
0000
0000
,
0001
0000
0100
0000
0001
0000
0100
0000
0000
0010
0000
0000
1000
0000
0000
0001
0000
0000
0010
0000
0000
0000
0000
0000
0100
0000
0000
1000
0000
0000
0001
0000
0000
1000
0000
0000
0010
0000
0100
0000
0010
0000
0100
0000
0000
0001
0000
0000
,
0010
0001
1000
0100
0000
1100
0000
0011
0000
0001
0010
0000
0110
0000
0100
1000
,
0001
0000
0000
0010
0000
0000
0100
0000
1000
0000
0100
0000
1000
0000
0000
0010
0000
0000
0100
0000
0000
0010
0000
0000
1000
0000
0000
0100
0000
0000
0010
0000
0000
0001
0000
0000
1000
0000
0000
0100
0000
0000
0010
0000
0000
0001
0000
0000
,
0000
0000
0000
0100
0000
0000
0001
0000
1000
0000
0001
0000
1000
0000
0001
0000
1000
0000
0001
0000
0000
0010
0000
0000
0100
0000
0000
0010
0000
0000
0001
0000
0000
0010
0000
0000
0100
0000
0000
1000
0000
0000
0100
0000
0000
0010
0000
0000
,
0100
0000
1000
0000
0020
0000
0000
0000
0000
0100
0000
0000
0000
0000
0000
1030
0000
0000
0001
0000
0000
1000
0000
0000
0001
0000
0000
0100
0000
0000
0010
0000
0000
0100
0000
0000
0001
0000
0000
1000
0000
0000
0010
0000
0000
0100
0000
0000
,
0010
0000
0000
1000
0000
0000
0001
0000
0010
0000
0100
0000
2000
0000
0000
0000
0000
0000
0001
0000
0000
0000
0000
0000
3001
0000
0000
0100
0000
0000
1000
0000
0000
0100
0000
0000
0001
0000
0000
0010
0000
0000
0100
0000
0000
1000
0000
0000
,
0010
0001
0010
1000
0100
0010
0001
1000
1100
0101
0000
0011
0000
1100
0000
1010
,
0011
0000
0000
1001
0000
0000
0001
0010
0100
1000
0001
0010
0100
0000
0000
1100
0000
0000
0001
0000
0000
0101
0000
0000
,
0110
0000
0000
0000
0000
0000
0001
0000
1000
0000
0001
0000
1000
0000
0000
0000
0000
0000
1000
0000
0000
0100
0000
0000
0110
0000
0000
0000
0000
0000
0010
0000
0000
0000
0000
0000
1001
0000
0000
0000
0000
0000
0001
0000
0000
0100
0000
0000
,
0010
0000
0001
0010
0000
0100
0010
0000
1000
0000
0100
0000
0001
0000
0100
1000
,
0001
0100
1000
0100
0010
0000
1000
0001
0000
0000
0010
0000
1100
0000
0010
0000
,
0101
0000
0000
0000
0000
0000
1000
0000
0000
0010
0000
0000
0100
0000
0000
0000
0000
0000
0010
0000
0000
0000
0000
0000
1000
0000
0001
0000
1000
0000
0001
0000
0000
0000
0000
0000
0110
0000
0000
0000
0000
0000
1000
0000
0000
0010
0000
0000
,
0001
1000
0100
0010
0001
1000
0100
0001
0101
0000
0010
0000
1100
0000
0001
0010
,
0100
0000
0001
0100
0000
1000
0001
0000
0100
0000
1000
0000
0100
0000
0010
1000
,
0100
0001
0100
1000
0001
0000
0100
0010
0000
0000
0100
0000
1001
0000
0001
0010
,
0100
0000
0000
0000
0000
0000
0001
0000
0000
0100
0000
0000
0000
0000
0000
1000
0000
0000
0010
0000
0000
0000
0000
0000
0100
0000
0001
0000
0100
0000
0001
0000
0000
1000
0000
0000
0100
0000
0000
0000
0000
0000
0010
0000
0000
0100
0000
0000
,
1000
0000
1100
0101
0000
1001
0000
0110
0000
0000
0000
0000
0000
0000
0000
0000
;
