#TITLE:ADAMAS;
#SUBTITLE:;
#ARTIST:LiSA;
#TITLETRANSLIT:ADAMAS;
#SUBTITLETRANSLIT:;
#ARTISTTRANSLIT:LiSA;
#GENRE:ANIME;
#CREDIT:;
#MUSIC:ADAMAS.ogg;
#BANNER:ADAMAS.png;
#BACKGROUND:ADAMAS-bg.png;
#CDTITLE:;
#SAMPLESTART:56.587;
#SAMPLELENGTH:10.432;
#SELECTABLE:YES;
#OFFSET:-0.330;
#BPMS:0.000=191.000;
#STOPS:;
#BGCHANGES:5.000=ADAMAS.avi=1.000=0=0=0=StretchNoLoop====,
99999.000=-nosongbg-=1.000=0=0=0=StretchNoLoop====
;
#FGCHANGES:;

//--------------- dance-single - ----------------
#NOTES:
     dance-single:
     :
     Medium:
     12:
     0,0,0,0,0:
0000
0000
0000
0000
,
0000
0000
0000
0000
,
0000
0000
0000
0000
,
0000
0000
0000
0000
,
0000
0000
0000
0000
0000
0000
0000
1001
,
0000
0100
0010
0000
0001
1000
0100
0000
,
0001
0100
1000
0000
0010
1000
0000
1010
,
0000
0100
0001
0000
0001
0100
0010
0000
,
1010
0000
1100
0000
0100
0010
0000
1001
,
0000
0001
1000
0000
0100
0010
0001
0000
,
0011
0000
1100
0000
1000
0001
0000
0011
,
0000
0100
1000
0000
1010
0000
0101
0000
,
0002
0000
2003
0000
3001
0000
0100
0110
,
0000
0010
1000
0100
0010
0000
0010
0001
,
1000
0000
1000
0100
0010
0000
0010
0001
,
0000
1000
0100
0000
0100
1000
0001
0000
,
0001
0100
0010
0000
0010
1000
0100
0001
,
0000
0000
0001
0100
1000
0000
1000
0010
,
0100
0000
0100
0001
0010
0000
0100
1000
,
0100
0000
1001
0000
1100
0000
1000
1010
,
0000
1001
0000
0101
0000
0001
1000
0001
,
0000
0010
0100
1000
0001
0100
0010
0000
,
1000
0100
0010
0001
0100
0001
0100
0010
,
0000
0100
0001
0100
0010
1000
0100
0000
,
0010
0001
0100
1000
0100
0001
0010
0100
,
0000
1000
0100
1000
0001
0100
0001
0000
,
1010
0101
0011
1100
,
2000
3200
0320
0230
,
2300
3002
0203
0320
,
1030
1100
0100
0110
,
0010
0000
0011
0000
0001
0000
0001
0100
,
0010
1010
1000
1001
,
0001
0000
0101
0000
0100
0001
0010
0001
,
1000
0000
1000
0100
0010
0000
0010
0001
,
1000
0000
0001
0100
0010
0000
0010
1000
,
0100
1001
0010
1001
,
0001
0100
0001
0100
0010
1000
0010
0100
,
1000
0100
0001
0000
1000
0100
0001
0000
,
0001
0100
1000
0000
0001
0100
1000
0000
,
0001
0010
1000
0000
0001
0010
1000
0000
,
1000
0010
0001
0000
1000
0010
0001
0000
,
0110
0000
0001
0100
0000
1000
0100
0000
,
1001
0000
1000
0100
0000
0001
0100
0000
,
1001
0000
0001
1000
0000
1000
0100
1001
,
0000
0000
0000
0000
0000
0000
0000
1001
,
0000
1000
0010
0100
0001
1000
0001
0000
,
0011
0000
0010
0100
0000
0000
0100
1000
,
0010
1000
0100
0010
0001
0100
1000
0001
,
0011
1010
1100
0101
,
1000
0001
1000
0001
0010
0100
1000
0000
,
1100
0000
0011
0000
0001
0010
0100
2000
,
0000
3200
0000
0320
0000
0032
0003
0011
,
0000
1100
0000
0101
0000
1010
0000
0110
,
0000
0010
1000
0000
0010
1000
0010
0100
,
0000
0100
0001
0000
0100
0001
0100
0010
,
0000
0110
0000
1010
0000
1001
0000
0001
,
0100
0010
0100
0010
0100
0010
1000
0000
,
1000
0100
0100
0000
0001
0100
0100
0000
,
1000
0010
0010
0000
0001
0010
0010
0000
,
0011
0000
1010
0000
0011
0000
0100
1000
,
0000
1000
0100
0000
0100
0001
0100
1000
,
0000
0001
0100
0000
1000
0100
0001
0000
,
0010
0001
0100
0000
0010
1000
0100
0110
,
0000
0010
0001
0000
0001
1000
0100
0000
,
0100
1000
0001
0000
0100
0001
0010
0110
,
0000
0100
1000
0000
1000
0100
0010
0000
,
0011
0000
0101
0000
1010
0000
1000
0100
,
0000
0010
0001
0000
0001
0010
0100
0000
,
1000
0010
0100
0000
0100
0001
1000
0001
,
0100
0010
1000
0100
0010
0001
0100
0010
,
1000
0001
0000
0001
0010
0100
0000
1001
;

//--------------- dance-single - ----------------
#NOTES:
     dance-single:
     :
     Hard:
     15:
     0.835503,0.999756,0.672743,0.065104,0.200738,539,477,62,6,0,0,0.835503,0.999756,0.672743,0.065104,0.200738,539,477,62,6,0,0:
0000
0000
0000
0000
,
0000
0000
0000
0000
,
0000
0000
0000
0000
,
0000
0000
0000
0000
,
0000
0000
0000
0000
0000
0000
0000
0001
,
0000
1000
0100
1000
0100
0010
0001
0000
,
0001
0100
0010
0000
0010
1000
0000
1000
,
0000
0001
0100
0001
0100
0010
1000
0000
,
0001
0001
0010
0010
0100
1000
0001
0100
,
0000
0010
1000
0001
0010
0100
1000
0000
,
0001
0001
1000
1000
0001
1001
0000
0110
,
0000
0010
0100
0000
0101
0000
1010
0000
,
1000
0100
0000
0000
0010
0001
0000
0000
1000
0010
0000
0000
0110
0000
0110
0000
,
0000
0001
0100
0010
1000
0010
0100
0001
,
1000
0100
1000
0100
0010
0001
0100
1000
,
0000
1000
0100
0001
0010
0100
0010
0100
,
1000
0001
1000
0001
0100
0001
0010
1000
,
0000
0000
1000
0010
0001
0010
0100
1000
,
0001
0100
0001
0100
0001
0010
0100
1000
,
0011
0000
1010
0000
0101
0000
1000
0101
,
0000
1001
0000
1100
0000
1000
0100
0010
,
0000
0010
0100
1000
0001
0100
0010
1000
,
0001
0010
1000
0010
0100
0001
0100
1000
,
0000
1000
0100
0001
1000
0010
0001
1000
,
0010
0010
0100
0100
0001
0010
1000
0110
,
0000
0001
0100
0001
1000
0100
1000
1000
,
1001
0001
1001
1000
0001
0001
1001
0000
,
2000
3020
0230
0302
,
2003
0000
3002
0000
1003
0100
0010
0001
,
0011
0010
1100
1000
,
0110
0000
0010
0000
1001
0000
1000
0100
,
0010
0011
0010
1100
,
0100
0000
0101
0001
0010
0100
1000
0100
,
0010
0000
1100
0100
1000
0000
0101
0100
,
0001
0000
1010
1000
0100
0000
0011
0001
,
0100
1001
0010
1001
,
1000
0000
0001
0000
1000
0000
0001
0000
0100
0000
0001
0100
0010
0000
0100
0010
,
1000
0100
0010
0001
1000
0100
0010
0001
,
1000
0001
0100
0010
1000
0001
0100
0010
,
1000
0100
0001
0100
1000
0001
0100
1000
,
0100
0001
1000
0010
0100
0010
1000
0001
,
0011
1000
0100
0011
0100
1000
0011
0100
,
1010
0100
0001
1010
0100
0001
1010
0100
,
1001
0000
0001
0100
0001
0000
1001
0000
1000
0100
1000
0000
0100
0000
1001
0000
,
0000
0000
0000
0000
0000
0000
0000
1001
,
0000
0001
0010
0100
1000
0001
0100
0010
,
1100
0000
0110
0110
0000
0001
0100
0010
,
0001
0010
1000
0100
0010
0100
1000
0001
,
0100
0010
1000
0000
0100
0010
0001
0000
1000
0010
0100
0000
0001
0010
0100
0000
,
1000
0001
1000
0001
0010
0100
0010
0100
,
0110
0000
1001
0000
0001
0010
0001
0010
,
0000
0000
0100
0000
0000
0000
1000
0100
1000
0000
0001
0100
0001
0000
1001
0000
,
0000
0011
0000
1010
0000
1100
0000
0101
,
0000
0001
0010
0000
0010
0100
1000
0010
,
0100
0001
0010
0100
0010
0100
1000
1010
,
0000
1001
0000
0011
0100
1000
0100
0010
,
0001
0100
0001
0100
0001
0100
0001
0100
0001
0100
0001
0100
0001
0100
0001
0100
,
0001
0010
1000
0001
0100
1000
0001
0010
,
1000
0001
0100
1000
1010
0010
0110
0000
,
0100
0001
0000
0000
1000
0010
0000
0000
0100
0001
0010
0000
0100
1000
0010
0000
,
0100
0001
1000
0000
0100
1000
0100
1000
0100
0010
0001
0000
0010
0000
0011
0000
,
0000
0001
0010
0100
1000
0001
1000
0100
,
0010
0001
1000
0001
0010
0100
1100
1100
,
0000
1000
0010
0100
0001
1000
0001
0100
,
0010
1000
0001
1000
0010
0100
0101
0101
,
0000
0001
0100
0001
0100
1000
0100
1000
,
0100
0001
0100
0000
0010
0100
0010
0000
1000
0010
1000
0000
0100
0000
0110
0000
,
0000
0010
0001
0000
0001
0010
0100
0000
,
1000
0100
0010
0001
0010
0100
1000
0100
,
0010
0100
0010
0000
0001
0100
0001
0000
1000
0100
1000
0000
0001
0010
0100
0010
,
0001
1001
0000
0001
0100
1000
0000
1001
;

//--------------- dance-single - ----------------
#NOTES:
     dance-single:
     :
     Challenge:
     17:
     0.93161,1.115112,0.542535,0.184462,0.591363,601,551,50,17,0,0,0.93161,1.115112,0.542535,0.184462,0.591363,601,551,50,17,0,0:
0000
0000
0000
0000
,
0000
0000
0000
0000
,
0000
0000
0000
0000
,
0000
0000
0000
0000
,
0000
0000
0000
0000
0000
0000
0000
0011
,
0000
0000
0001
0100
0001
0000
0010
0000
0100
0000
1000
0000
0100
0000
0000
0000
,
1000
0100
1000
0000
0001
0000
0000
0000
0001
0000
0100
0000
0000
0000
0101
0000
,
0000
0000
1000
0010
1000
0000
0100
0000
0010
0000
0001
0000
1000
0000
0000
0000
,
0100
0010
0100
0000
1000
0001
1000
0000
0001
0100
0010
0100
0010
0100
0001
0000
,
0000
0000
1000
0100
1000
0000
0001
0000
0010
0000
0100
0000
1000
0000
0000
0000
,
0001
0100
0001
0000
1000
0010
1000
0000
0001
1000
0100
1000
0001
1000
0100
0000
,
0000
0010
0100
0000
0011
0000
1100
0000
,
1000
0100
0010
0000
0001
0100
0010
0000
1000
0010
0100
0000
0110
0000
0110
0000
,
0000
0000
0000
0001
0100
0000
0000
0010
1000
0000
0000
1000
0100
0000
0000
0010
,
0001
0000
0000
0001
1000
0000
0100
0000
0001
0000
0100
0000
0010
0000
0001
0000
,
0100
0000
0000
1000
0100
0000
0000
0001
0010
0000
0000
0100
1000
0000
0000
1000
,
0010
0000
0000
0100
0001
0000
0000
0001
1000
0000
0100
0000
0001
0000
0100
0000
,
0010
0000
0000
0010
0001
0000
0000
1000
0100
0000
0000
0100
0010
0000
0000
0001
,
1000
0000
0000
1000
0010
0000
0100
0000
0001
0000
0100
0000
1000
0000
0100
0000
,
0101
0000
0000
0000
1010
0000
0001
0100
0001
0000
1000
0010
1000
0000
0101
0000
,
0000
1001
0000
1100
0000
1000
0100
0011
,
0000
0011
0010
0100
1000
0100
0010
0001
,
0100
0010
1000
0001
0100
0010
0100
1010
,
0000
1010
0100
0001
1000
0100
0001
1000
,
0010
0100
1000
0001
0100
0010
1000
0101
,
0000
0101
0001
0001
0010
0010
0100
0100
,
0011
1000
0011
0100
1100
0110
1100
0000
,
2000
3020
0230
0302
,
1003
0100
1000
0000
0001
0100
0001
0000
1000
0100
1000
0001
0100
0001
1000
0100
,
0020
0001
0230
0001
,
2300
0000
0000
0000
0010
0000
0000
0000
3002
0000
0000
0000
1003
0000
1000
0100
,
0020
0001
0230
1000
,
0320
0000
0000
0000
0031
0000
0100
0000
1000
0000
0001
0000
0010
0000
1000
0010
,
0200
1000
0302
0010
,
0023
0000
0000
0000
0100
0000
0000
0000
0230
0000
0000
0000
0310
0000
0010
0001
,
0200
0010
0302
0100
,
1003
0000
0010
0000
0100
0000
0001
0000
0010
0000
0100
0010
0001
0010
0001
0010
,
0100
0000
1000
0000
0010
0000
0100
0000
0001
0000
1000
0000
0100
0000
0010
0001
,
0010
0000
1000
0000
0010
0000
0001
0000
0100
0000
0010
0000
1000
0000
0100
0010
,
0100
0000
0001
0000
0100
0000
0010
0000
1000
0000
0010
0000
0001
0000
1000
0010
,
1000
0000
0001
0000
0100
0000
1000
0000
0100
0000
0010
0000
0100
0000
0001
0010
,
0001
1000
0100
1100
0001
0010
0110
0100
,
1100
1000
0001
0011
0010
0001
0101
0100
,
0110
0000
1000
0010
0100
0000
0110
0000
0001
0100
0010
0000
0100
0000
1001
0000
,
0000
0000
0000
0000
0000
0000
0000
0011
,
0000
0000
0001
0010
0100
0000
1000
0000
0001
0100
0010
0000
1000
0000
0001
0000
,
1000
0010
1000
0000
0001
0000
1000
0100
1000
0000
0001
0000
0100
0000
0010
0000
,
0001
0010
0100
1000
0001
0010
1000
0001
,
1000
0100
1000
0100
0010
0001
0010
0001
1000
0010
1000
0010
0100
0000
0001
0010
,
0100
0000
0010
0000
0001
0000
1000
0100
0010
0000
0100
1000
0010
0000
0001
0000
,
0010
1000
0100
0000
0010
0001
0010
1100
,
1000
0000
1001
0000
0001
0100
0001
0100
0010
1000
0010
1000
0001
0100
0101
0000
,
0000
0011
0000
1010
0000
1100
0000
0101
,
0000
0001
0010
0000
0010
0001
0100
0010
,
1000
0000
0100
0000
0010
0000
0001
0000
0001
0000
1000
0010
1000
0000
0001
0000
,
0100
0000
0010
0000
1000
0000
0001
0000
0100
0000
0010
0000
1000
0000
0001
0100
,
0010
0100
0001
0100
0010
1000
0100
0010
0100
1000
0100
0010
0001
0000
0001
0010
,
0100
1000
1000
1100
0001
0001
0101
1000
,
0100
0011
0001
0100
1010
0100
0011
0010
,
0100
1000
0001
0000
0100
0001
1000
0000
0001
0010
0100
0010
0001
0000
1000
0001
,
0100
0001
1000
0001
1000
0100
1000
0001
1000
0100
0010
0001
1000
0001
0010
0000
,
0000
0100
1000
0100
0010
0001
1000
0001
,
0010
0100
1000
0001
1000
0100
0011
0101
,
0000
0100
0001
0100
0010
1000
0001
1000
,
0010
0100
0001
1000
0001
0100
1010
1100
,
0000
1000
0100
0010
0001
1000
0010
0100
,
0001
0100
0001
0100
0010
1000
0010
1000
0001
0010
0001
0100
0000
0000
0110
0000
,
0000
0100
0001
0000
0001
0100
1000
0000
,
1000
0100
0001
1000
0100
0001
0100
1000
,
0001
0100
0001
1000
0010
0100
0010
1000
0001
0010
0001
1000
0100
0010
0100
0010
,
1001
0000
0001
0010
0100
1000
0100
0010
0001
0000
0100
0000
0000
0000
1001
0000
;
