#TITLE:1995;
#SUBTITLE:;
#ARTIST:平井堅;
#TITLETRANSLIT:1995;
#SUBTITLETRANSLIT:;
#ARTISTTRANSLIT:Hirai Ken;
#GENRE:POP;
#CREDIT:;
#MUSIC:1995.ogg;
#BANNER:1995.png;
#BACKGROUND:1995-bg.png;
#CDTITLE:;
#SAMPLESTART:57.418;
#SAMPLELENGTH:13.913;
#SELECTABLE:YES;
#OFFSET:-0.027;
#BPMS:0.000=138.000;
#STOPS:48.000=0.054
,48.125=0.054
,48.250=0.054
,48.375=0.054
,48.500=0.054
,48.625=0.054
,48.750=0.054
,48.875=0.054
,49.000=0.054
,49.125=0.054
,49.250=0.054
,49.375=0.054
,49.500=0.054
,49.625=0.054
,49.750=0.054
,49.875=0.054
,225.000=0.217
;
#BGCHANGES:2.500=1995.avi=1.000=0=0=0=StretchNoLoop====,
99999.000=-nosongbg-=1.000=0=0=0=StretchNoLoop====
;
#FGCHANGES:;

//--------------- dance-single - ----------------
#NOTES:
     dance-single:
     :
     Hard:
     12:
     0.587446,0.644211,0.279066,0.344729,0.16826,501,467,34,42,0,0,0.587446,0.644211,0.279066,0.344729,0.16826,501,467,34,42,0,0:
0000
0000
0000
0000
,
0000
0000
0000
0000
,
0000
0000
0000
0000
,
1001
0000
0001
0100
0000
0001
0100
0000
0010
0000
1000
0001
1000
0000
0001
0000
,
1001
0000
1000
0100
0000
1000
0100
0000
0010
0000
0001
1000
0001
0000
0010
0000
,
0100
0000
1000
0000
0100
0000
1000
0000
0001
0000
0100
0000
0001
0100
0001
0000
,
1000
0010
0100
0001
1000
0100
0010
0011
,
0000
0000
0001
0000
0010
0000
0100
0000
0010
0000
0001
1000
0001
0000
0100
0000
,
0010
0000
1000
0100
1000
0000
0001
0000
0010
0000
0100
0000
1000
0000
1001
0000
,
0000
0000
0001
0000
0100
0000
0010
0000
0100
0000
0010
0100
0010
0000
1000
0000
,
0001
0100
0001
1000
0100
1000
0002
0000
,
0000
0013
0100
1000
0100
0010
0001
1000
,
0002
0000
2003
0000
3002
0000
2003
0000
3001
0000
1000
0100
0000
1000
0100
0000
,
0010
0000
0001
0000
0011
0000
0000
0000
1000
0000
0001
0100
0000
0001
0100
0000
,
0010
0000
1000
0000
0200
0000
0320
0000
0031
0000
1000
0010
0000
1000
0010
0000
,
0100
0000
0001
0000
0101
0000
0000
0000
1000
0000
0001
0010
0000
0001
0010
0000
,
0100
1000
0010
0110
0000
1000
1000
0001
,
0100
0010
1000
0002
0000
1003
0100
1000
,
0100
0010
0011
0000
0001
0100
0010
0100
,
0001
1000
0100
0020
0000
0031
0001
1000
,
0010
0100
0101
0000
1000
0010
0100
0010
,
1000
0001
1000
0200
0000
0310
0001
1000
,
0100
1000
1010
0000
1000
0010
0100
0001
,
0010
0100
1000
0001
0200
0000
1000
0000
,
0001
0000
1300
0000
1001
0100
0010
0000
,
0110
0000
1000
0000
0001
0000
0000
0000
0001
0000
0000
0101
0000
0000
1000
0000
,
0001
0000
0000
0011
0000
0000
1000
0000
0100
0000
0010
0000
0001
0000
0000
0000
,
2000
0000
0000
0000
0000
3020
0000
0000
0000
0000
0230
0000
0000
0000
0000
0000
0301
0000
0000
0000
0100
0000
0000
0000
0010
0000
0000
0000
0100
0000
0000
0000
,
0001
0010
0100
0010
1001
0010
0100
0000
,
0110
0000
0001
0000
1000
0000
0000
0000
1000
0000
0000
1100
0000
0000
0001
0000
,
1000
0000
0000
1010
0000
0000
0001
0000
0100
0000
0010
0000
1000
0000
0000
0000
,
2000
0000
0000
0000
0000
3020
0000
0000
0000
0000
0230
0000
0000
0000
0000
0000
0301
0000
0000
0000
0100
0000
0000
0000
0010
0000
0000
0000
0100
0000
0000
0000
,
0001
0010
0100
0010
0001
0100
0010
0100
,
1000
0100
0010
0100
0001
0010
0100
0010
,
1000
0010
0100
0010
0011
0000
1100
0000
,
1001
0000
0110
0000
1000
0100
0010
0100
,
1000
0010
0100
0010
1000
0100
0010
0100
,
0001
0100
0010
0100
1000
0010
0100
0010
,
0001
0010
0100
0010
1010
0000
1100
0000
,
1001
0000
0110
0000
0001
0100
0010
0100
,
0001
0010
0100
0010
0100
1000
0010
1000
,
0001
0010
0110
0000
0020
0000
0032
0000
,
0203
0000
0320
0030
1010
1000
0100
0000
,
0011
0001
0100
0000
0010
1000
0100
0010
,
0001
0001
1000
1000
0010
0100
0001
1000
,
0001
0010
0110
0000
0200
0000
2300
0000
,
3020
0000
0230
0300
0101
0001
0010
0000
,
1100
1000
0010
0000
0100
0100
0001
0001
,
1000
1000
0100
0100
0020
0000
0001
0000
,
0100
0000
0032
0000
1000
2003
0100
0000
,
0001
0100
3002
0100
,
1000
0000
0100
0000
1003
2000
0100
0000
,
0001
0000
0000
0000
0100
0000
0000
0000
3001
0000
1000
0100
0000
1000
0100
0000
,
0010
0000
0001
0000
1000
0000
0001
0000
0010
0000
0001
0100
0000
0001
0100
0000
,
0010
0000
1000
0000
0001
0000
1000
0000
0100
0000
0010
0001
0010
0000
0100
0000
,
0010
0001
0010
0000
0100
1000
0100
0000
0010
0000
0100
1000
0100
0000
0010
0001
,
0010
0000
0000
0000
0000
0000
0000
0000
0000
0000
0000
0000
0000
0000
0000
0000
0000
0000
0000
0000
0000
0000
0000
0000
0100
0000
0000
0000
0000
0000
0000
0000
0000
0000
0000
0000
0000
0000
0000
0000
0000
0000
0000
0000
0000
0000
0000
0000
2000
3000
0000
0000
0000
0000
0000
0000
0000
0000
0000
0000
0000
0000
0000
0000
0000
0000
0000
0000
0000
0000
0000
0000
0001
0000
0000
0000
0000
0000
0000
0000
0000
0000
0000
0000
0000
0000
0000
0000
0000
0000
0000
0000
0000
0000
0000
0000
0010
0000
0000
0000
0000
0000
0000
0000
0000
0000
0000
0000
0000
0000
0000
0000
0000
0000
0000
0000
0000
0000
0000
0000
0100
0000
0000
0000
0000
0000
0000
0000
0000
0000
0000
0000
0000
0000
0000
0000
0000
0000
0000
0000
0000
0000
0000
0000
2000
0000
0000
0000
0000
0000
0000
0000
0000
0000
0000
0000
0000
0000
0000
0000
0000
0000
0000
0000
0000
0000
0000
0000
0000
0000
0000
0000
0000
0000
0000
0000
0000
0000
0000
0000
0000
0000
0000
0000
0000
0000
0000
0000
0000
0000
0000
0000
,
3001
0200
0000
0310
1000
0010
1000
0001
,
0100
0001
0100
0010
2000
0000
3002
0000
,
0013
0100
0010
0000
1100
0000
0101
0000
,
1100
0000
1001
0001
0010
0100
0000
1000
,
0100
0010
0000
0001
0010
0100
2000
3002
,
0203
0320
0230
0301
2000
0000
3001
0100
,
0010
0000
0010
1000
0100
0010
0001
1000
,
0100
0000
0010
0000
0001
0000
1000
0000
0001
0100
0000
0001
0100
0000
0010
0000
,
2000
0000
0001
0000
0000
0000
3001
0000
1000
0100
0000
1000
0100
0000
0010
0000
,
0002
0000
1000
0000
0000
0000
1003
0000
0001
0010
0000
0100
1000
0000
0010
0000
,
0200
0001
0000
2300
3200
0302
0023
0230
,
2300
3020
0130
0000
0000
0000
0000
0000
;

//--------------- dance-single - ----------------
#NOTES:
     dance-single:
     :
     Challenge:
     16:
     0.886445,1.008331,0.352936,0.410391,1.013666,756,713,43,50,0,0,0.886445,1.008331,0.352936,0.410391,1.013666,756,713,43,50,0,0:
0000
0000
0000
0000
,
0000
0000
0000
0000
,
0000
0000
0000
0000
,
1001
0000
0001
0100
0001
0100
0001
0000
1000
0010
1000
0010
0100
0001
1000
0001
,
1000
0000
0001
0010
0001
0010
0001
0000
1000
0100
1000
0100
0010
0001
1000
0001
,
1000
0000
0001
0100
0001
0100
0010
0000
1000
0000
0100
0000
1000
0100
0010
0100
,
0010
0000
0001
1000
0010
0000
1000
0100
0010
0000
0001
1000
0001
0000
1000
0000
,
0010
0000
0100
0100
1000
0001
0010
0000
0010
0000
0001
1000
0001
0100
0100
1000
,
0010
0000
0100
0100
1000
0000
0100
0000
1000
0000
0001
1000
0100
0100
0001
0000
,
1000
0000
0001
0100
0100
0000
0100
0100
0100
0100
1000
0010
1000
0000
0001
0010
,
0001
1000
0100
0100
0001
0000
1000
0001
0100
0100
1000
0010
0200
0000
0000
0000
,
0310
0000
0100
0100
1000
0001
0010
0000
0100
0000
1000
0010
0100
0010
0100
0001
,
2000
3000
0000
0000
0000
0000
0200
0300
0000
0000
0000
0000
2000
3000
0000
0000
0000
0000
0200
0300
0000
0000
0000
0000
0020
0030
0000
0000
0000
0000
0002
0003
0000
0000
0000
0000
0020
0030
0000
0000
0000
0000
0002
0003
0000
0000
0000
0000
2000
3000
0000
0000
0000
0000
0020
0030
0000
0000
0000
0000
2000
3000
0000
0000
0000
0000
0020
0030
0000
0000
0000
0000
0200
0300
0000
0000
0000
0000
0002
0003
0000
0000
0000
0000
0200
0300
0000
0000
0000
0000
0002
0003
0000
0000
0000
0000
1000
0000
0000
0000
0000
0000
0000
0000
0000
0000
0000
0000
0000
0000
0000
0000
0000
0000
0000
0000
0000
0000
0000
0000
0100
0000
0000
0000
0000
0000
0000
0000
0000
0000
0000
0000
1000
0000
0000
0000
0000
0000
0000
0000
0000
0000
0000
0000
0000
0000
0000
0000
0000
0000
0000
0000
0000
0000
0000
0000
0100
0000
0000
0000
0000
0000
0000
0000
0000
0000
0000
0000
1000
0000
0000
0000
0000
0000
0000
0000
0000
0000
0000
0000
0010
0000
0000
0000
0000
0000
0000
0000
0000
0000
0000
0000
,
1000
0000
0100
0000
0011
0000
0000
0000
0001
0000
0100
0001
0000
0100
0001
0010
,
0001
0000
0100
0000
0020
0000
0230
0000
0301
0000
0010
0001
0000
0010
0001
0100
,
0001
0000
0100
0000
1010
0000
0000
0000
1000
0000
0010
1000
0000
0010
1000
0100
,
1000
0000
0001
0000
0010
0100
0010
0000
0001
0000
1000
0100
1000
0100
0020
0000
,
0032
0000
2003
0000
3020
0000
0230
0000
0000
0000
0310
1000
0010
1000
0100
0000
,
0011
0000
1100
0000
0011
0000
0000
0000
1000
0000
0001
0100
0001
0100
0001
0010
,
0002
0000
2003
0000
3020
0000
2030
0000
0000
0000
3001
0100
0001
0100
0010
0000
,
0101
0000
1010
0000
0101
0000
0000
0000
1000
0000
0001
0100
0001
0100
0001
0010
,
0200
0000
2300
0000
3002
0000
0203
0000
0000
0000
0310
1000
0010
1000
0100
0000
,
0110
0000
1001
0000
0110
0000
0000
0000
0001
0000
1000
0100
1000
0100
0020
0000
,
0032
0000
2003
0000
3020
0000
2030
0000
3200
0000
1000
0001
0000
0000
0001
1000
,
0000
0000
1000
0001
0000
0000
0310
0100
1001
0000
0100
0001
0010
0000
0100
1000
,
0010
0000
0100
0001
0010
0100
1000
0010
0100
0000
0000
0101
0000
0000
0001
0000
,
1000
0000
0000
1100
0000
0000
1000
0000
0100
0010
0001
1000
0001
0000
0001
0100
,
0020
0000
0000
0000
0000
0000
0000
0000
0000
0000
0000
0000
0000
0000
0000
2000
0030
0000
0000
0000
0000
0000
0000
0000
0000
0000
0000
0000
0000
0000
3002
0000
0000
0000
0000
0000
0000
0000
0000
0000
0000
0000
0000
0000
0000
0000
0000
0000
1003
0000
0000
0000
0000
0000
0100
0000
0000
0000
0000
0000
0010
0000
0000
0000
0000
0000
0001
0000
0000
0000
0000
0000
0100
0000
0000
0000
0000
0000
0010
0000
0000
0000
0000
0000
0100
0000
0000
0000
0000
0000
0010
0000
0000
0000
0000
0000
,
1000
0100
0010
0001
0100
0010
0100
0010
1000
0000
0010
1000
0100
0000
0010
0001
,
0100
0000
0010
1000
0100
0010
0001
0100
0010
0000
0000
1010
0000
0000
1000
0000
,
0001
0000
0000
0011
0000
0000
0001
0000
0100
0010
1000
0001
1000
0000
1000
0010
,
0200
0000
0000
0000
0000
0000
0000
0000
0000
0000
0000
0000
0000
0000
0000
0002
0300
0000
0000
0000
0000
0000
0000
0000
0000
0000
0000
0000
0000
0000
0203
0000
0000
0000
0000
0000
0000
0000
0000
0000
0000
0000
0000
0000
0000
0000
0000
0000
0310
0000
0000
0000
0000
0000
1000
0000
0000
0000
0000
0000
0001
0000
0000
0000
0000
0000
0010
0000
0000
0000
0000
0000
0100
0000
0000
0000
0000
0000
1000
0000
0000
0000
0000
0000
0001
0000
0000
0000
0000
0000
0100
0000
0000
0000
0000
0000
,
0010
1000
0001
0010
0100
1000
0001
0100
0010
0000
0010
0100
1000
0000
1000
0100
,
0010
0000
0010
0100
0001
0000
0001
0010
0100
0000
0100
0010
1000
0000
1000
0010
,
0100
0000
0100
0010
0001
0000
1001
0000
1000
0000
1100
0000
0001
0000
0101
0000
,
1000
0000
1001
0000
0010
0000
0100
0001
0010
0000
0100
1000
0010
0000
0100
0000
,
0001
0010
0100
0000
0010
0100
1000
0100
0010
0000
0010
0100
0001
0000
0001
0100
,
0010
0000
0010
0100
1000
0000
1000
0010
0100
0000
0100
0010
0001
0000
0001
0010
,
0100
0000
0100
0010
1000
0000
1001
0000
0001
0000
0101
0000
1000
0000
1100
0000
,
0001
0000
1001
0000
1000
0000
0001
0000
1000
0100
0010
0001
1000
0100
0010
0001
,
1000
0100
0010
0001
1000
0100
0010
0001
1000
0000
0010
0100
0010
0000
1000
0000
,
0001
0000
0010
0100
0010
0000
1000
0000
0020
0000
0031
0100
0002
0000
0103
0010
,
0200
0000
0310
1000
0020
0000
0130
0000
0110
0000
0000
0010
1000
0000
0000
1000
,
0100
0000
0000
0100
0001
0000
0000
0001
0100
0000
0010
0001
0010
0000
1001
0000
,
1000
0100
1000
0000
0001
0010
0100
1000
0001
0000
0100
0010
0100
0000
0001
0000
,
1000
0000
0100
0010
0100
0000
1000
0000
0020
0000
1030
0100
2000
0000
3100
0010
,
0200
0000
0310
0001
0020
0000
0130
0000
0110
0000
0000
0010
0001
0000
0000
0001
,
0100
0000
0000
0100
1000
0000
0000
1000
0100
0001
0010
0100
1000
0010
0100
0001
,
1000
0100
0010
0001
1000
0010
0100
0001
2000
0000
0000
0000
0001
0000
0000
0000
,
0100
0000
3002
0000
0010
0023
0100
0000
,
0001
0100
0032
0100
,
1000
0000
0100
0000
1003
2000
0010
0000
,
0001
0000
0000
0000
0010
0000
0000
0000
3001
0000
0100
0001
0100
0001
0010
0000
,
0100
1000
0100
1000
0010
0000
0100
0010
0100
0000
0010
1000
0010
1000
0100
0010
,
0001
0010
0001
0100
0010
1000
0001
0010
0100
0000
1000
0100
0010
0000
0001
0010
,
0100
1000
0001
0000
0001
0010
0100
1000
0001
1000
0100
0010
0001
0000
1000
0100
,
0010
0000
0000
0000
0000
0000
0000
0000
0000
0000
0000
0000
0001
0000
0000
0000
0000
0000
0000
0000
0000
0000
0000
0000
1000
0000
0000
0000
0000
0000
0000
0000
0000
0000
0000
0000
0000
0000
0000
0000
0000
0000
0000
0000
0000
0000
0000
0000
2002
3003
0000
0000
0000
0000
0000
0000
0000
0000
0000
0000
0000
0000
0000
0000
0000
0000
0000
0000
0000
0000
0000
0000
0001
0000
0000
0000
0000
0000
0000
0000
0000
0000
0000
0000
0100
0000
0000
0000
0000
0000
0000
0000
0000
0000
0000
0000
0001
0000
0000
0000
0000
0000
0000
0000
0000
0000
0000
0000
0100
0000
0000
0000
0000
0000
0000
0000
0000
0000
0000
0000
0001
0000
0000
0000
0000
0000
0000
0000
0000
0000
0000
0000
0000
0000
0000
0000
0000
0000
0000
0000
0000
0000
0000
0000
0200
0000
0000
0000
0000
0000
0000
0000
0000
0000
0000
0000
0000
0000
0000
0000
0000
0000
0000
0000
0000
0000
0000
0000
0000
0000
0000
0000
0000
0000
0000
0000
0000
0000
0000
0000
0000
0000
0000
0000
0000
0000
0000
0000
0000
0000
0000
0000
,
0310
0000
2000
0000
0000
0000
3001
0000
0100
0000
0010
0000
1000
0000
0001
0100
,
0010
1000
0001
0000
1001
0000
1000
0100
2000
0000
0000
0000
3002
0000
0000
0000
,
1003
0100
0010
0001
1000
0000
0001
0000
2100
0000
3010
0000
0102
0000
0013
0000
,
2100
0000
3010
0000
1002
0000
0013
0000
0100
0010
0100
0000
0010
0100
1000
0000
,
0100
0010
0100
0000
0010
0100
1000
0000
0100
0010
0100
0000
2000
0000
3002
0000
,
0203
0000
0320
0000
2030
0000
3001
0010
0200
0000
0000
0000
1300
0000
0010
0000
,
0100
0001
0100
0000
0010
0000
1000
0010
0100
0001
0010
0100
0010
0100
1000
0010
,
0100
0001
0010
0100
0010
0100
1000
0000
0001
0100
0000
0001
0100
0000
1010
0000
,
1200
0000
1000
0000
0310
0001
1000
0000
0100
1000
0000
0100
1000
0000
0011
0000
,
0201
0000
0001
0000
0310
1000
0001
0000
0100
0010
0000
0100
0010
0000
1010
0000
,
1100
0000
0000
0101
0000
0000
1001
0000
0000
0001
0100
0001
0100
0001
0100
0010
0100
0010
0100
0010
0100
1000
0100
1000
,
0100
1000
0100
0001
0000
0000
1001
0000
0000
0000
0000
0000
0000
0000
0000
0000
0000
0000
0000
0000
0000
0000
0000
0000
;
